Viasat History: Викинги / Vikings [серии 1-5 из 5] (Paul Russell and Andrea Vogt) [2014 г., Документально-постановочный, история, исследования, SATRip]

 
Автор Сообщение

skorpionN ®

Пол:

Стаж: 1 год 8 месяцев

Сообщений: 586



Награды: 4 (Подробнее)

Mega Seeder 3 (Количество: 1) Mega Seeder 2 (Количество: 1) Mega Seeder 1 (Количество: 1)
Торрент-статистика

Создавать темы 02-Июн-2015 21:42

[Цитировать]

Viasat History: Викинги / Vikings [серии 1-5 из 5]
Год выпуска: 2014
Страна: Великобритания, Millstream Films and Media
Жанр: Документально-постановочный, история, исследования
Продолжительность: 5x~00:45:24
Перевод: Профессиональный (одноголосый), переведено и озвучено на студии "SDI Media" перевод Анны Заславской, текст читает Роман Антанович
Режиссер: Paul Russell and Andrea Vogt
Описание: Они безжалостно грабили и захватывали чужие земли, заселяли завоеванные страны и становились их правителями. Эти дерзкие и бесстрашные мореходы на востоке достигли границ Персии, а на западе – Нового Света. Они открыли новые торговые пути, которые используются до сих пор, основали такие города как Киев и Новгород, и захватили Йорк, Неаполь и Стамбул. Их главным средством передвижения, защиты и нападения был корабль, который тогда представлял собой великолепно оснащенную машину для убийств. Они также обладали лучшими мечами, обмундированием и использовали наиболее сложные и продуманные тактики захвата.
Мы проедем через всю Европу, включая Скандинавию, Россию, Польшу, Эстонию, Францию, Турцию, Исландию и Великобританию, чтобы вместе с экспертами раскрыть секреты быта этих отважных воинов, а также пролить свет на их историю. Благодаря данным, полученным из специальных лабораторий по изучению останков, мы узнаем подробности жизни викингов ранее неизвестные ученым.
Мы изучим навигационное оборудование, благодаря которому викинги добрались до Америки и Каспийского моря. Проследим за началом их захватнических походов, расцветом и закатом их цивилизации, чтобы лучше оценить неизгладимый след, оставленный ими в странах Европы, который долгие годы замалчивался многими историками.
На протяжении нескольких веков мы практически ничего не знали о жизни великих скандинавских мореходов. Наконец, пришло время раскрыть все карты.
Список серий:
01. Рассвет эпохи / Viking Dawn
В этой серии рассказывается о загадочном происхождении викингов, их ранних завоеваниях, а также о человеческих жертвоприношениях и погребальных ритуалах.
02. Оружие викигов / Viking Weapons
У викингов были самые лучшие корабли, щиты, мечи и доспехи, они владели искусством ведения войны, как никто другой, что позволило им захватить огромные территории.
03. Захватчики и первооткрыватели / Raiders and Explorers
Новые археологические находки говорят о том, что викинги начали свои вторжения гораздо раньше, чем об этом упоминалось в летописях.
04. Викингские королевства / Viking Kingdoms
В этой серии рассказывается о том, каким образом викинги создавали свои могущественные королевства и правили огромными империями по всей Европе.
05. Дальше на восток / Eastern Promise
В этой серии рассказывается о продвижении викингов за пределы Польши, а также об их особых отношения с императором Константинополя.
Качество: SATRip
Формат: AVI
Видео кодек: XviD
Аудио кодек: AC3
Видео: 720x400 25fps 1800kbps
Аудио: AC3, 2 ch, 192kbps

Скриншоты


MediaInfo:

Format : AVI
Format/Info : Audio Video Interleave
File size : 650 MiB
Duration : 45mn 24s
Overall bit rate : 2 002 Kbps
Writing application : VirtualDubMod 1.5.10.3 | www.virtualdub-fr.org || (build 2550/release)
Writing library : VirtualDubMod build 2550/release
Video
ID : 0
Format : MPEG-4 Visual
Format profile : Advanced Simple@L5
Format settings, BVOP : 2
Format settings, QPel : Yes
Format settings, GMC : 3 warppoints
Format settings, Matrix : Default (H.263)
Codec ID : XVID
Codec ID/Hint : XviD
Duration : 45mn 24s
Bit rate : 1 800 Kbps
Width : 720 pixels
Height : 400 pixels
Display aspect ratio : 16:9
Frame rate : 25.000 fps
Color space : YUV
Chroma subsampling : 4:2:0
Bit depth : 8 bits
Scan type : Progressive
Compression mode : Lossy
Bits/(Pixel*Frame) : 0.250
Stream size : 584 MiB (90%)
Writing library : XviD 1.2.1 (UTC 2008-12-04)
Audio
ID : 1
Format : AC-3
Format/Info : Audio Coding 3
Mode extension : CM (complete main)
Format settings, Endianness : Big
Codec ID : 2000
Duration : 45mn 24s
Bit rate mode : Constant
Bit rate : 192 Kbps
Channel(s) : 2 channels
Channel positions : Front: L R
Sampling rate : 48.0 KHz
Compression mode : Lossy
Stream size : 62.4 MiB (10%)
Alignment : Split accross interleaves
Interleave, duration : 40 ms (1.00 video frame)
Interleave, preload duration : 500 ms

Внимание:

Раздача ведётся путём добавления новых серий; при каждом добавлении создаётся новый торрент. Чтобы начать докачку новой серии, пользователям необходимо сделать следующее:
- Остановить скачивание.
- Удалить старый торрент у себя из клиента (старые серии удалять не надо).
- Скачать новый торрент и запустить его у себя в клиенте вместо старого, при этом указать клиенту путь в старую папку куда и должно происходить скачивание новых серий.
Добавлено
04. Викингские королевства / Viking Kingdoms
05. Дальше на восток / Eastern Promise


Последний раз редактировалось: skorpionN (2015-07-24 11:17), всего редактировалось 9 раз(а)
[Профиль] [ЛС]

KiruhaDelMar

Стаж: 1 год 8 месяцев

Сообщений: 246



Награды: Нет

Торрент-статистика

Создавать темы 03-Июн-2015 17:53 (спустя 20 часов)

[Цитировать]

Опаньки
[Профиль] [ЛС]

skorpionN ®

Пол:

Стаж: 1 год 8 месяцев

Сообщений: 586



Награды: 4 (Подробнее)

Mega Seeder 3 (Количество: 1) Top Releaser 2 (Количество: 1) Mega Seeder 1 (Количество: 1)
Торрент-статистика

Создавать темы 24-Июн-2015 05:34 (спустя 20 дней)

[Цитировать]

Сериал окончен hmmm
[Профиль] [ЛС]
Кто просматривает тему:

Форум Тема Автор Размер
Viasat History Viasat History: BBC: Железные дороги в годы Первой мировой войны / Michael Portillo's Railways of the Great War [серии 1-5 из 5] (Tom Richardson) [2014 г., Документальный, история, HDTVRip 720p] skorpionN 3.72 GB
Viasat History Viasat History: BBC: Отчаянные дегустаторы отправляются / The Supersizers Go... [1 сезон 7 (7) 2 сезон 6 (7)] (Tом Ковени, Нил Фергюсон) [2008-2009 г., Реалити-шоу, SATRip] skorpionN 10.72 GB
Viasat History Viasat History: Американские принцессы на миллион долларов / Million Dollar American Princesses [сезон 2 серии 1-3 из 4] (Ian Lilley) [2015 г., Документальный, игровой, биографический, история,... skorpionN 1.94 GB
Viasat History Viasat History: Ватикан и Третий Рейх / The Vatican and the Third Reich (Rufo Pajares) [2014 г., Документальный, история, SATRip] skorpionN 750 MB
Viasat History Viasat History: Величайшие секреты Библии / Secrets of the Bible [серии 1-13 из 13] (Tim Gaunt) [2015 г., Документально-постановочный, история, SATRip] skorpionN 9.07 GB
Viasat History Viasat History: Восточная Пруссия Гитлера / Hitler's East Prussia [серии 1-2 из 2] (Florian Huber) [2008 г., Документальный, история, SATRip] skorpionN 1.19 GB
Viasat History Viasat History: Гинденбург: Титаник небес / Hindenburg: Titanic of the Skies (Шон Гранди / Sean Grundy) [2007 г., Документально- постановочный, драма, SATRip] skorpionN 1.24 GB
Viasat History Viasat History: Женщины-викинги / Die Frauen der Wikinger (Viking Women) [сезон 1 серии 1-2 из2] (Йоав Пэриш / Yoav Parish, Юдит Фёлькер / Judith Voelker, Kai Christi... skorpionN 1.45 GB
Показать сообщения:    

Текущее время: Сегодня 10:34

Часовой пояс: GMT



Вы не можете начинать темы
Вы не можете отвечать на сообщения
Вы не можете редактировать свои сообщения
Вы не можете удалять свои сообщения
Вы не можете голосовать в опросах
Вы не можете прикреплять файлы к сообщениям
Вы не можете скачивать файлы