Viasat History: Американские принцессы на миллион долларов / Million Dollar American Princesses [сезоны 1-2 серии 1-7 из 7] (Ian Lilley) [2015-2016 г., Документальный, игровой, биографический, история, SATRip]

 
Автор Сообщение

skorpionN ®

Пол:

Стаж: 2 года 8 месяцев

Сообщений: 854



Награды: 4 (Подробнее)

Top Releaser 2 (Количество: 1) Mega Seeder 2 (Количество: 1) Mega Seeder 3 (Количество: 1)
Торрент-статистика

Создавать темы 18-Ноя-2016 13:27

[Цитировать]

Viasat History: Американские принцессы на миллион долларов / Million Dollar American Princesses [сезоны 1-2 серии 1-7 из 7]
Год выпуска: 2015-2016
Страна: Великобритания, Finestripe Productions
Жанр: Документальный, игровой, биографический, история
Продолжительность: 7x~00:46:00
Перевод: Профессиональный (одноголосый), переведено и озвучено на студии "SDI Media", перевод Ирины Штейнбока, текст читает Ольга Зубкова
Режиссер: Ian Lilley
В ролях: ведущая - Elizabeth McGovern
Описание: Мы узнаем о жизни знаменитых и властных женщин, повлиявших на общество и сыгравших немаловажную роль в становлении современного мира. Начиная с 1890-х и до 1970-х, мы видим, как эти влиятельные женщины покидают свои поместья, в которых они были как птицы в золотых клетках, и вливаются в культурную и политическую жизнь Великобритании и Европы. В этой новой эпохе они стали не только гламурными объектами для обожания и зависти, но и освободились от оков, вынуждавших их быть послушными и прилежными дочерьми, матерями, жёнами. По примеру Грейс Келли, оставившей свою карьеру ради свадьбы с принцем Монако Ренье или Пегги Гуггенхайм, известной своими многочисленными любовниками и покровительством людей искусства. Преодолев все личностные и культурные преграды, все эти женщины стали сильнее.
Список серий:
Сезон 1:
01. Деньги за титул / Cash for Class
Первый выпуск рассказывает о начале истории принцессы-миллионерши с того момента, как прекрасная нью-йоркская наследница вышла замуж за лорда Рэндольфа Черчилля.
02. Свадьба века / Wedding of the Century
В 1895 году свадьбы англо-американских мультимиллионеров достигли своего пика.
03. Влиятельные красавицы / Movers & Shakers
В 20 веке появилась новая волна американок, которые обрели власть за счет своего характера, а не за счет денег.
Сезон 2:
01. Королевы экрана / Queens of the Screen
Актёрское мастерство некоторых женщин сделало их звёздами "голубого экрана". Но были ли эти принцессы экрана счастливы, став жёнами аристократов и монархов?
02. Королевы культуры / Queens of Culture
Как прогрессивные взгляды и сексуальные аппетиты американских наследниц сделали их покровительницами самых выдающихся и необычных людей искусства?
03. Красивые и обречённые / Beautiful and the Doomed
В начале XX века появился новый вид наследниц, которые не хотели, чтобы им навязывали, как жить. Тем не менее за многих из них до сих пор решал их муж.
04. Женщины-лидеры / Leading Ladies
Мы узнаем о политической и экономической революции, созданной богатыми женщинами, которые завладели контролем над своим имуществом и больше не желали подчиняться своим мужьям.
Качество: SATRip
Формат: AVI
Видео кодек: XviD
Аудио кодек: AC3
Видео: 704x400 25.00 fps 1800 kbps
Аудио: AC3 2ch, 48kHz, 192 kbps

Скриншоты


MediaInfo:

Format : AVI
Format/Info : Audio Video Interleave
File size : 660 MiB
Duration : 46 min 3 s
Overall bit rate : 2 004 kb/s
Writing application : VirtualDubMod 1.5.10.3 | www.virtualdub-fr.org || (build 2550/release)
Writing library : VirtualDubMod build 2550/release
Video
ID : 0
Format : MPEG-4 Visual
Format profile : Advanced Simple@L5
Format settings, BVOP : 2
Format settings, QPel : No
Format settings, GMC : No warppoints
Format settings, Matrix : Default (H.263)
Codec ID : XVID
Codec ID/Hint : XviD
Duration : 46 min 3 s
Bit rate : 1 802 kb/s
Width : 704 pixels
Height : 400 pixels
Display aspect ratio : 16:9
Frame rate : 25.000 FPS
Color space : YUV
Chroma subsampling : 4:2:0
Bit depth : 8 bits
Scan type : Progressive
Compression mode : Lossy
Bits/(Pixel*Frame) : 0.256
Stream size : 594 MiB (90%)
Writing library : XviD 1.2.1 (UTC 2008-12-04)
Audio
ID : 1
Format : AC-3
Format/Info : Audio Coding 3
Mode extension : CM (complete main)
Format settings, Endianness : Big
Codec ID : 2000
Duration : 46 min 3 s
Bit rate mode : Constant
Bit rate : 192 kb/s
Channel(s) : 2 channels
Channel positions : Front: L R
Sampling rate : 48.0 kHz
Frame rate : 31.250 FPS (1536 spf)
Compression mode : Lossy
Stream size : 63.2 MiB (10%)
Alignment : Split accross interleaves
Interleave, duration : 40 ms (1.00 video frame)
Interleave, preload duration : 500 ms

Внимание:

Раздача ведётся путём добавления новых серий; при каждом добавлении создаётся новый торрент. Чтобы начать докачку новой серии, пользователям необходимо сделать следующее:
- Остановить скачивание.
- Удалить старый торрент у себя из клиента (старые серии удалять не надо).
- Скачать новый торрент и запустить его у себя в клиенте вместо старого, при этом указать клиенту путь в старую папку куда и должно происходить скачивание новых серий.
Добавлено Сезон 1
03. Влиятельные красавицы / Movers & Shakers
[Профиль] [ЛС]
Кто просматривает тему:

Форум Тема Автор Размер
BBC BBC: Viasat History. Бразды правления. Балет на лошади / Lucy Worsley's Reins of Power: The Art of Horse Dancing (Nick Gillam-Smith) [2015 г., Документальный, история, HDTV 720p] skorpionN 3.04 GB
Viasat History Viasat History: BBC: Железные дороги в годы Первой мировой войны / Michael Portillo's Railways of the Great War [серии 1-5 из 5] (Tom Richardson) [2014 г., Документальный, история, HDTVRip 720p] skorpionN 3.72 GB
Viasat History Viasat History: BBC: Отчаянные дегустаторы отправляются / The Supersizers Go... [1 сезон 7 (7) 2 сезон 6 (7)] (Tом Ковени, Нил Фергюсон) [2008-2009 г., Реалити-шоу, SATRip] skorpionN 10.72 GB
Viasat History Viasat History: Ватикан и Третий Рейх / The Vatican and the Third Reich (Rufo Pajares) [2014 г., Документальный, история, SATRip] skorpionN 750 MB
Viasat History Viasat History: Величайшие секреты Библии / Secrets of the Bible [серии 1-13 из 13] (Tim Gaunt) [2015 г., Документально-постановочный, история, SATRip] skorpionN 9.07 GB
Viasat History Viasat History: Викинги / Vikings [серии 1-5 из 5] (Paul Russell and Andrea Vogt) [2014 г., Документально-постановочный, история, исследования, SATRip] skorpionN 3.15 GB
Viasat History Viasat History: Восточная Пруссия Гитлера / Hitler's East Prussia [серии 1-2 из 2] (Florian Huber) [2008 г., Документальный, история, SATRip] skorpionN 1.19 GB
Viasat History Viasat History: Генрих и Анна: Любовники, изменившие историю / Henry and Anne The Lovers Who Changed History [серии 1-2 из 2] [2014 г., Документальный, история, исследования, DVB] skorpionN 1.56 GB
Показать сообщения:    

Текущее время: Сегодня 21:16

Часовой пояс: GMT



Вы не можете начинать темы
Вы не можете отвечать на сообщения
Вы не можете редактировать свои сообщения
Вы не можете удалять свои сообщения
Вы не можете голосовать в опросах
Вы не можете прикреплять файлы к сообщениям
Вы не можете скачивать файлы