(Rock)Various - Re-Machined A Tribute To Deep Purple's Machine Head (2012) [FLAC 2.0 24/192|tracks (Vinyl-Rip)]

 
Автор Сообщение

sergej644 ®

Пол:

Стаж: 4 года 11 месяцев

Сообщений: 6046

Откуда: Soviet Union



Награды: Нет

Торрент-статистика

Создавать темы 27-Окт-2014 18:45

[Цитировать]

-Re-Machined A Tribute To Deep Purple's Machine Head- Год: 2012
Жанр: Rock
Продолжительность: 00:46:15
Label Eagle Records ER203011
Кодек: FLAC
Треклист:
01. Carlos Santana & Jacoby Shaddix -- Smoke On The Water (5:06)
02. Chickenfoot -- Highway Star (7:03)
03. Glenn Hughes & Chad Smith -- Maybe I'm A Leo (5:01)
04. Black Label Society -- Pictures Of Home (3:32)
05. Kings Of Chaos -- Never Before (4:05)
06. The Flaming Lips With Gibby Haynes -- Smoke On The Water (4:26)
07. Jimmy Barnes & Joe Bonamassa -- Lazy (8:53)
08. Iron Maiden -- Space Truckin' (3:29)
09. Metallica -- When A Blind Man Cries (4:41)-

Дополнительная информация:

Ripped by Crimson74, August 2014 за что ему и спасибо.
Устройство воспроизведения: Technics SP-10 MK2
Головка звукоснимателя: Audio Technica ML180
Предварительный усилитель: Kora 3T SE MM
АЦП: Edirol R-44
Обработка: с обработкой
график Трека В4 с Винила и 09 с СД декомпресс который включён бонусом для сравнения.

DR10

foobar2000 1.3.3 / Dynamic Range Meter 1.1.1
log date: 2014-10-27 21:40:27
--------------------------------------------------------------------------------
Analyzed: Black Label Society / Re-Machined A Tribute To Deep Purple's Machine Head (1)
          Carlos Santana & Jacoby Shaddix / Re-Machined A Tribute To Deep Purple's Machine Head (2)
          Chickenfoot / Re-Machined A Tribute To Deep Purple's Machine Head (3)
          Glenn Hughes & Chad Smith / Re-Machined A Tribute To Deep Purple's Machine Head (4)
          Iron Maiden / Re-Machined A Tribute To Deep Purple's Machine Head (5)
          Jimmy Barnes & Joe Bonamassa / Re-Machined A Tribute To Deep Purple's Machine Head (6)
          Kings Of Chaos / Re-Machined A Tribute To Deep Purple's Machine Head (7)
          Metallica / Re-Machined A Tribute To Deep Purple's Machine Head (8)
          The Flaming Lips With Gibby Haynes / Re-Machined A Tribute To Deep Purple's Machine Head (9)
--------------------------------------------------------------------------------
DR         Peak         RMS     Duration Track
--------------------------------------------------------------------------------
DR10      -3.04 dB   -14.59 dB      3:32 04-Pictures Of Home
DR10      -1.31 dB   -14.82 dB      5:06 01-Smoke On The Water
DR10      -3.04 dB   -14.44 dB      7:03 02-Highway Star
DR11      -3.38 dB   -16.36 dB      5:01 03-Maybe I'm A Leo
DR9       -3.72 dB   -14.01 dB      3:29 08-Space Truckin'
DR10      -2.92 dB   -14.48 dB      8:53 07-Lazy
DR10      -3.69 dB   -14.59 dB      4:05 05-Never Before
DR9       -4.19 dB   -17.10 dB      4:41 09-When A Blind Man Cries
DR11      -2.91 dB   -16.18 dB      4:26 06-Smoke On The Water
--------------------------------------------------------------------------------
Number of tracks:  9
Official DR value: DR10
Samplerate:        192000 Hz
Channels:          2
Bits per sample:   24
Bitrate:           5290 kbps
Codec:             FLAC
================================================================================

Бонус

foobar2000 1.3.3 / Dynamic Range Meter 1.1.1
log date: 2014-10-27 22:11:38
--------------------------------------------------------------------------------
Statistics for: 09-When A Blind Man Cries
Number of samples: 12222543
Duration: 4:37
--------------------------------------------------------------------------------
                 Left              Right
Peak Value:     -0.48 dB   ---     -0.23 dB
Avg RMS:       -12.85 dB   ---    -12.33 dB
DR channel:      9.52 dB   ---      9.68 dB
--------------------------------------------------------------------------------
Official DR Value: DR10
Samplerate:        44100 Hz
Channels:          2
Bits per sample:   24
Bitrate:           1598 kbps
Codec:             FLAC
================================================================================
Время раздачи: 24/7 7200 min
[Профиль] [ЛС]

Создавать темы 13-Авг-2015 11:57 (спустя 9 месяцев 16 дней)

Топик был перенесен из форума Музыка ( DVD, DVDrip, HD, HDRip Video) (Vinyl-Rip и Hand-Made) в форум Vinyl-Rip и Hand-Made
sergej644
 
Кто просматривает тему:

Показать сообщения:    

Текущее время: Сегодня 04:30

Часовой пояс: GMT



Вы не можете начинать темы
Вы не можете отвечать на сообщения
Вы не можете редактировать свои сообщения
Вы не можете удалять свои сообщения
Вы не можете голосовать в опросах
Вы не можете прикреплять файлы к сообщениям
Вы не можете скачивать файлы