(Rock) Various Artists - Summoning of the Muse / A Tribute to Dead Can Dance (2005) [FLAC 2.0 24/44.1|tracks (DC-CD)]

 
Автор Сообщение

sergej644 ®

Пол:

Стаж: 4 года 11 месяцев

Сообщений: 6035

Откуда: Soviet Union



Награды: Нет

Торрент-статистика

Создавать темы 14-Авг-2014 23:07

[Цитировать]

-Various Artists - Summoning of the Muse - A Tribute to Dead Can Dance- Год: 2005
Жанр: Rock
Lable Projekt PRO 173
Продолжительность: 00:58:38
Кодек: FLAC
DeCompressed - CD
Треклист:
01. Arcana -- The Arcane (3:31)
02. Dark Sanctuary -- Summoning Of The Muse (4:55)
03. Autumn's Grey Solace -- Musica Eternal (4:10)
04. Faith And The Muse -- Chant Of The Paladin (3:48)
05. black tape for a blue girl -- Fortune Presents Gifts Not According To The Book (7:13)
06. Rajna -- Cantara (6:50)
07. Mirabilis -- The Writing On My Father's Hand (3:57)
08. Chandeen -- In Power We Entrust The Love Advocated (5:10)
09. Arcana -- Enigma Of The Absolute (3:54)
10. Kobe -- Bird (5:16)
11. Surface 10 -- Ulysses (5:01)
12. Stoa -- Cantara (4:54)-

дополнительная информация:

DR10 после обработки

foobar2000 1.3.2 / Dynamic Range Meter 1.1.1
log date: 2014-06-30 22:20:57
--------------------------------------------------------------------------------
Analyzed: Arcana / Summoning Of The Muse - A Tribute To Dead Can Dance (1-2)
Autumn's Grey Solace / Summoning Of The Muse - A Tribute To Dead Can Dance (3)
black tape for a blue girl / Summoning Of The Muse - A Tribute To Dead Can Dance (4)
Chandeen / Summoning Of The Muse - A Tribute To Dead Can Dance (5)
Dark Sanctuary / Summoning Of The Muse - A Tribute To Dead Can Dance (6)
Faith And The Muse / Summoning Of The Muse - A Tribute To Dead Can Dance (7)
Kobe / Summoning Of The Muse - A Tribute To Dead Can Dance (8)
Mirabilis / Summoning Of The Muse - A Tribute To Dead Can Dance (9)
Rajna / Summoning Of The Muse - A Tribute To Dead Can Dance (10)
Stoa / Summoning Of The Muse - A Tribute To Dead Can Dance (11)
Surface 10 / Summoning Of The Muse - A Tribute To Dead Can Dance (12)
--------------------------------------------------------------------------------
DR Peak RMS Duration Track
--------------------------------------------------------------------------------
DR10 -1.33 dB -12.89 dB 3:31 01-The Arcane
DR10 -0.56 dB -11.02 dB 3:54 09-Enigma Of The Absolute
DR10 -0.71 dB -13.61 dB 4:10 03-Musica Eternal
DR9 -2.65 dB -14.93 dB 7:13 05-Fortune Presents Gifts Not According To The Book
DR9 -2.79 dB -13.32 dB 5:10 08-In Power We Entrust The Love Advocated
DR9 -1.49 dB -12.07 dB 4:55 02-Summoning Of The Muse
DR11 -0.36 dB -12.54 dB 3:48 04-Chant Of The Paladin
DR10 -2.35 dB -13.82 dB 5:16 10-Bird
DR11 -0.42 dB -14.25 dB 3:57 07-The Writing On My Father's Hand
DR9 -1.16 dB -12.91 dB 6:50 06-Cantara
DR10 -3.03 dB -15.90 dB 4:54 12-Cantara
DR10 -1.21 dB -12.13 dB 5:01 11-Ulysses
--------------------------------------------------------------------------------
Number of tracks: 12
Official DR value: DR10
Samplerate: 44100 Hz
Channels: 2
Bits per sample: 24
Bitrate: 1709 kbps
Codec: FLAC
================================================================================

DR7 оригинал

foobar2000 1.3.2 / Dynamic Range Meter 1.1.1
log date: 2014-06-30 19:13:54
--------------------------------------------------------------------------------
Analyzed: Arcana / Summoning of the Muse - A Tribute to Dead Can Dance (1-2)
Athan Maroulis with Surface 10 / Summoning of the Muse - A Tribute to Dead Can Dance (3)
Autumn's Grey Solace / Summoning of the Muse - A Tribute to Dead Can Dance (4)
Black Tape for a Blue Girl / Summoning of the Muse - A Tribute to Dead Can Dance (5)
Chandeen / Summoning of the Muse - A Tribute to Dead Can Dance (6)
Dark Sanctuary / Summoning of the Muse - A Tribute to Dead Can Dance (7)
Faith & The Muse / Summoning of the Muse - A Tribute to Dead Can Dance (8)
Kobe / Summoning of the Muse - A Tribute to Dead Can Dance (9)
Mirabilis / Summoning of the Muse - A Tribute to Dead Can Dance (10)
Rajna / Summoning of the Muse - A Tribute to Dead Can Dance (11)
Stoa / Summoning of the Muse - A Tribute to Dead Can Dance (12)
--------------------------------------------------------------------------------
DR Peak RMS Duration Track
--------------------------------------------------------------------------------
DR7 -0.31 dB -8.74 dB 3:31 01-The Arcane
DR5 -0.30 dB -6.32 dB 3:54 09-Enigma of the Absolute
DR6 -0.25 dB -7.89 dB 5:01 11-Ulysses
DR7 -0.39 dB -9.98 dB 4:10 03-Musica Eternal
DR7 -0.38 dB -10.08 dB 7:13 05-Fortune Presents Gifts Not According to the Book
DR8 -0.31 dB -9.14 dB 5:10 08-In Power We Entrust The Love Advocated
DR5 -0.31 dB -7.27 dB 4:55 02-Summoning of the Muse
DR7 -0.44 dB -8.72 dB 3:48 04-Chant of the Paladin
DR8 -0.30 dB -10.25 dB 5:16 10-Bird
DR11 -0.42 dB -14.25 dB 3:57 07-The Writing on My Father's Hand
DR6 -1.26 dB -9.00 dB 6:50 06-Cantara
DR8 -0.22 dB -11.89 dB 4:54 12-Cantara
--------------------------------------------------------------------------------
Number of tracks: 12
Official DR value: DR7
Samplerate: 44100 Hz
Channels: 2
Bits per sample: 16
Bitrate: 794 kbps
Codec: FLAC
================================================================================
Время раздачи: 24/7
[Профиль] [ЛС]

Создавать темы 13-Авг-2015 11:57 (спустя 11 месяцев)

Топик был перенесен из форума Музыка ( DVD, DVDrip, HD, HDRip Video) (Vinyl-Rip и Hand-Made) в форум Vinyl-Rip и Hand-Made
sergej644
 
Кто просматривает тему:

Показать сообщения:    

Текущее время: Сегодня 05:01

Часовой пояс: GMT



Вы не можете начинать темы
Вы не можете отвечать на сообщения
Вы не можете редактировать свои сообщения
Вы не можете удалять свои сообщения
Вы не можете голосовать в опросах
Вы не можете прикреплять файлы к сообщениям
Вы не можете скачивать файлы