Van Halen • Hot For Teacher (Jimmy Kimmel Live) [2015, Hard Rock, HDTV 720p]

 
Автор Сообщение

sergej644 ®

Пол:

Стаж: 4 года 11 месяцев

Сообщений: 6046

Откуда: Soviet Union



Награды: Нет

Торрент-статистика

Создавать темы 21-Май-2015 14:48

[Цитировать]


Hot For Teacher

Жанр: Hard Rock
Продолжительность: 00:10:07
Год выпуска: 03-31-2015
Качество: HDTV 720p
Контейнер: TS
Видео кодек: MPEG2
Аудио кодек: AC3
Видео: MPEG2 Video 1280x720 59.94fps 10.8 Mbps
Аудио: Dolby AC3 48000Hz 6ch 384kbps
Аудио 2: Dolby AC3 48000Hz mono 192kbps

Отчёт MediaInfo / BDInfo

General
ID                             : 1 (0x1)
Complete name                  : L:\Van Halen - Hot For Teacher.ts
Format                         : MPEG-TS
File size                      : 864 MiB
Duration                       : 10mn 6s
Overall bit rate mode          : Variable
Overall bit rate               : 11.9 Mbps
Movie name                     : JIMMY KIMMEL LIVE
Law rating                     : TV-14 (DL)
Video
ID                             : 1101 (0x44D)
Menu ID                        : 1 (0x1)
Format                         : MPEG Video
Commercial name                : HDV 720p
Format version                 : Version 2
Format profile                 : Main@High
Format settings, BVOP          : Yes
Format settings, Matrix        : Custom
Format settings, GOP           : M=3, N=30
Codec ID                       : 2
Duration                       : 10mn 6s
Bit rate mode                  : Variable
Bit rate                       : 10.8 Mbps
Maximum bit rate               : 11.5 Mbps
Width                          : 1 280 pixels
Height                         : 720 pixels
Display aspect ratio           : 16:9
Frame rate                     : 59.940 fps
Color space                    : YUV
Chroma subsampling             : 4:2:0
Bit depth                      : 8 bits
Scan type                      : Progressive
Compression mode               : Lossy
Bits/(Pixel*Frame)             : 0.195
Time code of first frame       : 00:00:00;00
Time code source               : Group of pictures header
GOP, Open/Closed               : Closed
Stream size                    : 779 MiB (90%)
Audio #1
ID                             : 1102 (0x44E)
Menu ID                        : 1 (0x1)
Format                         : AC-3
Format/Info                    : Audio Coding 3
Mode extension                 : CM (complete main)
Format settings, Endianness    : Big
Codec ID                       : 129
Duration                       : 10mn 6s
Bit rate mode                  : Constant
Bit rate                       : 384 Kbps
Channel(s)                     : 6 channels
Channel positions              : Front: L C R, Side: L R, LFE
Sampling rate                  : 48.0 KHz
Bit depth                      : 16 bits
Compression mode               : Lossy
Delay relative to video        : 6ms
Stream size                    : 27.8 MiB (3%)
Language                       : English
Audio #2
ID                             : 1103 (0x44F)
Menu ID                        : 1 (0x1)
Format                         : AC-3
Format/Info                    : Audio Coding 3
Mode extension                 : CM (complete main)
Format settings, Endianness    : Big
Codec ID                       : 129
Duration                       : 10mn 6s
Bit rate mode                  : Constant
Bit rate                       : 192 Kbps
Channel(s)                     : 1 channel
Channel positions              : Front: C
Sampling rate                  : 48.0 KHz
Bit depth                      : 16 bits
Compression mode               : Lossy
Delay relative to video        : 2ms
Stream size                    : 13.9 MiB (2%)
Language                       : Spanish
--
[Профиль] [ЛС]
Показать сообщения:    

Текущее время: Сегодня 03:22

Часовой пояс: GMT



Вы не можете начинать темы
Вы не можете отвечать на сообщения
Вы не можете редактировать свои сообщения
Вы не можете удалять свои сообщения
Вы не можете голосовать в опросах
Вы не можете прикреплять файлы к сообщениям
Вы не можете скачивать файлы