(PopMusic) Vacuum - Greatest Hits - 1998, FLAC (image+.cue), lossless

 
Автор Сообщение

sergej644 ®

Пол:

Стаж: 4 года 11 месяцев

Сообщений: 6036

Откуда: Soviet Union



Награды: Нет

Торрент-статистика

Создавать темы 20-Дек-2014 14:35

[Цитировать]

Vacuum - Greatest Hits
Жанр: PopMusic
Год выпуска диска: 1998
Производитель диска: болгария
Аудио кодек: FLAC
Тип рипа: image+.cue
Битрейт аудио: lossless
Продолжительность: 1:16:11.50

Трэклист:
01. Tonnes Of Attraction [0:04:23.25]
02. Shape Of Things To Come [0:04:06.18]
03. Ulisses [0:04:18.00]
04. I Breathe (Sing On The Skyline) [0:03:58.25]
05. Tin Soldiers [0:04:34.05]
06. Closer Than The Holy Ghost [0:05:03.55]
07. Power [0:03:55.30]
08. Pride In My Religion [0:04:04.20]
09. Tears Of A Nation [0:04:16.30]
10. Let The Mountain Cone Tome [0:03:33.35]
11. Rise And Shine Olympia [0:04:04.20]
12. Chant Like A Mantra [0:05:04.02]
13. Satyricon [0:04:08.23]
14. Nuclear India [0:04:18.02]
15. A Woman Named America [0:04:20.40]
16. The Culture Of Night [0:03:56.45]
17. Big Ideas Grand Vision [0:04:17.03]
18. Science Of The Sacred [0:03:49.47]
Total: 1:16:11.50

Отчет ЕАС

Exact Audio Copy V0.99 prebeta 4 from 23. January 2008
Отчёт EAC об извлечении, выполненном 30. июля 2008, 23:20
VACUUM / Greatest Hits
Дисковод: PLEXTOR DVDR   PX-716A   Adapter: 0  ID: 0
Режим чтения                 : Достоверность
Использование точного потока : Да
Отключение кэша аудио        : Да
Использование указателей C2  : Нет
Коррекция смещения при чтении                     : 30
Способность читать области Lead-in и Lead-out     : Нет
Заполнение пропущенных сэмплов тишиной            : Да
Удаление блоков с тишиной в начале и конце        : Нет
При вычислениях CRC использовались нулевые сэмплы : Да
Интерфейс                                         : Встроенный Win32-интерфейс для Win NT/2000
Выходной формат : Внутренние WAV-операции
Формат сэмплов  : 44.100 Гц; 16 бит; стерео
TOC извлечённого CD
     Трек |   Старт  | Длительность | Начальный сектор | Конечный сектор
    ---------------------------------------------------------------------
       1  |  0:00.00 |    4:23.25   |           0      |      19749
       2  |  4:23.25 |    4:06.18   |       19750      |      38217
       3  |  8:29.43 |    4:18.00   |       38218      |      57567
       4  | 12:47.43 |    3:58.25   |       57568      |      75442
       5  | 16:45.68 |    4:34.05   |       75443      |      95997
       6  | 21:19.73 |    5:03.55   |       95998      |     118777
       7  | 26:23.53 |    3:55.30   |      118778      |     136432
       8  | 30:19.08 |    4:04.20   |      136433      |     154752
       9  | 34:23.28 |    4:16.30   |      154753      |     173982
      10  | 38:39.58 |    3:33.35   |      173983      |     189992
      11  | 42:13.18 |    4:04.20   |      189993      |     208312
      12  | 46:17.38 |    5:04.02   |      208313      |     231114
      13  | 51:21.40 |    4:08.23   |      231115      |     249737
      14  | 55:29.63 |    4:18.02   |      249738      |     269089
      15  | 59:47.65 |    4:20.40   |      269090      |     288629
      16  | 64:08.30 |    3:56.45   |      288630      |     306374
      17  | 68:05.00 |    4:17.03   |      306375      |     325652
      18  | 72:22.03 |    3:49.47   |      325653      |     342874
Характеристики диапазона извлечения и сообщения об ошибках
Выбранный диапазон
     Имя файла E:\EAC_rip\VACUUM - Greatest Hits.wav
     Пиковый уровень 100.0 %
     Качество диапазона 100.0 %
     CRC теста 349AB6E2
     CRC копии 349AB6E2
     Копирование... OK
Ошибок не произошло
AccurateRip: сводка
Трек  1  нет в базе данных
Трек  2  нет в базе данных
Трек  3  нет в базе данных
Трек  4  нет в базе данных
Трек  5  нет в базе данных
Трек  6  нет в базе данных
Трек  7  нет в базе данных
Трек  8  нет в базе данных
Трек  9  нет в базе данных
Трек 10  нет в базе данных
Трек 11  нет в базе данных
Трек 12  нет в базе данных
Трек 13  нет в базе данных
Трек 14  нет в базе данных
Трек 15  нет в базе данных
Трек 16  нет в базе данных
Трек 17  нет в базе данных
Трек 18  нет в базе данных
Ни одного трека нет в базе AccurateRip
Конец отчёта

Tau Analyzer

[Профиль] [ЛС]

Создавать темы 13-Авг-2015 10:42 (спустя 7 месяцев 23 дня)

Топик был перенесен из форума Зарубежная в форум World Pop
sergej644
 
Кто просматривает тему:

Форум Тема Автор Размер
Pop (PopMusic) Согдиана - Узбекский альбом + бонус - 2007, Windows Media, 128 kbps oartemka178 98 MB
Показать сообщения:    

Текущее время: Сегодня 14:01

Часовой пояс: GMT



Вы не можете начинать темы
Вы не можете отвечать на сообщения
Вы не можете редактировать свои сообщения
Вы не можете удалять свои сообщения
Вы не можете голосовать в опросах
Вы не можете прикреплять файлы к сообщениям
Вы не можете скачивать файлы