(Italo-Disco) VA - ZYX Italo Disco Collection Vol. 22 (3CD) - 2016 [FLAC, tracks +.cue, lossless]

 
Автор Сообщение

sergej644 ®

Пол:

Стаж: 5 лет 10 месяцев

Сообщений: 6149

Откуда: Soviet Union



Награды: 9 (Подробнее)

Mega Seeder 4 (Количество: 1) Mega Seeder 5 (Количество: 1) Mega Seeder 1 (Количество: 1)
Торрент-статистика

Создавать темы 21-Дек-2016 18:22

[Цитировать]

-VA - ZYX Italo Disco Collection Vol. 22 (3CD)--
Год издания: 2016
Страна:
Жанр: Italo-Disco
Продолжительность: 03:27:00-Лейбл издания: ZYX Music
Страна-выпуска диска: EU
Номер по каталогу: ZYX 82886-2-Формат: FLAC
Битрейт аудио: Lossless
Тип рипа: tracks +.cue
Наличие сканов в содержимом раздачи: да
-

Трэклист

CD 1 | 01:10:11


01.Jonathan Gable - Central Park (Maxi Version)(5:36)
02.Albert One - Secrets (Extended Version)(5:18)
03.Chris Luis - The Heart Of The City (12'' Vocal)(7:05)
04.Danny Keith - Keep On Music (12'' Vocal Version)(6:45)
05.Ben Bruce - Eye To Eye (12'' Remix Version)(6:03)
06.De Niro - Italian Boy (Extended Version)(7:43)
07.G.G. Near - Living In A Rom (12'' Vocal Version)(6:12)
08.David Lyme - Bye Bye Mi Amor (Extended Version)(6:14)
09.Camaro's - Companero (12'' Vocal)(7:02)
10.Fabrizio Simoncioni - Susy Oh! (12'' Dance Version)(6:52)
11.Body Power - Dancing In The Tears (12'' Vocal Version)(5:21)

CD 2 | 01:09:28


01.Fun Fun - Happy Station (12'' Club Mix)(7:16)
02.Torrevado - Living In The Shuttle (Extended Version)(5:10)
03.Aleph - Fly To Me (12'' D.J. Version)(7:08)
04.Primadonna - I Wann Give You My Heart (12'' Mix Version)(5:52)
05.Anthony - Africa (12'' Vocal Version)(7:56)
06.Roby Benvenuto - Gringo (Extended Version)(6:35)
07.New Baccara - Call Me Up (12'' Special DJ Mix)(5:03)
08.Max Coveri - Bye Bye Baby (Extended Version)(5:51)
09.Pierre & Franz - Life In Tokyo (Maxi Version)(5:21)
10.Panorama - War In Love (12'' Vocal Version)(5:54)
11.Spooky Voice - Light My Light (Extended Version)(7:23)

CD 3 | 01:07:21


01.Mike Mareen - Love Spy (Night Mix)(8:43)
02.G.J. Lunghi - Acapulco Nights (Maxi Version)(6:28)
03.Finzy Kontini - Cha Cha Cha (Maxi Version)(5:06)
04.Mike Cannon - Voices In The Dark (Maxi Version)(6:08)
05.Michael Maltese - It Isn't Changed (12' Version)(5:45)
06.Dharma - Plastic Doll (Vocal Version)(6:28)
07.Eddy Huntington - Up & Down (Maxi Version)(6:37)
08.Portofino - All My Love (Vocal Version)(4:44)
09.Squash Gang - Moving Your Hips (Vocal Version)(5:46)
10.Valerie Dore - Get Closer (Vocal Version)(6:03)
11.Silver Pozzoli - Around My Dream (Extended Version)(5:34)
-

Лог создания рипа

CD 1

Exact Audio Copy V1.3 from 2. September 2016
EAC extraction logfile from 18. December 2016, 23:43
Various Artists / ZYX Italo Disco Collection 22
Used drive  : PLEXTOR DVDR   PX-891SA   Adapter: 1  ID: 0
Read mode               : Secure
Utilize accurate stream : Yes
Defeat audio cache      : Yes
Make use of C2 pointers : No
Read offset correction                      : 6
Overread into Lead-In and Lead-Out          : No
Fill up missing offset samples with silence : Yes
Delete leading and trailing silent blocks   : No
Null samples used in CRC calculations       : Yes
Used interface                              : Native Win32 interface for Win NT & 2000
Gap handling                                : Appended to previous track
Used output format              : User Defined Encoder
Selected bitrate                : 1024 kBit/s
Quality                         : High
Add ID3 tag                     : No
Command line compressor         : C:\Program Files (x86)\Exact Audio Copy\Flac\flac.exe
Additional command line options : -0 -V -T "ARTIST=%artist%" -T "TITLE=%title%" -T "ALBUM=%albumtitle%" -T "DATE=%year%" -T "TRACKNUMBER=%tracknr%" -T "TOTALTRACKS=%numtracks%" -T "GENRE=%genre%" -T "COMMENT=Naftamusic Release!" %source%
TOC of the extracted CD
     Track |   Start  |  Length  | Start sector | End sector
    ---------------------------------------------------------
        1  |  0:00.00 |  5:35.50 |         0    |    25174
        2  |  5:35.50 |  5:17.57 |     25175    |    49006
        3  | 10:53.32 |  7:05.27 |     49007    |    80908
        4  | 17:58.59 |  6:44.61 |     80909    |   111269
        5  | 24:43.45 |  6:02.57 |    111270    |   138476
        6  | 30:46.27 |  7:43.19 |    138477    |   173220
        7  | 38:29.46 |  6:11.39 |    173221    |   201084
        8  | 44:41.10 |  6:14.34 |    201085    |   229168
        9  | 50:55.44 |  7:01.74 |    229169    |   260817
       10  | 57:57.43 |  6:52.00 |    260818    |   291717
       11  | 64:49.43 |  5:21.04 |    291718    |   315796
Track  1
     Filename E:\Nafta Releases\VA - ZYX Italo Disco Collection 22 (3 CD 2016)[FLAC] - Naftamusic\CD 1\01 - Jonathan Gable - Central Park (Maxi Version).wav
     Pre-gap length  0:00:02.00
     Peak level 98.7 %
     Extraction speed 1.8 X
     Track quality 99.9 %
     Test CRC AE4B3EAB
     Copy CRC AE4B3EAB
     Track not present in AccurateRip database
     Copy OK
Track  2
     Filename E:\Nafta Releases\VA - ZYX Italo Disco Collection 22 (3 CD 2016)[FLAC] - Naftamusic\CD 1\02 - Albert One - Secrets (Extended Version).wav
     Peak level 98.7 %
     Extraction speed 2.5 X
     Track quality 100.0 %
     Test CRC 24403CD4
     Copy CRC 24403CD4
     Track not present in AccurateRip database
     Copy OK
Track  3
     Filename E:\Nafta Releases\VA - ZYX Italo Disco Collection 22 (3 CD 2016)[FLAC] - Naftamusic\CD 1\03 - Chris Luis - The Heart Of The City (12'' Vocal).wav
     Peak level 98.7 %
     Extraction speed 2.9 X
     Track quality 100.0 %
     Test CRC 52E969EB
     Copy CRC 52E969EB
     Track not present in AccurateRip database
     Copy OK
Track  4
     Filename E:\Nafta Releases\VA - ZYX Italo Disco Collection 22 (3 CD 2016)[FLAC] - Naftamusic\CD 1\04 - Danny Keith - Keep On Music (12'' Vocal Version).wav
     Peak level 98.7 %
     Extraction speed 3.2 X
     Track quality 100.0 %
     Test CRC 2A54D813
     Copy CRC 2A54D813
     Track not present in AccurateRip database
     Copy OK
Track  5
     Filename E:\Nafta Releases\VA - ZYX Italo Disco Collection 22 (3 CD 2016)[FLAC] - Naftamusic\CD 1\05 - Ben Bruce - Eye To Eye (12'' Remix Version).wav
     Peak level 98.7 %
     Extraction speed 3.4 X
     Track quality 100.0 %
     Test CRC E90D596C
     Copy CRC E90D596C
     Track not present in AccurateRip database
     Copy OK
Track  6
     Filename E:\Nafta Releases\VA - ZYX Italo Disco Collection 22 (3 CD 2016)[FLAC] - Naftamusic\CD 1\06 - De Niro - Italian Boy (Extended Version).wav
     Peak level 98.7 %
     Extraction speed 3.7 X
     Track quality 100.0 %
     Test CRC CB682566
     Copy CRC CB682566
     Track not present in AccurateRip database
     Copy OK
Track  7
     Filename E:\Nafta Releases\VA - ZYX Italo Disco Collection 22 (3 CD 2016)[FLAC] - Naftamusic\CD 1\07 - G.G. Near - Living In A Rom (12'' Vocal Version).wav
     Peak level 98.7 %
     Extraction speed 3.1 X
     Track quality 99.9 %
     Test CRC B2FC45EF
     Copy CRC B2FC45EF
     Track not present in AccurateRip database
     Copy OK
Track  8
     Filename E:\Nafta Releases\VA - ZYX Italo Disco Collection 22 (3 CD 2016)[FLAC] - Naftamusic\CD 1\08 - David Lyme - Bye Bye Mi Amor (Extended Version).wav
     Peak level 98.7 %
     Extraction speed 3.3 X
     Track quality 99.9 %
     Test CRC 70B9A325
     Copy CRC 70B9A325
     Track not present in AccurateRip database
     Copy OK
Track  9
     Filename E:\Nafta Releases\VA - ZYX Italo Disco Collection 22 (3 CD 2016)[FLAC] - Naftamusic\CD 1\09 - Camaro's - Companero (12'' Vocal).wav
     Peak level 98.7 %
     Extraction speed 3.6 X
     Track quality 99.9 %
     Test CRC D819F592
     Copy CRC D819F592
     Track not present in AccurateRip database
     Copy OK
Track 10
     Filename E:\Nafta Releases\VA - ZYX Italo Disco Collection 22 (3 CD 2016)[FLAC] - Naftamusic\CD 1\10 - Fabrizio Simoncioni - Susy Oh! (12'' Dance Version).wav
     Peak level 98.7 %
     Extraction speed 3.7 X
     Track quality 99.9 %
     Test CRC F0D3DDDD
     Copy CRC F0D3DDDD
     Track not present in AccurateRip database
     Copy OK
Track 11
     Filename E:\Nafta Releases\VA - ZYX Italo Disco Collection 22 (3 CD 2016)[FLAC] - Naftamusic\CD 1\11 - Body Power - Dancing In The Tears (12'' Vocal Version).wav
     Peak level 95.3 %
     Extraction speed 3.5 X
     Track quality 99.9 %
     Test CRC A3639C89
     Copy CRC A3639C89
     Track not present in AccurateRip database
     Copy OK
None of the tracks are present in the AccurateRip database
No errors occurred
End of status report

CD 2

Exact Audio Copy V1.3 from 2. September 2016
EAC extraction logfile from 19. December 2016, 0:51
Various Artists / ZYX Italo Disco Collection 22
Used drive  : PLEXTOR DVDR   PX-891SA   Adapter: 1  ID: 0
Read mode               : Secure
Utilize accurate stream : Yes
Defeat audio cache      : Yes
Make use of C2 pointers : No
Read offset correction                      : 6
Overread into Lead-In and Lead-Out          : No
Fill up missing offset samples with silence : Yes
Delete leading and trailing silent blocks   : No
Null samples used in CRC calculations       : Yes
Used interface                              : Native Win32 interface for Win NT & 2000
Gap handling                                : Appended to previous track
Used output format              : User Defined Encoder
Selected bitrate                : 1024 kBit/s
Quality                         : High
Add ID3 tag                     : No
Command line compressor         : C:\Program Files (x86)\Exact Audio Copy\Flac\flac.exe
Additional command line options : -0 -V -T "ARTIST=%artist%" -T "TITLE=%title%" -T "ALBUM=%albumtitle%" -T "DATE=%year%" -T "TRACKNUMBER=%tracknr%" -T "TOTALTRACKS=%numtracks%" -T "GENRE=%genre%" -T "COMMENT=Naftamusic Release!" %source%
TOC of the extracted CD
     Track |   Start  |  Length  | Start sector | End sector
    ---------------------------------------------------------
        1  |  0:00.00 |  7:16.29 |         0    |    32728
        2  |  7:16.29 |  5:09.68 |     32729    |    55971
        3  | 12:26.22 |  7:07.53 |     55972    |    88049
        4  | 19:34.00 |  5:51.52 |     88050    |   114426
        5  | 25:25.52 |  7:56.22 |    114427    |   150148
        6  | 33:21.74 |  6:34.42 |    150149    |   179740
        7  | 39:56.41 |  5:03.30 |    179741    |   202495
        8  | 44:59.71 |  5:50.65 |    202496    |   228810
        9  | 50:50.61 |  5:21.10 |    228811    |   252895
       10  | 56:11.71 |  5:53.56 |    252896    |   279426
       11  | 62:05.52 |  7:22.48 |    279427    |   312624
Track  1
     Filename E:\Nafta Releases\VA - ZYX Italo Disco Collection 22 (3 CD 2016)[FLAC] - Naftamusic\CD 2\01 - Fun Fun - Happy Station (12'' Club Mix).wav
     Pre-gap length  0:00:02.00
     Peak level 98.7 %
     Extraction speed 2.4 X
     Track quality 100.0 %
     Test CRC BAA03016
     Copy CRC BAA03016
     Track not present in AccurateRip database
     Copy OK
Track  2
     Filename E:\Nafta Releases\VA - ZYX Italo Disco Collection 22 (3 CD 2016)[FLAC] - Naftamusic\CD 2\02 - Torrevado - Living In The Shuttle (Extended Version).wav
     Peak level 77.4 %
     Extraction speed 2.6 X
     Track quality 100.0 %
     Test CRC D4478AF7
     Copy CRC D4478AF7
     Track not present in AccurateRip database
     Copy OK
Track  3
     Filename E:\Nafta Releases\VA - ZYX Italo Disco Collection 22 (3 CD 2016)[FLAC] - Naftamusic\CD 2\03 - Aleph - Fly To Me (12'' D.J. Version).wav
     Peak level 98.3 %
     Extraction speed 3.0 X
     Track quality 100.0 %
     Test CRC 96AA3634
     Copy CRC 96AA3634
     Track not present in AccurateRip database
     Copy OK
Track  4
     Filename E:\Nafta Releases\VA - ZYX Italo Disco Collection 22 (3 CD 2016)[FLAC] - Naftamusic\CD 2\04 - Primadonna - I Wann Give You My Heart (12'' Mix Version).wav
     Peak level 98.7 %
     Extraction speed 3.2 X
     Track quality 100.0 %
     Test CRC 0BEE1FF7
     Copy CRC 0BEE1FF7
     Track not present in AccurateRip database
     Copy OK
Track  5
     Filename E:\Nafta Releases\VA - ZYX Italo Disco Collection 22 (3 CD 2016)[FLAC] - Naftamusic\CD 2\05 - Anthony - Africa (12'' Vocal Version).wav
     Peak level 98.7 %
     Extraction speed 3.5 X
     Track quality 100.0 %
     Test CRC B5CBAA4B
     Copy CRC B5CBAA4B
     Track not present in AccurateRip database
     Copy OK
Track  6
     Filename E:\Nafta Releases\VA - ZYX Italo Disco Collection 22 (3 CD 2016)[FLAC] - Naftamusic\CD 2\06 - Roby Benvenuto - Gringo (Extended Version).wav
     Peak level 98.7 %
     Extraction speed 3.7 X
     Track quality 100.0 %
     Test CRC D61241B1
     Copy CRC D61241B1
     Track not present in AccurateRip database
     Copy OK
Track  7
     Filename E:\Nafta Releases\VA - ZYX Italo Disco Collection 22 (3 CD 2016)[FLAC] - Naftamusic\CD 2\07 - New Baccara - Call Me Up (12'' Special DJ Mix).wav
     Peak level 98.7 %
     Extraction speed 3.8 X
     Track quality 100.0 %
     Test CRC 3C1AB923
     Copy CRC 3C1AB923
     Track not present in AccurateRip database
     Copy OK
Track  8
     Filename E:\Nafta Releases\VA - ZYX Italo Disco Collection 22 (3 CD 2016)[FLAC] - Naftamusic\CD 2\08 - Max Coveri - Bye Bye Baby (Extended Version).wav
     Peak level 98.7 %
     Extraction speed 4.1 X
     Track quality 100.0 %
     Test CRC 73761374
     Copy CRC 73761374
     Track not present in AccurateRip database
     Copy OK
Track  9
     Filename E:\Nafta Releases\VA - ZYX Italo Disco Collection 22 (3 CD 2016)[FLAC] - Naftamusic\CD 2\09 - Pierre & Franz - Life In Tokyo (Maxi Version).wav
     Peak level 98.7 %
     Extraction speed 4.2 X
     Track quality 100.0 %
     Test CRC 5D847F9C
     Copy CRC 5D847F9C
     Track not present in AccurateRip database
     Copy OK
Track 10
     Filename E:\Nafta Releases\VA - ZYX Italo Disco Collection 22 (3 CD 2016)[FLAC] - Naftamusic\CD 2\10 - Panorama - War In Love (12'' Vocal Version).wav
     Peak level 98.7 %
     Extraction speed 4.4 X
     Track quality 100.0 %
     Test CRC 43628A01
     Copy CRC 43628A01
     Track not present in AccurateRip database
     Copy OK
Track 11
     Filename E:\Nafta Releases\VA - ZYX Italo Disco Collection 22 (3 CD 2016)[FLAC] - Naftamusic\CD 2\11 - Spooky Voice - Light My Light (Extended Version).wav
     Peak level 98.7 %
     Extraction speed 4.7 X
     Track quality 100.0 %
     Test CRC 688EEF6E
     Copy CRC 688EEF6E
     Track not present in AccurateRip database
     Copy OK
None of the tracks are present in the AccurateRip database
No errors occurred
End of status report

CD 3

Exact Audio Copy V1.3 from 2. September 2016
EAC extraction logfile from 19. December 2016, 1:55
Various Artists / ZYX Italo Disco Collection 22
Used drive  : PLEXTOR DVDR   PX-891SA   Adapter: 1  ID: 0
Read mode               : Secure
Utilize accurate stream : Yes
Defeat audio cache      : Yes
Make use of C2 pointers : No
Read offset correction                      : 6
Overread into Lead-In and Lead-Out          : No
Fill up missing offset samples with silence : Yes
Delete leading and trailing silent blocks   : No
Null samples used in CRC calculations       : Yes
Used interface                              : Native Win32 interface for Win NT & 2000
Gap handling                                : Appended to previous track
Used output format              : User Defined Encoder
Selected bitrate                : 1024 kBit/s
Quality                         : High
Add ID3 tag                     : No
Command line compressor         : C:\Program Files (x86)\Exact Audio Copy\Flac\flac.exe
Additional command line options : -0 -V -T "ARTIST=%artist%" -T "TITLE=%title%" -T "ALBUM=%albumtitle%" -T "DATE=%year%" -T "TRACKNUMBER=%tracknr%" -T "TOTALTRACKS=%numtracks%" -T "GENRE=%genre%" -T "COMMENT=Naftamusic Release!" %source%
TOC of the extracted CD
     Track |   Start  |  Length  | Start sector | End sector
    ---------------------------------------------------------
        1  |  0:00.00 |  8:42.55 |         0    |    39204
        2  |  8:42.55 |  6:27.59 |     39205    |    68288
        3  | 15:10.39 |  5:05.72 |     68289    |    91235
        4  | 20:16.36 |  6:07.50 |     91236    |   118810
        5  | 26:24.11 |  5:44.74 |    118811    |   144684
        6  | 32:09.10 |  6:28.02 |    144685    |   173786
        7  | 38:37.12 |  6:37.08 |    173787    |   203569
        8  | 45:14.20 |  4:44.03 |    203570    |   224872
        9  | 49:58.23 |  5:45.45 |    224873    |   250792
       10  | 55:43.68 |  6:03.23 |    250793    |   278040
       11  | 61:47.16 |  5:33.58 |    278041    |   303073
Track  1
     Filename E:\Nafta Releases\VA - ZYX Italo Disco Collection 22 (3 CD 2016)[FLAC] - Naftamusic\CD 3\01 - Mike Mareen - Love Spy (Night Mix).wav
     Pre-gap length  0:00:02.00
     Peak level 98.7 %
     Extraction speed 2.4 X
     Track quality 100.0 %
     Test CRC 01486287
     Copy CRC 01486287
     Track not present in AccurateRip database
     Copy OK
Track  2
     Filename E:\Nafta Releases\VA - ZYX Italo Disco Collection 22 (3 CD 2016)[FLAC] - Naftamusic\CD 3\02 - G.J. Lunghi - Acapulco Nights (Maxi Version).wav
     Peak level 98.7 %
     Extraction speed 2.3 X
     Track quality 99.9 %
     Test CRC 0164C363
     Copy CRC 0164C363
     Track not present in AccurateRip database
     Copy OK
Track  3
     Filename E:\Nafta Releases\VA - ZYX Italo Disco Collection 22 (3 CD 2016)[FLAC] - Naftamusic\CD 3\03 - Finzy Kontini - Cha Cha Cha (Maxi Version).wav
     Peak level 98.7 %
     Extraction speed 2.9 X
     Track quality 100.0 %
     Test CRC ADDA93A7
     Copy CRC ADDA93A7
     Track not present in AccurateRip database
     Copy OK
Track  4
     Filename E:\Nafta Releases\VA - ZYX Italo Disco Collection 22 (3 CD 2016)[FLAC] - Naftamusic\CD 3\04 - Mike Cannon - Voices In The Dark (Maxi Version).wav
     Peak level 98.7 %
     Extraction speed 3.2 X
     Track quality 100.0 %
     Test CRC 862F9C01
     Copy CRC 862F9C01
     Track not present in AccurateRip database
     Copy OK
Track  5
     Filename E:\Nafta Releases\VA - ZYX Italo Disco Collection 22 (3 CD 2016)[FLAC] - Naftamusic\CD 3\05 - Michael Maltese - It Isn't Changed (12'' Version).wav
     Peak level 91.3 %
     Extraction speed 3.4 X
     Track quality 100.0 %
     Test CRC 2AC3F323
     Copy CRC 2AC3F323
     Track not present in AccurateRip database
     Copy OK
Track  6
     Filename E:\Nafta Releases\VA - ZYX Italo Disco Collection 22 (3 CD 2016)[FLAC] - Naftamusic\CD 3\06 - Dharma - Plastic Doll (Vocal Version).wav
     Peak level 98.7 %
     Extraction speed 3.7 X
     Track quality 100.0 %
     Test CRC 72A3349F
     Copy CRC 72A3349F
     Track not present in AccurateRip database
     Copy OK
Track  7
     Filename E:\Nafta Releases\VA - ZYX Italo Disco Collection 22 (3 CD 2016)[FLAC] - Naftamusic\CD 3\07 - Eddy Huntington - Up & Down (Maxi Version).wav
     Peak level 98.7 %
     Extraction speed 3.9 X
     Track quality 100.0 %
     Test CRC 80142776
     Copy CRC 80142776
     Track not present in AccurateRip database
     Copy OK
Track  8
     Filename E:\Nafta Releases\VA - ZYX Italo Disco Collection 22 (3 CD 2016)[FLAC] - Naftamusic\CD 3\08 - Portofino - All My Love (Vocal Version).wav
     Peak level 98.7 %
     Extraction speed 4.0 X
     Track quality 100.0 %
     Test CRC 5ECEBC1F
     Copy CRC 5ECEBC1F
     Track not present in AccurateRip database
     Copy OK
Track  9
     Filename E:\Nafta Releases\VA - ZYX Italo Disco Collection 22 (3 CD 2016)[FLAC] - Naftamusic\CD 3\09 - Squash Gang - Moving Your Hips (Vocal Version).wav
     Peak level 98.7 %
     Extraction speed 3.3 X
     Track quality 99.9 %
     Test CRC 36C85E1D
     Copy CRC 36C85E1D
     Track not present in AccurateRip database
     Copy OK
Track 10
     Filename E:\Nafta Releases\VA - ZYX Italo Disco Collection 22 (3 CD 2016)[FLAC] - Naftamusic\CD 3\10 - Valerie Dore - Get Closer (Vocal Version).wav
     Peak level 98.7 %
     Extraction speed 4.4 X
     Track quality 100.0 %
     Test CRC 8820E98B
     Copy CRC 8820E98B
     Track not present in AccurateRip database
     Copy OK
Track 11
     Filename E:\Nafta Releases\VA - ZYX Italo Disco Collection 22 (3 CD 2016)[FLAC] - Naftamusic\CD 3\11 - Silver Pozzoli - Around My Dream (Extended Version).wav
     Peak level 98.7 %
     Extraction speed 4.5 X
     Track quality 100.0 %
     Test CRC A404E902
     Copy CRC A404E902
     Track not present in AccurateRip database
     Copy OK
None of the tracks are present in the AccurateRip database
No errors occurred
End of status report

Индексная карта (non-compilant .cue)

CD 1

REM GENRE "Italo Disco"
REM DATE 2016
REM DISCID A410720B
REM COMMENT "ExactAudioCopy v1.3"
PERFORMER "Various Artists"
TITLE "ZYX Italo Disco Collection 22"
REM COMPOSER ""
FILE "01 - Jonathan Gable - Central Park (Maxi Version).wav" WAVE
  TRACK 01 AUDIO
    TITLE "Central Park (Maxi Version)"
    PERFORMER "Jonathan Gable"
    REM COMPOSER ""
    INDEX 01 00:00:00
FILE "02 - Albert One - Secrets (Extended Version).wav" WAVE
  TRACK 02 AUDIO
    TITLE "Secrets (Extended Version)"
    PERFORMER "Albert One"
    REM COMPOSER ""
    INDEX 01 00:00:00
FILE "03 - Chris Luis - The Heart Of The City (12'' Vocal).wav" WAVE
  TRACK 03 AUDIO
    TITLE "The Heart Of The City (12'' Vocal)"
    PERFORMER "Chris Luis"
    REM COMPOSER ""
    INDEX 01 00:00:00
FILE "04 - Danny Keith - Keep On Music (12'' Vocal Version).wav" WAVE
  TRACK 04 AUDIO
    TITLE "Keep On Music (12'' Vocal Version)"
    PERFORMER "Danny Keith"
    REM COMPOSER ""
    INDEX 01 00:00:00
FILE "05 - Ben Bruce - Eye To Eye (12'' Remix Version).wav" WAVE
  TRACK 05 AUDIO
    TITLE "Eye To Eye (12'' Remix Version)"
    PERFORMER "Ben Bruce"
    REM COMPOSER ""
    INDEX 01 00:00:00
FILE "06 - De Niro - Italian Boy (Extended Version).wav" WAVE
  TRACK 06 AUDIO
    TITLE "Italian Boy (Extended Version)"
    PERFORMER "De Niro"
    REM COMPOSER ""
    INDEX 01 00:00:00
FILE "07 - G.G. Near - Living In A Rom (12'' Vocal Version).wav" WAVE
  TRACK 07 AUDIO
    TITLE "Living In A Rom (12'' Vocal Version)"
    PERFORMER "G.G. Near"
    REM COMPOSER ""
    INDEX 01 00:00:00
FILE "08 - David Lyme - Bye Bye Mi Amor (Extended Version).wav" WAVE
  TRACK 08 AUDIO
    TITLE "Bye Bye Mi Amor (Extended Version)"
    PERFORMER "David Lyme"
    REM COMPOSER ""
    INDEX 01 00:00:00
FILE "09 - Camaro's - Companero (12'' Vocal).wav" WAVE
  TRACK 09 AUDIO
    TITLE "Companero (12'' Vocal)"
    PERFORMER "Camaro's"
    REM COMPOSER ""
    INDEX 01 00:00:00
FILE "10 - Fabrizio Simoncioni - Susy Oh! (12'' Dance Version).wav" WAVE
  TRACK 10 AUDIO
    TITLE "Susy Oh! (12'' Dance Version)"
    PERFORMER "Fabrizio Simoncioni"
    REM COMPOSER ""
    INDEX 01 00:00:00
FILE "11 - Body Power - Dancing In The Tears (12'' Vocal Version).wav" WAVE
  TRACK 11 AUDIO
    TITLE "Dancing In The Tears (12'' Vocal Version)"
    PERFORMER "Body Power"
    REM COMPOSER ""
    INDEX 01 00:00:00

CD 2

REM GENRE "Italo Disco"
REM DATE 2016
REM DISCID 9410480B
REM COMMENT "ExactAudioCopy v1.3"
PERFORMER "Various Artists"
TITLE "ZYX Italo Disco Collection 22"
REM COMPOSER ""
FILE "01 - Fun Fun - Happy Station (12'' Club Mix).wav" WAVE
  TRACK 01 AUDIO
    TITLE "Happy Station (12'' Club Mix)"
    PERFORMER "Fun Fun"
    REM COMPOSER ""
    INDEX 01 00:00:00
FILE "02 - Torrevado - Living In The Shuttle (Extended Version).wav" WAVE
  TRACK 02 AUDIO
    TITLE "Living In The Shuttle (Extended Version)"
    PERFORMER "Torrevado"
    REM COMPOSER ""
    INDEX 01 00:00:00
FILE "03 - Aleph - Fly To Me (12'' D.J. Version).wav" WAVE
  TRACK 03 AUDIO
    TITLE "Fly To Me (12'' D.J. Version)"
    PERFORMER "Aleph"
    REM COMPOSER ""
    INDEX 01 00:00:00
FILE "04 - Primadonna - I Wann Give You My Heart (12'' Mix Version).wav" WAVE
  TRACK 04 AUDIO
    TITLE "I Wann Give You My Heart (12'' Mix Version)"
    PERFORMER "Primadonna"
    REM COMPOSER ""
    INDEX 01 00:00:00
FILE "05 - Anthony - Africa (12'' Vocal Version).wav" WAVE
  TRACK 05 AUDIO
    TITLE "Africa (12'' Vocal Version)"
    PERFORMER "Anthony"
    REM COMPOSER ""
    INDEX 01 00:00:00
FILE "06 - Roby Benvenuto - Gringo (Extended Version).wav" WAVE
  TRACK 06 AUDIO
    TITLE "Gringo (Extended Version)"
    PERFORMER "Roby Benvenuto"
    REM COMPOSER ""
    INDEX 01 00:00:00
FILE "07 - New Baccara - Call Me Up (12'' Special DJ Mix).wav" WAVE
  TRACK 07 AUDIO
    TITLE "Call Me Up (12'' Special DJ Mix)"
    PERFORMER "New Baccara"
    REM COMPOSER ""
    INDEX 01 00:00:00
FILE "08 - Max Coveri - Bye Bye Baby (Extended Version).wav" WAVE
  TRACK 08 AUDIO
    TITLE "Bye Bye Baby (Extended Version)"
    PERFORMER "Max Coveri"
    REM COMPOSER ""
    INDEX 01 00:00:00
FILE "09 - Pierre & Franz - Life In Tokyo (Maxi Version).wav" WAVE
  TRACK 09 AUDIO
    TITLE "Life In Tokyo (Maxi Version)"
    PERFORMER "Pierre & Franz"
    REM COMPOSER ""
    INDEX 01 00:00:00
FILE "10 - Panorama - War In Love (12'' Vocal Version).wav" WAVE
  TRACK 10 AUDIO
    TITLE "War In Love (12'' Vocal Version)"
    PERFORMER "Panorama"
    REM COMPOSER ""
    INDEX 01 00:00:00
FILE "11 - Spooky Voice - Light My Light (Extended Version).wav" WAVE
  TRACK 11 AUDIO
    TITLE "Light My Light (Extended Version)"
    PERFORMER "Spooky Voice"
    REM COMPOSER ""
    INDEX 01 00:00:00

CD 3

REM GENRE "Italo Disco"
REM DATE 2016
REM DISCID 8B0FC80B
REM COMMENT "ExactAudioCopy v1.3"
PERFORMER "Various Artists"
TITLE "ZYX Italo Disco Collection 22"
REM COMPOSER ""
FILE "01 - Mike Mareen - Love Spy (Night Mix).wav" WAVE
  TRACK 01 AUDIO
    TITLE "Love Spy (Night Mix)"
    PERFORMER "Mike Mareen"
    REM COMPOSER ""
    INDEX 01 00:00:00
FILE "02 - G.J. Lunghi - Acapulco Nights (Maxi Version).wav" WAVE
  TRACK 02 AUDIO
    TITLE "Acapulco Nights (Maxi Version)"
    PERFORMER "G.J. Lunghi"
    REM COMPOSER ""
    INDEX 01 00:00:00
FILE "03 - Finzy Kontini - Cha Cha Cha (Maxi Version).wav" WAVE
  TRACK 03 AUDIO
    TITLE "Cha Cha Cha (Maxi Version)"
    PERFORMER "Finzy Kontini"
    REM COMPOSER ""
    INDEX 01 00:00:00
FILE "04 - Mike Cannon - Voices In The Dark (Maxi Version).wav" WAVE
  TRACK 04 AUDIO
    TITLE "Voices In The Dark (Maxi Version)"
    PERFORMER "Mike Cannon"
    REM COMPOSER ""
    INDEX 01 00:00:00
FILE "05 - Michael Maltese - It Isn't Changed (12'' Version).wav" WAVE
  TRACK 05 AUDIO
    TITLE "It Isn't Changed (12' Version)"
    PERFORMER "Michael Maltese"
    REM COMPOSER ""
    INDEX 01 00:00:00
FILE "06 - Dharma - Plastic Doll (Vocal Version).wav" WAVE
  TRACK 06 AUDIO
    TITLE "Plastic Doll (Vocal Version)"
    PERFORMER "Dharma"
    REM COMPOSER ""
    INDEX 01 00:00:00
FILE "07 - Eddy Huntington - Up & Down (Maxi Version).wav" WAVE
  TRACK 07 AUDIO
    TITLE "Up & Down (Maxi Version)"
    PERFORMER "Eddy Huntington"
    REM COMPOSER ""
    INDEX 01 00:00:00
FILE "08 - Portofino - All My Love (Vocal Version).wav" WAVE
  TRACK 08 AUDIO
    TITLE "All My Love (Vocal Version)"
    PERFORMER "Portofino"
    REM COMPOSER ""
    INDEX 01 00:00:00
FILE "09 - Squash Gang - Moving Your Hips (Vocal Version).wav" WAVE
  TRACK 09 AUDIO
    TITLE "Moving Your Hips (Vocal Version)"
    PERFORMER "Squash Gang"
    REM COMPOSER ""
    INDEX 01 00:00:00
FILE "10 - Valerie Dore - Get Closer (Vocal Version).wav" WAVE
  TRACK 10 AUDIO
    TITLE "Get Closer (Vocal Version)"
    PERFORMER "Valerie Dore"
    REM COMPOSER ""
    INDEX 01 00:00:00
FILE "11 - Silver Pozzoli - Around My Dream (Extended Version).wav" WAVE
  TRACK 11 AUDIO
    TITLE "Around My Dream (Extended Version)"
    PERFORMER "Silver Pozzoli"
    REM COMPOSER ""
    INDEX 01 00:00:00
--
[Профиль] [ЛС]
Показать сообщения:    

Текущее время: Сегодня 05:36

Часовой пояс: GMT



Вы не можете начинать темы
Вы не можете отвечать на сообщения
Вы не можете редактировать свои сообщения
Вы не можете удалять свои сообщения
Вы не можете голосовать в опросах
Вы не можете прикреплять файлы к сообщениям
Вы не можете скачивать файлы