(Шансон) VA - XXXL ШАНСОН [1] - 2000, FLAC(image+.cue), lossless

 
Автор Сообщение

sergej644 ®

Пол:

Стаж: 4 года 11 месяцев

Сообщений: 6042

Откуда: Soviet Union



Награды: Нет

Торрент-статистика

Создавать темы 11-Ноя-2014 19:46

[Цитировать]

XXXL ШАНСОН [1] Жанр: Шансон
Страна-производитель диска: Россия
Год издания: 2000
Издатель (лейбл): © Монолит
Номер по каталогу: MT-187-1
Аудиокодек: FLAC (*.flac)
Тип рипа: image+.cue
Битрейт аудио: lossless
Продолжительность: 1:19:09
Источник (релизер): SVSSTUDIO
Наличие сканов в содержимом раздачи: 600 dpi
Треклист:

01. Михаил Круг и Вика Цыганова / Приходите в мой дом [0:03:39.52]
02. Алла Пугачева / Девочка «Секонд-хенд» [0:03:44.66]
03. Александр Розенбаум / Братан [0:03:56.61]
04. Михаил Шуфутинский / Пой, скрипка [0:04:21.59]
05. Катя Огонёк / На дальней пристани [0:03:50.07]
06. Группа «Беломорканал» / Серенада [0:04:14.00]
07. Гарик Кричевский / Охранник [0:04:39.15]
08. Группа «Лесоповал» / Первое солнышко [0:03:40.04]
09. Сергей Наговицын / На суде [0:04:46.06]
10. Слава Медяник и Галина Журавлева / Остров [0:03:11.28]
11. Сергей Трофимов / Мон шер ами [0:03:30.56]
12. Группа «Воровайки» / Вороваечки [0:03:03.59]
13. Геннадий Жаров / Телогреечка-2 [0:03:29.63]
14. Владимир Утёсов и Анна Демьянова / Нам не быть вдвоем [0:03:40.35]
15. Гера Грач / Наколочка [0:02:59.44]
16. Руслан Казанцев / Чёрный ангел [0:03:15.52]
17. Анатолий Полотно / Черёмуха [0:03:13.52]
18. Михаил Гулько / Кончается осень [0:03:32.33]
19. Сергей Север / Лагеря [0:05:18.13]
20. Александр Дюмин и Светлана Питерская / Отцвели цветы [0:04:03.72]
21. Юрий Алмазов / Наше лето [0:02:56.55]

Лог создания рипа

Exact Audio Copy V1.0 beta 3 from 29. August 2011
Отчёт EAC об извлечении, выполненном 27. декабря 2012, 2:09
Various / СЕРИЯ «XXXL» ШАНСОН - 1
Дисковод: TEAC    DV-W520GM   Adapter: 4  ID: 0
Режим чтения                 : Достоверность
Использование точного потока : Да
Отключение кэша аудио        : Да
Использование указателей C2  : Нет
Коррекция смещения при чтении                     : 6
Способность читать области Lead-in и Lead-out     : Нет
Заполнение пропущенных сэмплов тишиной            : Да
Удаление блоков с тишиной в начале и конце        : Нет
При вычислениях CRC использовались нулевые сэмплы : Да
Интерфейс                                         : Встроенный Win32-интерфейс для Win NT/2000
Выходной формат : Внутренние WAV-операции
Формат сэмплов  : 44.100 Гц; 16 бит; стерео
TOC извлечённого CD
     Трек |   Старт  | Длительность | Начальный сектор | Конечный сектор
    ---------------------------------------------------------------------
       1  |  0:00.00 |    3:39.52   |           0      |      16476
       2  |  3:39.52 |    3:44.66   |       16477      |      33342
       3  |  7:24.43 |    3:56.61   |       33343      |      51103
       4  | 11:21.29 |    4:21.59   |       51104      |      70737
       5  | 15:43.13 |    3:50.07   |       70738      |      87994
       6  | 19:33.20 |    4:14.00   |       87995      |     107044
       7  | 23:47.20 |    4:39.15   |      107045      |     127984
       8  | 28:26.35 |    3:40.04   |      127985      |     144488
       9  | 32:06.39 |    4:46.06   |      144489      |     165944
      10  | 36:52.45 |    3:11.28   |      165945      |     180297
      11  | 40:03.73 |    3:30.56   |      180298      |     196103
      12  | 43:34.54 |    3:03.59   |      196104      |     209887
      13  | 46:38.38 |    3:29.63   |      209888      |     225625
      14  | 50:08.26 |    3:40.35   |      225626      |     242160
      15  | 53:48.61 |    2:59.44   |      242161      |     255629
      16  | 56:48.30 |    3:15.52   |      255630      |     270306
      17  | 60:04.07 |    3:13.52   |      270307      |     284833
      18  | 63:17.59 |    3:32.33   |      284834      |     300766
      19  | 66:50.17 |    5:18.13   |      300767      |     324629
      20  | 72:08.30 |    4:03.72   |      324630      |     342926
      21  | 76:12.27 |    2:56.55   |      342927      |     356181
Характеристики диапазона извлечения и сообщения об ошибках
Выбранный диапазон
     Имя файла Z:\СБОРНИКИ И СЕРИИ\СЕРИЯ «XXXL ШАНСОН»\(c) 2000 XXXL ШАНСОН [1]\Various - СЕРИЯ «XXXL» ШАНСОН - 1.wav
     Пиковый уровень 100.0 %
     Скорость извлечения 7.0 X
     Качество диапазона 100.0 %
     CRC теста 53E83C3F
     CRC копии 53E83C3F
     Копирование... OK
Ошибок не произошло
AccurateRip: сводка
Трек  1  отсутствует в базе данных
Трек  2  отсутствует в базе данных
Трек  3  отсутствует в базе данных
Трек  4  отсутствует в базе данных
Трек  5  отсутствует в базе данных
Трек  6  отсутствует в базе данных
Трек  7  отсутствует в базе данных
Трек  8  отсутствует в базе данных
Трек  9  отсутствует в базе данных
Трек 10  отсутствует в базе данных
Трек 11  отсутствует в базе данных
Трек 12  отсутствует в базе данных
Трек 13  отсутствует в базе данных
Трек 14  отсутствует в базе данных
Трек 15  отсутствует в базе данных
Трек 16  отсутствует в базе данных
Трек 17  отсутствует в базе данных
Трек 18  отсутствует в базе данных
Трек 19  отсутствует в базе данных
Трек 20  отсутствует в базе данных
Трек 21  отсутствует в базе данных
Ни одного трека нет в базе AccurateRip
Конец отчёта
==== Контрольная сумма отчёта FA572085152B1FB29B7B78D8DAD1E004F13F5EC527D80E35DFBBCD6F0A3A0561 ====

Содержание индексной карты (.CUE)

REM GENRE Chanson
REM DATE 2000
REM DISCID 0C128D15
REM COMMENT "ExactAudioCopy v1.0b3"
PERFORMER "Various"
TITLE "СЕРИЯ «XXXL» ШАНСОН - 1"
FILE "Various - СЕРИЯ «XXXL» ШАНСОН - 1.wav" WAVE
  TRACK 01 AUDIO
    TITLE "Приходите в мой дом"
    PERFORMER "Михаил Круг и Вика Цыганова"
    INDEX 01 00:00:00
  TRACK 02 AUDIO
    TITLE "Девочка «Секонд-хенд»"
    PERFORMER "Алла Пугачева"
    INDEX 01 03:39:52
  TRACK 03 AUDIO
    TITLE "Братан"
    PERFORMER "Александр Розенбаум"
    INDEX 01 07:24:43
  TRACK 04 AUDIO
    TITLE "Пой, скрипка"
    PERFORMER "Михаил Шуфутинский"
    INDEX 01 11:21:29
  TRACK 05 AUDIO
    TITLE "На дальней пристани"
    PERFORMER "Катя Огонёк"
    INDEX 01 15:43:13
  TRACK 06 AUDIO
    TITLE "Серенада"
    PERFORMER "Группа «Беломорканал»"
    INDEX 01 19:33:20
  TRACK 07 AUDIO
    TITLE "Охранник"
    PERFORMER "Гарик Кричевский"
    INDEX 01 23:47:20
  TRACK 08 AUDIO
    TITLE "Первое солнышко"
    PERFORMER "Группа «Лесоповал»"
    INDEX 01 28:26:35
  TRACK 09 AUDIO
    TITLE "На суде"
    PERFORMER "Сергей Наговицын"
    INDEX 01 32:06:39
  TRACK 10 AUDIO
    TITLE "Остров"
    PERFORMER "Слава Медяник и Галина Журавлева"
    INDEX 01 36:52:45
  TRACK 11 AUDIO
    TITLE "Мон шер ами"
    PERFORMER "Сергей Трофимов"
    INDEX 01 40:03:73
  TRACK 12 AUDIO
    TITLE "Вороваечки"
    PERFORMER "Группа «Воровайки»"
    INDEX 01 43:34:54
  TRACK 13 AUDIO
    TITLE "Телогреечка-2"
    PERFORMER "Геннадий Жаров"
    INDEX 01 46:38:38
  TRACK 14 AUDIO
    TITLE "Нам не быть вдвоем"
    PERFORMER "Владимир Утёсов и Анна Демьянова"
    INDEX 01 50:08:26
  TRACK 15 AUDIO
    TITLE "Наколочка"
    PERFORMER "Гера Грач"
    INDEX 01 53:48:61
  TRACK 16 AUDIO
    TITLE "Чёрный ангел"
    PERFORMER "Руслан Казанцев"
    INDEX 01 56:48:30
  TRACK 17 AUDIO
    TITLE "Черёмуха"
    PERFORMER "Анатолий Полотно"
    INDEX 01 60:04:07
  TRACK 18 AUDIO
    TITLE "Кончается осень"
    PERFORMER "Михаил Гулько"
    INDEX 01 63:17:59
  TRACK 19 AUDIO
    TITLE "Лагеря"
    PERFORMER "Сергей Север"
    INDEX 01 66:50:17
  TRACK 20 AUDIO
    TITLE "Отцвели цветы"
    PERFORMER "Александр Дюмин и Светлана Питерская"
    INDEX 01 72:08:30
  TRACK 21 AUDIO
    TITLE "Наше лето"
    PERFORMER "Юрий Алмазов"
    INDEX 01 76:12:27

Скриншот спектра частот

--
[Профиль] [ЛС]

Создавать темы 13-Авг-2015 11:17 (спустя 9 месяцев 1 день)

Топик был перенесен из форума Сборники в форум Сhanson
sergej644
 
Кто просматривает тему:

Показать сообщения:    

Текущее время: Сегодня 14:29

Часовой пояс: GMT



Вы не можете начинать темы
Вы не можете отвечать на сообщения
Вы не можете редактировать свои сообщения
Вы не можете удалять свои сообщения
Вы не можете голосовать в опросах
Вы не можете прикреплять файлы к сообщениям
Вы не можете скачивать файлы