(Pop, Soul, R&B) VA - Ultimate... Love (4CD)(4CDS Of The Greatest Female Voices) - 2015 [FLAC, tracks +.cue, lossless]

 
Автор Сообщение

sergej644 ®

Пол:

Стаж: 4 года 11 месяцев

Сообщений: 6046

Откуда: Soviet Union



Награды: Нет

Торрент-статистика

Создавать темы 06-Фев-2016 20:44

[Цитировать]

---
Год издания: 2015
Страна: n/a
Жанр: Pop, Soul, R&B
Продолжительность: 04:32:40-Лейбл издания: Sony Music
Страна-выпуска диска: EU
Номер по каталогу: 88875085572-Формат: FLAC
Битрейт аудио: Lossless
Тип рипа: tracks +.cue
Наличие сканов в содержимом раздачи: да
-

Трэклист

Disc 1 | 01:09:18


01. Whitney Houston - Greatest Love All of All (04:52)
02. Billy Joel - She's Always a Woman (03:22)
03. Van Morrison - Brown Eyed Girl (03:06)
04. John Legend - All of Me (04:32)
05. The Ronettes - Be My Baby (02:43)
06. Olly Murs - Dance With Me Tonight (03:24)
07. One Direction - Gotta Be You (04:03)
08. Nicole Scherzinger - Your Love (04:06)
09. Kelly Clarkson - My Life Would Suck Without You (03:34)
10. The Bangles - Eternal Flame (03:59)
11. Lonestar - Amazed (04:01)
12. Westlife - My Love (03:52)
13. Il Divo - Por ti sere (You Raise Me Up) (04:02)
14. Lemar - Someone Should Tell You (03:45)
15. Bill Withers - Lovely Day (04:13)
16. Natalie Imbruglia - Shiver (03:44)
17. Dido - Here With You (04:08)
18. Cyndi Lauper - Time After Time (04:02)

Disc 2 | 01:16:22


01. Christina Aguilera - Beautiful (04:01)
02. R. Kelly - If I Could Turn Back the Hands of Time (04:32)
03. Toni Braxton - Un-Break My Heart (04:29)
04. Paul Young - Everytime You Go Away (05:26)
05. Daryl Hall & John Oates - Kiss on My List (04:23)
06. Curtis Stigers - I Wonder Why (04:28)
07. Harry Nilsson - Without You (03:21)
08. Eric Carmen - All by Myself (04:54)
09. Celine Dion - Because You Loved Me (04:35)
10. Michael Bolton - When a Man Loves a Woman (03:53)
11. Paloma Faith - Only Love Can Hurt Like This (03:54)
12. Jennifer Rush - The Power of Love (04:29)
13. REO Speedwagon - Keep on Loving You (03:23)
14. Britney Spears - Born to Make You Happy (04:06)
15. Terence Trent D'Arby - Sign Your Name (04:39)
16. Jennifer Lopez - Baby I Love You! (04:29)
17. Gregory Abbott - Shake You Down (04:06)
18. Champaign - How 'Bout Us (03:22)

Disc 3 | 01:07:44


01. Marvin Gaye - Sexual healing (04:00)
02. Harold Melvin & The Blue Notes - If You Don't Know Me by Night (03:28)
03. Erma Franklin - Piece of My Heart (02:35)
04. Alicia Keys feat. Usher - If I Ain't Got You (03:53)
05. Nina Simone - To Love Somebody (02:40)
06. Gladys Knight & The Pips - Baby Don't Change Your Mind (03:08)
07. Gloria Estefan and Miami Sound Machine - Can't Stay Away From You (03:58)
08. Billy Paul - Me and Mrs. Jones (04:42)
09. Shakira - Underneath Your Clothes (03:42)
10. Justin Timberlake - Senorita (04:18)
11. Usher - Good Kisser (04:11)
12. Leona Lewis - I Got You (03:48)
13. Luther Vandross - So Amazing (03:41)
14. Miley Cyrus - Adore You (04:39)
15. Backstreet Boys - As Long As You love Me (03:34)
16. Fairground Attraction - Find My Love (03:45)
17. Sara Bareilles - Love Song (04:20)
18. The Calling - Wherever You Will Go (03:30)

Disc 4 | 00:59:18


01. Andy Williams - Can't Takes My Eyes Off You (03:15)
02. Maurice Williams & The Zodiacs - Stay (01:41)
03. Elvis Presley - Can't Help Falling in Love (03:02)
04. John Denver - Annie's Song (03:02)
05. Barry Manilow - Can't Smile Without You (03:12)
06. Paulk Anka - Put Your Head on My Shoulder (02:36)
07. Johnny Mathis - Misty (03:34)
08. Bette Midler - Fever (03:38)
09. Johnny Cash - A Thing Called Love (02:34)
10. Perry Como - Magic Moments (02:43)
11. The Delfonics - La-La Means I Love You (03:21)
12. Jose Feliciano - Light My Fire (03:37)
13. Dionne Warwick - I'll Never Love This Way Again (03:28)
14. Odyssey - If You're Lookin' for a Way Out (04:30)
15. Natasha Bedingfield - Wild Horses (04:02)
16. Train - Marry Me (03:27)
17. John Mayer - Half of My Heart (04:12)
18. Bob Dylan - Make You Feel My Love (03:34)
-

Лог создания рипа

CD 1

Exact Audio Copy V1.1 from 23. June 2015
EAC extraction logfile from 6. December 2015, 13:30
Various Artists / Ultimate Love: 4CDs of Great Love Songs (Disc 1)
Used drive  : ASUS    BW-12D1S-U   Adapter: 1  ID: 1
Read mode               : Secure
Utilize accurate stream : Yes
Defeat audio cache      : Yes
Make use of C2 pointers : No
Read offset correction                      : 667
Overread into Lead-In and Lead-Out          : No
Fill up missing offset samples with silence : Yes
Delete leading and trailing silent blocks   : No
Null samples used in CRC calculations       : Yes
Used interface                              : Native Win32 interface for Win NT & 2000
Gap handling                                : Appended to previous track
Used output format              : User Defined Encoder
Selected bitrate                : 1024 kBit/s
Quality                         : High
Add ID3 tag                     : No
Command line compressor         : C:\Program Files (x86)\Kodeki za Glasbo\flac v1.3.1\win64\flac.exe
Additional command line options : -8 -V -T "ARTIST=%artist%" -T "TITLE=%title%" -T "ALBUM=%albumtitle%" -T "DATE=%year%" -T "TRACKNUMBER=%tracknr%" -T "TOTALTRACKS=%numtracks%" -T "GENRE=%genre%" -T "ALBUMARTIST=%albumartist%" -T "ALBUM ARTIST=%albumartist%" -T "COMMENT=EAC Secure Mode, Test & Copy, AccurateRip, FLAC -8" %source%
TOC of the extracted CD
     Track |   Start  |  Length  | Start sector | End sector
    ---------------------------------------------------------
        1  |  0:00.00 |  4:51.04 |         0    |    21828
        2  |  4:51.04 |  3:21.27 |     21829    |    36930
        3  |  8:12.31 |  3:05.10 |     36931    |    50815
        4  | 11:17.41 |  4:31.12 |     50816    |    71152
        5  | 15:48.53 |  2:42.14 |     71153    |    83316
        6  | 18:30.67 |  3:23.49 |     83317    |    98590
        7  | 21:54.41 |  4:02.51 |     98591    |   116791
        8  | 25:57.17 |  4:05.50 |    116792    |   135216
        9  | 30:02.67 |  3:33.03 |    135217    |   151194
       10  | 33:35.70 |  3:58.08 |    151195    |   169052
       11  | 37:34.03 |  4:00.58 |    169053    |   187110
       12  | 41:34.61 |  3:51.70 |    187111    |   204505
       13  | 45:26.56 |  4:01.69 |    204506    |   222649
       14  | 49:28.50 |  3:44.05 |    222650    |   239454
       15  | 53:12.55 |  4:12.68 |    239455    |   258422
       16  | 57:25.48 |  3:43.27 |    258423    |   275174
       17  | 61:09.00 |  4:07.01 |    275175    |   293700
       18  | 65:16.01 |  4:01.03 |    293701    |   311778
Track  1
     Filename K:\3. my rip in preparation\3 - in treatment\1\CD1\01 - Whitney Houston - Greatest Love All of All.wav
     Pre-gap length  0:00:02.00
     Peak level 98.8 %
     Extraction speed 5.1 X
     Track quality 100.0 %
     Test CRC CE5833D9
     Copy CRC CE5833D9
     Track not present in AccurateRip database
     Copy OK
Track  2
     Filename K:\3. my rip in preparation\3 - in treatment\1\CD1\02 - Billy Joel - She's Always a Woman.wav
     Pre-gap length  0:00:01.77
     Peak level 99.7 %
     Extraction speed 5.3 X
     Track quality 100.0 %
     Test CRC 24F9B386
     Copy CRC 24F9B386
     Track not present in AccurateRip database
     Copy OK
Track  3
     Filename K:\3. my rip in preparation\3 - in treatment\1\CD1\03 - Van Morrison - Brown Eyed Girl.wav
     Pre-gap length  0:00:01.77
     Peak level 98.8 %
     Extraction speed 5.6 X
     Track quality 100.0 %
     Test CRC 3E03198D
     Copy CRC 3E03198D
     Track not present in AccurateRip database
     Copy OK
Track  4
     Filename K:\3. my rip in preparation\3 - in treatment\1\CD1\04 - John Legend - All of Me.wav
     Pre-gap length  0:00:01.77
     Peak level 89.1 %
     Extraction speed 6.2 X
     Track quality 100.0 %
     Test CRC 2F2660C7
     Copy CRC 2F2660C7
     Track not present in AccurateRip database
     Copy OK
Track  5
     Filename K:\3. my rip in preparation\3 - in treatment\1\CD1\05 - The Ronettes - Be My Baby.wav
     Pre-gap length  0:00:01.77
     Peak level 99.7 %
     Extraction speed 6.1 X
     Track quality 100.0 %
     Test CRC BD60C58A
     Copy CRC BD60C58A
     Track not present in AccurateRip database
     Copy OK
Track  6
     Filename K:\3. my rip in preparation\3 - in treatment\1\CD1\06 - Olly Murs - Dance With Me Tonight.wav
     Pre-gap length  0:00:01.77
     Peak level 98.8 %
     Extraction speed 6.6 X
     Track quality 100.0 %
     Test CRC 50E0EC1C
     Copy CRC 50E0EC1C
     Track not present in AccurateRip database
     Copy OK
Track  7
     Filename K:\3. my rip in preparation\3 - in treatment\1\CD1\07 - One Direction - Gotta Be You.wav
     Pre-gap length  0:00:01.77
     Peak level 99.7 %
     Extraction speed 6.2 X
     Track quality 99.9 %
     Test CRC 3DA14C66
     Copy CRC 3DA14C66
     Track not present in AccurateRip database
     Copy OK
Track  8
     Filename K:\3. my rip in preparation\3 - in treatment\1\CD1\08 - Nicole Scherzinger - Your Love.wav
     Pre-gap length  0:00:01.77
     Peak level 98.8 %
     Extraction speed 6.5 X
     Track quality 99.9 %
     Test CRC 82DCECF6
     Copy CRC 82DCECF6
     Track not present in AccurateRip database
     Copy OK
Track  9
     Filename K:\3. my rip in preparation\3 - in treatment\1\CD1\09 - Kelly Clarkson - My Life Would Suck Without You.wav
     Pre-gap length  0:00:01.77
     Peak level 89.0 %
     Extraction speed 7.4 X
     Track quality 100.0 %
     Test CRC E2F4F528
     Copy CRC E2F4F528
     Track not present in AccurateRip database
     Copy OK
Track 10
     Filename K:\3. my rip in preparation\3 - in treatment\1\CD1\10 - The Bangles - Eternal Flame.wav
     Pre-gap length  0:00:01.77
     Peak level 99.7 %
     Extraction speed 7.7 X
     Track quality 100.0 %
     Test CRC C9B01515
     Copy CRC C9B01515
     Track not present in AccurateRip database
     Copy OK
Track 11
     Filename K:\3. my rip in preparation\3 - in treatment\1\CD1\11 - Lonestar - Amazed.wav
     Pre-gap length  0:00:01.77
     Peak level 99.7 %
     Extraction speed 7.9 X
     Track quality 100.0 %
     Test CRC F8CE18AE
     Copy CRC F8CE18AE
     Track not present in AccurateRip database
     Copy OK
Track 12
     Filename K:\3. my rip in preparation\3 - in treatment\1\CD1\12 - Westlife - My Love.wav
     Pre-gap length  0:00:01.77
     Peak level 98.8 %
     Extraction speed 8.1 X
     Track quality 100.0 %
     Test CRC B7A10C5D
     Copy CRC B7A10C5D
     Track not present in AccurateRip database
     Copy OK
Track 13
     Filename K:\3. my rip in preparation\3 - in treatment\1\CD1\13 - Il Divo - Por ti sere (You Raise Me Up).wav
     Pre-gap length  0:00:01.77
     Peak level 91.2 %
     Extraction speed 8.3 X
     Track quality 100.0 %
     Test CRC 85934951
     Copy CRC 85934951
     Track not present in AccurateRip database
     Copy OK
Track 14
     Filename K:\3. my rip in preparation\3 - in treatment\1\CD1\14 - Lemar - Someone Should Tell You.wav
     Pre-gap length  0:00:01.77
     Peak level 99.7 %
     Extraction speed 7.4 X
     Track quality 99.9 %
     Test CRC 63F67517
     Copy CRC 63F67517
     Track not present in AccurateRip database
     Copy OK
Track 15
     Filename K:\3. my rip in preparation\3 - in treatment\1\CD1\15 - Bill Withers - Lovely Day.wav
     Pre-gap length  0:00:01.77
     Peak level 99.7 %
     Extraction speed 8.8 X
     Track quality 100.0 %
     Test CRC F58EEFC4
     Copy CRC F58EEFC4
     Track not present in AccurateRip database
     Copy OK
Track 16
     Filename K:\3. my rip in preparation\3 - in treatment\1\CD1\16 - Natalie Imbruglia - Shiver.wav
     Pre-gap length  0:00:01.77
     Peak level 66.7 %
     Extraction speed 8.8 X
     Track quality 100.0 %
     Test CRC 6988D1DE
     Copy CRC 6988D1DE
     Track not present in AccurateRip database
     Copy OK
Track 17
     Filename K:\3. my rip in preparation\3 - in treatment\1\CD1\17 - Dido - Here With You.wav
     Pre-gap length  0:00:01.77
     Peak level 98.5 %
     Extraction speed 8.1 X
     Track quality 99.9 %
     Test CRC 3BAB631D
     Copy CRC 3BAB631D
     Track not present in AccurateRip database
     Copy OK
Track 18
     Filename K:\3. my rip in preparation\3 - in treatment\1\CD1\18 - Cyndi Lauper - Time After Time.wav
     Pre-gap length  0:00:01.77
     Peak level 99.7 %
     Extraction speed 8.2 X
     Track quality 99.9 %
     Test CRC B66F7A13
     Copy CRC B66F7A13
     Track not present in AccurateRip database
     Copy OK
None of the tracks are present in the AccurateRip database
No errors occurred
End of status report
---- CUETools DB Plugin V2.1.6
[CTDB TOCID: qYF9kf3Tle5WtskEaoqcu1ZS7xU-] found
Submit result: qYF9kf3Tle5WtskEaoqcu1ZS7xU- has been confirmed
Track | CTDB Status
  1   | (1/1) Accurately ripped
  2   | (1/1) Accurately ripped
  3   | (1/1) Accurately ripped
  4   | (1/1) Accurately ripped
  5   | (1/1) Accurately ripped
  6   | (1/1) Accurately ripped
  7   | (1/1) Accurately ripped
  8   | (1/1) Accurately ripped
  9   | (1/1) Accurately ripped
10   | (1/1) Accurately ripped
11   | (1/1) Accurately ripped
12   | (1/1) Accurately ripped
13   | (1/1) Accurately ripped
14   | (1/1) Accurately ripped
15   | (1/1) Accurately ripped
16   | (1/1) Accurately ripped
17   | (1/1) Accurately ripped
18   | (1/1) Accurately ripped

CD 2

Exact Audio Copy V1.1 from 23. June 2015
EAC extraction logfile from 24. January 2016, 17:16
Various Artists / Ultimate Love: 4CDs of Great Love Songs (Disc 2)
Used drive  : ASUS    BW-12D1S-U   Adapter: 1  ID: 1
Read mode               : Secure
Utilize accurate stream : Yes
Defeat audio cache      : Yes
Make use of C2 pointers : No
Read offset correction                      : 667
Overread into Lead-In and Lead-Out          : No
Fill up missing offset samples with silence : Yes
Delete leading and trailing silent blocks   : No
Null samples used in CRC calculations       : Yes
Used interface                              : Native Win32 interface for Win NT & 2000
Gap handling                                : Appended to previous track
Used output format              : User Defined Encoder
Selected bitrate                : 1024 kBit/s
Quality                         : High
Add ID3 tag                     : No
Command line compressor         : C:\Program Files (x86)\Music Codec\flac1.3.1\win64\flac.exe
Additional command line options : -8 -V -T "ARTIST=%artist%" -T "TITLE=%title%" -T "ALBUM=%albumtitle%" -T "DATE=%year%" -T "TRACKNUMBER=%tracknr%" -T "TOTALTRACKS=%numtracks%" -T "GENRE=%genre%" -T "ALBUMARTIST=%albumartist%" -T "ALBUM ARTIST=%albumartist%" -T "COMMENT=EAC Secure Mode, Test & Copy, AccurateRip, FLAC -8" %source%
TOC of the extracted CD
     Track |   Start  |  Length  | Start sector | End sector
    ---------------------------------------------------------
        1  |  0:00.00 |  4:00.37 |         0    |    18036
        2  |  4:00.37 |  4:31.40 |     18037    |    38401
        3  |  8:32.02 |  4:28.45 |     38402    |    58546
        4  | 13:00.47 |  5:25.34 |     58547    |    82955
        5  | 18:26.06 |  4:22.45 |     82956    |   102650
        6  | 22:48.51 |  4:27.16 |    102651    |   122691
        7  | 27:15.67 |  3:20.44 |    122692    |   137735
        8  | 30:36.36 |  4:53.11 |    137736    |   159721
        9  | 35:29.47 |  4:34.72 |    159722    |   180343
       10  | 40:04.44 |  3:52.59 |    180344    |   197802
       11  | 43:57.28 |  3:53.73 |    197803    |   215350
       12  | 47:51.26 |  4:28.10 |    215351    |   235460
       13  | 52:19.36 |  3:22.03 |    235461    |   250613
       14  | 55:41.39 |  4:05.25 |    250614    |   269013
       15  | 59:46.64 |  4:38.40 |    269014    |   289903
       16  | 64:25.29 |  4:28.60 |    289904    |   310063
       17  | 68:54.14 |  4:05.15 |    310064    |   328453
       18  | 72:59.29 |  3:21.61 |    328454    |   343589
Track  1
     Filename H:\3. my rip in preparation\3 - in treatment\1\CD2\01 - Christina Aguilera - Beautiful.wav
     Pre-gap length  0:00:02.00
     Peak level 98.8 %
     Extraction speed 4.9 X
     Track quality 100.0 %
     Test CRC 792C17C3
     Copy CRC 792C17C3
     Track not present in AccurateRip database
     Copy OK
Track  2
     Filename H:\3. my rip in preparation\3 - in treatment\1\CD2\02 - R. Kelly - If I Could Turn Back the Hands of Time.wav
     Pre-gap length  0:00:01.02
     Peak level 98.8 %
     Extraction speed 5.5 X
     Track quality 100.0 %
     Test CRC 69928431
     Copy CRC 69928431
     Track not present in AccurateRip database
     Copy OK
Track  3
     Filename H:\3. my rip in preparation\3 - in treatment\1\CD2\03 - Toni Braxton - Un-Break My Heart.wav
     Pre-gap length  0:00:01.77
     Peak level 88.9 %
     Extraction speed 5.3 X
     Track quality 99.9 %
     Test CRC 7030C65C
     Copy CRC 7030C65C
     Track not present in AccurateRip database
     Copy OK
Track  4
     Filename H:\3. my rip in preparation\3 - in treatment\1\CD2\04 - Paul Young - Everytime You Go Away.wav
     Pre-gap length  0:00:01.77
     Peak level 99.7 %
     Extraction speed 6.5 X
     Track quality 100.0 %
     Test CRC ADE91028
     Copy CRC ADE91028
     Track not present in AccurateRip database
     Copy OK
Track  5
     Filename H:\3. my rip in preparation\3 - in treatment\1\CD2\05 - Daryl Hall & John Oates - Kiss on My List.wav
     Pre-gap length  0:00:01.77
     Peak level 99.7 %
     Extraction speed 6.0 X
     Track quality 99.9 %
     Test CRC 240BD2DC
     Copy CRC 240BD2DC
     Track not present in AccurateRip database
     Copy OK
Track  6
     Filename H:\3. my rip in preparation\3 - in treatment\1\CD2\06 - Curtis Stigers - I Wonder Why.wav
     Pre-gap length  0:00:01.77
     Peak level 98.8 %
     Extraction speed 6.3 X
     Track quality 99.9 %
     Test CRC 00692973
     Copy CRC 00692973
     Track not present in AccurateRip database
     Copy OK
Track  7
     Filename H:\3. my rip in preparation\3 - in treatment\1\CD2\07 - Harry Nilsson - Without You.wav
     Pre-gap length  0:00:01.77
     Peak level 99.7 %
     Extraction speed 7.0 X
     Track quality 100.0 %
     Test CRC BE6DDEAD
     Copy CRC BE6DDEAD
     Track not present in AccurateRip database
     Copy OK
Track  8
     Filename H:\3. my rip in preparation\3 - in treatment\1\CD2\08 - Eric Carmen - All by Myself.wav
     Pre-gap length  0:00:01.77
     Peak level 98.2 %
     Extraction speed 7.0 X
     Track quality 99.9 %
     Test CRC 11B0585C
     Copy CRC 11B0585C
     Track not present in AccurateRip database
     Copy OK
Track  9
     Filename H:\3. my rip in preparation\3 - in treatment\1\CD2\09 - Celine Dion - Because You Loved Me.wav
     Pre-gap length  0:00:01.77
     Peak level 99.7 %
     Extraction speed 7.9 X
     Track quality 100.0 %
     Test CRC 36B03827
     Copy CRC 36B03827
     Track not present in AccurateRip database
     Copy OK
Track 10
     Filename H:\3. my rip in preparation\3 - in treatment\1\CD2\10 - Michael Bolton - When a Man Loves a Woman.wav
     Pre-gap length  0:00:01.77
     Peak level 99.7 %
     Extraction speed 7.9 X
     Track quality 100.0 %
     Test CRC 1F0CA4D4
     Copy CRC 1F0CA4D4
     Track not present in AccurateRip database
     Copy OK
Track 11
     Filename H:\3. my rip in preparation\3 - in treatment\1\CD2\11 - Paloma Faith - Only Love Can Hurt Like This.wav
     Pre-gap length  0:00:01.77
     Peak level 74.8 %
     Extraction speed 8.1 X
     Track quality 100.0 %
     Test CRC 2C10EFD7
     Copy CRC 2C10EFD7
     Track not present in AccurateRip database
     Copy OK
Track 12
     Filename H:\3. my rip in preparation\3 - in treatment\1\CD2\12 - Jennifer Rush - The Power of Love.wav
     Pre-gap length  0:00:01.77
     Peak level 99.7 %
     Extraction speed 8.5 X
     Track quality 100.0 %
     Test CRC 77131C05
     Copy CRC 77131C05
     Track not present in AccurateRip database
     Copy OK
Track 13
     Filename H:\3. my rip in preparation\3 - in treatment\1\CD2\13 - REO Speedwagon - Keep on Loving You.wav
     Pre-gap length  0:00:01.77
     Peak level 99.7 %
     Extraction speed 8.4 X
     Track quality 100.0 %
     Test CRC C33B8A80
     Copy CRC C33B8A80
     Track not present in AccurateRip database
     Copy OK
Track 14
     Filename H:\3. my rip in preparation\3 - in treatment\1\CD2\14 - Britney Spears - Born to Make You Happy.wav
     Pre-gap length  0:00:01.77
     Peak level 79.3 %
     Extraction speed 7.9 X
     Track quality 99.9 %
     Test CRC 18CF1895
     Copy CRC 18CF1895
     Track not present in AccurateRip database
     Copy OK
Track 15
     Filename H:\3. my rip in preparation\3 - in treatment\1\CD2\15 - Terence Trent D'Arby - Sign Your Name.wav
     Pre-gap length  0:00:01.77
     Peak level 98.8 %
     Extraction speed 8.3 X
     Track quality 99.9 %
     Test CRC 5CBE43C3
     Copy CRC 5CBE43C3
     Track not present in AccurateRip database
     Copy OK
Track 16
     Filename H:\3. my rip in preparation\3 - in treatment\1\CD2\16 - Jennifer Lopez - Baby I Love You!.wav
     Pre-gap length  0:00:01.77
     Peak level 99.7 %
     Extraction speed 9.3 X
     Track quality 100.0 %
     Test CRC 71B68F92
     Copy CRC 71B68F92
     Track not present in AccurateRip database
     Copy OK
Track 17
     Filename H:\3. my rip in preparation\3 - in treatment\1\CD2\17 - Gregory Abbott - Shake You Down.wav
     Pre-gap length  0:00:01.77
     Peak level 98.6 %
     Extraction speed 9.5 X
     Track quality 100.0 %
     Test CRC 7F955383
     Copy CRC 7F955383
     Track not present in AccurateRip database
     Copy OK
Track 18
     Filename H:\3. my rip in preparation\3 - in treatment\1\CD2\18 - Champaign - How 'Bout Us.wav
     Pre-gap length  0:00:01.77
     Peak level 99.0 %
     Extraction speed 9.2 X
     Track quality 100.0 %
     Test CRC 57B6FCAA
     Copy CRC 57B6FCAA
     Track not present in AccurateRip database
     Copy OK
None of the tracks are present in the AccurateRip database
No errors occurred
End of status report
---- CUETools DB Plugin V2.1.6
[CTDB TOCID: 5TJaDMMIGwEPbHB6L_BkoZXbFFM-] found
Submit result: already submitted
Track | CTDB Status
  1   | (2/2) Accurately ripped
  2   | (2/2) Accurately ripped
  3   | (2/2) Accurately ripped
  4   | (2/2) Accurately ripped
  5   | (2/2) Accurately ripped
  6   | (2/2) Accurately ripped
  7   | (2/2) Accurately ripped
  8   | (2/2) Accurately ripped
  9   | (2/2) Accurately ripped
10   | (2/2) Accurately ripped
11   | (2/2) Accurately ripped
12   | (2/2) Accurately ripped
13   | (2/2) Accurately ripped
14   | (2/2) Accurately ripped
15   | (2/2) Accurately ripped
16   | (2/2) Accurately ripped
17   | (2/2) Accurately ripped
18   | (2/2) Accurately ripped

CD 3

Exact Audio Copy V1.1 from 23. June 2015
EAC extraction logfile from 6. December 2015, 20:17
Various Artists / Ultimate Love: 4CDs of Great Love Songs (Disc 3)
Used drive  : ASUS    BW-12D1S-U   Adapter: 1  ID: 1
Read mode               : Secure
Utilize accurate stream : Yes
Defeat audio cache      : Yes
Make use of C2 pointers : No
Read offset correction                      : 667
Overread into Lead-In and Lead-Out          : No
Fill up missing offset samples with silence : Yes
Delete leading and trailing silent blocks   : No
Null samples used in CRC calculations       : Yes
Used interface                              : Native Win32 interface for Win NT & 2000
Gap handling                                : Appended to previous track
Used output format              : User Defined Encoder
Selected bitrate                : 1024 kBit/s
Quality                         : High
Add ID3 tag                     : No
Command line compressor         : C:\Program Files (x86)\Kodeki za Glasbo\flac v1.3.1\win64\flac.exe
Additional command line options : -8 -V -T "ARTIST=%artist%" -T "TITLE=%title%" -T "ALBUM=%albumtitle%" -T "DATE=%year%" -T "TRACKNUMBER=%tracknr%" -T "TOTALTRACKS=%numtracks%" -T "GENRE=%genre%" -T "ALBUMARTIST=%albumartist%" -T "ALBUM ARTIST=%albumartist%" -T "COMMENT=EAC Secure Mode, Test & Copy, AccurateRip, FLAC -8" %source%
TOC of the extracted CD
     Track |   Start  |  Length  | Start sector | End sector
    ---------------------------------------------------------
        1  |  0:00.00 |  3:59.21 |         0    |    17945
        2  |  3:59.21 |  3:27.32 |     17946    |    33502
        3  |  7:26.53 |  2:34.57 |     33503    |    45109
        4  | 10:01.35 |  3:52.01 |     45110    |    62510
        5  | 13:53.36 |  2:39.71 |     62511    |    74506
        6  | 16:33.32 |  3:07.53 |     74507    |    88584
        7  | 19:41.10 |  3:57.39 |     88585    |   106398
        8  | 23:38.49 |  4:41.50 |    106399    |   127523
        9  | 28:20.24 |  3:41.33 |    127524    |   144131
       10  | 32:01.57 |  4:17.09 |    144132    |   163415
       11  | 36:18.66 |  4:10.50 |    163416    |   182215
       12  | 40:29.41 |  3:47.08 |    182216    |   199248
       13  | 44:16.49 |  3:40.54 |    199249    |   215802
       14  | 47:57.28 |  4:39.00 |    215803    |   236727
       15  | 52:36.28 |  3:33.18 |    236728    |   252720
       16  | 56:09.46 |  3:44.51 |    252721    |   269571
       17  | 59:54.22 |  4:19.70 |    269572    |   289066
       18  | 64:14.17 |  3:29.25 |    289067    |   304766
Track  1
     Filename K:\3. my rip in preparation\3 - in treatment\1\CD3\01 - Marvin Gaye - Sexual healing.wav
     Pre-gap length  0:00:02.00
     Peak level 88.5 %
     Extraction speed 1.8 X
     Track quality 100.0 %
     Test CRC 201ADD77
     Copy CRC 201ADD77
     Track not present in AccurateRip database
     Copy OK
Track  2
     Filename K:\3. my rip in preparation\3 - in treatment\1\CD3\02 - Harold Melvin & The Blue Notes - If You Don't Know Me by Night.wav
     Pre-gap length  0:00:01.77
     Peak level 98.5 %
     Extraction speed 2.0 X
     Track quality 100.0 %
     Test CRC 7788E07A
     Copy CRC 7788E07A
     Track not present in AccurateRip database
     Copy OK
Track  3
     Filename K:\3. my rip in preparation\3 - in treatment\1\CD3\03 - Erma Franklin - Piece of My Heart.wav
     Pre-gap length  0:00:01.77
     Peak level 84.1 %
     Extraction speed 2.0 X
     Track quality 100.0 %
     Test CRC 81E9D1DA
     Copy CRC 81E9D1DA
     Track not present in AccurateRip database
     Copy OK
Track  4
     Filename K:\3. my rip in preparation\3 - in treatment\1\CD3\04 - Alicia Keys feat. Usher - If I Ain't Got You.wav
     Pre-gap length  0:00:01.77
     Peak level 98.8 %
     Extraction speed 2.2 X
     Track quality 100.0 %
     Test CRC 33C25BAE
     Copy CRC 33C25BAE
     Track not present in AccurateRip database
     Copy OK
Track  5
     Filename K:\3. my rip in preparation\3 - in treatment\1\CD3\05 - Nina Simone - To Love Somebody.wav
     Pre-gap length  0:00:01.77
     Peak level 99.7 %
     Extraction speed 2.2 X
     Track quality 100.0 %
     Test CRC B29D39AE
     Copy CRC B29D39AE
     Track not present in AccurateRip database
     Copy OK
Track  6
     Filename K:\3. my rip in preparation\3 - in treatment\1\CD3\06 - Gladys Knight & The Pips - Baby Don't Change Your Mind.wav
     Pre-gap length  0:00:01.77
     Peak level 98.5 %
     Extraction speed 2.4 X
     Track quality 100.0 %
     Test CRC D5A7133D
     Copy CRC D5A7133D
     Track not present in AccurateRip database
     Copy OK
Track  7
     Filename K:\3. my rip in preparation\3 - in treatment\1\CD3\07 - Gloria Estefan and Miami Sound Machine - Can't Stay Away From You.wav
     Pre-gap length  0:00:01.77
     Peak level 99.7 %
     Extraction speed 2.6 X
     Track quality 100.0 %
     Test CRC 2A8AB22B
     Copy CRC 2A8AB22B
     Track not present in AccurateRip database
     Copy OK
Track  8
     Filename K:\3. my rip in preparation\3 - in treatment\1\CD3\08 - Billy Paul - Me and Mrs. Jones.wav
     Pre-gap length  0:00:01.77
     Peak level 99.7 %
     Extraction speed 2.8 X
     Track quality 100.0 %
     Test CRC D837BE51
     Copy CRC D837BE51
     Track not present in AccurateRip database
     Copy OK
Track  9
     Filename K:\3. my rip in preparation\3 - in treatment\1\CD3\09 - Shakira - Underneath Your Clothes.wav
     Pre-gap length  0:00:01.77
     Peak level 93.4 %
     Extraction speed 2.5 X
     Track quality 99.9 %
     Test CRC 684A2B0E
     Copy CRC 684A2B0E
     Track not present in AccurateRip database
     Copy OK
Track 10
     Filename K:\3. my rip in preparation\3 - in treatment\1\CD3\10 - Justin Timberlake - Senorita.wav
     Pre-gap length  0:00:01.77
     Peak level 86.3 %
     Extraction speed 3.0 X
     Track quality 100.0 %
     Test CRC E9BA03BF
     Copy CRC E9BA03BF
     Track not present in AccurateRip database
     Copy OK
Track 11
     Filename K:\3. my rip in preparation\3 - in treatment\1\CD3\11 - Usher - Good Kisser.wav
     Pre-gap length  0:00:01.77
     Peak level 89.0 %
     Extraction speed 2.7 X
     Track quality 99.9 %
     Test CRC 414634BD
     Copy CRC 414634BD
     Track not present in AccurateRip database
     Copy OK
Track 12
     Filename K:\3. my rip in preparation\3 - in treatment\1\CD3\12 - Leona Lewis - I Got You.wav
     Pre-gap length  0:00:01.77
     Peak level 79.4 %
     Extraction speed 3.1 X
     Track quality 100.0 %
     Test CRC C7F60FDB
     Copy CRC C7F60FDB
     Track not present in AccurateRip database
     Copy OK
Track 13
     Filename K:\3. my rip in preparation\3 - in treatment\1\CD3\13 - Luther Vandross - So Amazing.wav
     Pre-gap length  0:00:01.77
     Peak level 99.7 %
     Extraction speed 3.2 X
     Track quality 100.0 %
     Test CRC 9E255630
     Copy CRC 9E255630
     Track not present in AccurateRip database
     Copy OK
Track 14
     Filename K:\3. my rip in preparation\3 - in treatment\1\CD3\14 - Miley Cyrus - Adore You.wav
     Pre-gap length  0:00:01.77
     Peak level 79.4 %
     Extraction speed 3.4 X
     Track quality 100.0 %
     Test CRC 0DEDE5C5
     Copy CRC 0DEDE5C5
     Track not present in AccurateRip database
     Copy OK
Track 15
     Filename K:\3. my rip in preparation\3 - in treatment\1\CD3\15 - Backstreet Boys - As Long As You love Me.wav
     Pre-gap length  0:00:01.77
     Peak level 80.4 %
     Extraction speed 3.3 X
     Track quality 100.0 %
     Test CRC C29BD6C6
     Copy CRC C29BD6C6
     Track not present in AccurateRip database
     Copy OK
Track 16
     Filename K:\3. my rip in preparation\3 - in treatment\1\CD3\16 - Fairground Attraction - Find My Love.wav
     Pre-gap length  0:00:01.77
     Peak level 98.5 %
     Extraction speed 3.5 X
     Track quality 100.0 %
     Test CRC 15E9C492
     Copy CRC 15E9C492
     Track not present in AccurateRip database
     Copy OK
Track 17
     Filename K:\3. my rip in preparation\3 - in treatment\1\CD3\17 - Sara Bareilles - Love Song.wav
     Pre-gap length  0:00:01.77
     Peak level 83.6 %
     Extraction speed 3.2 X
     Track quality 99.9 %
     Test CRC 38E02147
     Copy CRC 38E02147
     Track not present in AccurateRip database
     Copy OK
Track 18
     Filename K:\3. my rip in preparation\3 - in treatment\1\CD3\18 - The Calling - Wherever You Will Go.wav
     Pre-gap length  0:00:01.77
     Peak level 99.7 %
     Extraction speed 3.6 X
     Track quality 100.0 %
     Test CRC A6FAB5BE
     Copy CRC A6FAB5BE
     Track not present in AccurateRip database
     Copy OK
None of the tracks are present in the AccurateRip database
No errors occurred
End of status report
---- CUETools DB Plugin V2.1.6
[CTDB TOCID: HpvlxrZTh5zmEhJEnRSoh0X.VQ8-] found
Submit result: HpvlxrZTh5zmEhJEnRSoh0X.VQ8- has been confirmed
Track | CTDB Status
  1   | (1/1) Accurately ripped
  2   | (1/1) Accurately ripped
  3   | (1/1) Accurately ripped
  4   | (1/1) Accurately ripped
  5   | (1/1) Accurately ripped
  6   | (1/1) Accurately ripped
  7   | (1/1) Accurately ripped
  8   | (1/1) Accurately ripped
  9   | (1/1) Accurately ripped
10   | (1/1) Accurately ripped
11   | (1/1) Accurately ripped
12   | (1/1) Accurately ripped
13   | (1/1) Accurately ripped
14   | (1/1) Accurately ripped
15   | (1/1) Accurately ripped
16   | (1/1) Accurately ripped
17   | (1/1) Accurately ripped
18   | (1/1) Accurately ripped

CD 4

Exact Audio Copy V1.1 from 23. June 2015
EAC extraction logfile from 6. December 2015, 20:50
Various Artists / Ultimate Love: 4CDs of Great Love Songs (Disc 4)
Used drive  : ASUS    BW-12D1S-U   Adapter: 1  ID: 1
Read mode               : Secure
Utilize accurate stream : Yes
Defeat audio cache      : Yes
Make use of C2 pointers : No
Read offset correction                      : 667
Overread into Lead-In and Lead-Out          : No
Fill up missing offset samples with silence : Yes
Delete leading and trailing silent blocks   : No
Null samples used in CRC calculations       : Yes
Used interface                              : Native Win32 interface for Win NT & 2000
Gap handling                                : Appended to previous track
Used output format              : User Defined Encoder
Selected bitrate                : 1024 kBit/s
Quality                         : High
Add ID3 tag                     : No
Command line compressor         : C:\Program Files (x86)\Kodeki za Glasbo\flac v1.3.1\win64\flac.exe
Additional command line options : -8 -V -T "ARTIST=%artist%" -T "TITLE=%title%" -T "ALBUM=%albumtitle%" -T "DATE=%year%" -T "TRACKNUMBER=%tracknr%" -T "TOTALTRACKS=%numtracks%" -T "GENRE=%genre%" -T "ALBUMARTIST=%albumartist%" -T "ALBUM ARTIST=%albumartist%" -T "COMMENT=EAC Secure Mode, Test & Copy, AccurateRip, FLAC -8" %source%
TOC of the extracted CD
     Track |   Start  |  Length  | Start sector | End sector
    ---------------------------------------------------------
        1  |  0:00.00 |  3:14.32 |         0    |    14581
        2  |  3:14.32 |  1:40.03 |     14582    |    22084
        3  |  4:54.35 |  3:01.70 |     22085    |    35729
        4  |  7:56.30 |  3:01.51 |     35730    |    49355
        5  | 10:58.06 |  3:11.04 |     49356    |    63684
        6  | 14:09.10 |  2:35.17 |     63685    |    75326
        7  | 16:44.27 |  3:33.71 |     75327    |    91372
        8  | 20:18.23 |  3:37.59 |     91373    |   107706
        9  | 23:56.07 |  2:33.27 |    107707    |   119208
       10  | 26:29.34 |  2:42.17 |    119209    |   131375
       11  | 29:11.51 |  3:20.51 |    131376    |   146426
       12  | 32:32.27 |  3:36.13 |    146427    |   162639
       13  | 36:08.40 |  3:27.11 |    162640    |   178175
       14  | 39:35.51 |  4:29.39 |    178176    |   198389
       15  | 44:05.15 |  4:01.09 |    198390    |   216473
       16  | 48:06.24 |  3:26.66 |    216474    |   231989
       17  | 51:33.15 |  4:11.24 |    231990    |   250838
       18  | 55:44.39 |  3:33.02 |    250839    |   266815
Track  1
     Filename K:\3. my rip in preparation\3 - in treatment\1\CD4\01 - Andy Williams - Can't Takes My Eyes Off You.wav
     Pre-gap length  0:00:02.00
     Peak level 98.8 %
     Extraction speed 4.3 X
     Track quality 100.0 %
     Test CRC B7641996
     Copy CRC B7641996
     Track not present in AccurateRip database
     Copy OK
Track  2
     Filename K:\3. my rip in preparation\3 - in treatment\1\CD4\02 - Maurice Williams & The Zodiacs - Stay.wav
     Pre-gap length  0:00:01.77
     Peak level 98.8 %
     Extraction speed 4.0 X
     Track quality 100.0 %
     Test CRC 4329DA42
     Copy CRC 4329DA42
     Track not present in AccurateRip database
     Copy OK
Track  3
     Filename K:\3. my rip in preparation\3 - in treatment\1\CD4\03 - Elvis Presley - Can't Help Falling in Love.wav
     Pre-gap length  0:00:01.77
     Peak level 98.8 %
     Extraction speed 4.2 X
     Track quality 99.9 %
     Test CRC 235F4D0E
     Copy CRC 235F4D0E
     Track not present in AccurateRip database
     Copy OK
Track  4
     Filename K:\3. my rip in preparation\3 - in treatment\1\CD4\04 - John Denver - Annie's Song.wav
     Pre-gap length  0:00:01.77
     Peak level 99.7 %
     Extraction speed 5.1 X
     Track quality 100.0 %
     Test CRC E10CB38A
     Copy CRC E10CB38A
     Track not present in AccurateRip database
     Copy OK
Track  5
     Filename K:\3. my rip in preparation\3 - in treatment\1\CD4\05 - Barry Manilow - Can't Smile Without You.wav
     Pre-gap length  0:00:01.77
     Peak level 99.7 %
     Extraction speed 5.5 X
     Track quality 100.0 %
     Test CRC D8E59A69
     Copy CRC D8E59A69
     Track not present in AccurateRip database
     Copy OK
Track  6
     Filename K:\3. my rip in preparation\3 - in treatment\1\CD4\06 - Paulk Anka - Put Your Head on My Shoulder.wav
     Pre-gap length  0:00:01.77
     Peak level 98.5 %
     Extraction speed 5.5 X
     Track quality 100.0 %
     Test CRC A0421A0E
     Copy CRC A0421A0E
     Track not present in AccurateRip database
     Copy OK
Track  7
     Filename K:\3. my rip in preparation\3 - in treatment\1\CD4\07 - Johnny Mathis - Misty.wav
     Pre-gap length  0:00:01.77
     Peak level 99.7 %
     Extraction speed 6.0 X
     Track quality 100.0 %
     Test CRC 2C707CB1
     Copy CRC 2C707CB1
     Track not present in AccurateRip database
     Copy OK
Track  8
     Filename K:\3. my rip in preparation\3 - in treatment\1\CD4\08 - Bette Midler - Fever.wav
     Pre-gap length  0:00:01.77
     Peak level 98.8 %
     Extraction speed 5.6 X
     Track quality 99.9 %
     Test CRC 3242434C
     Copy CRC 3242434C
     Track not present in AccurateRip database
     Copy OK
Track  9
     Filename K:\3. my rip in preparation\3 - in treatment\1\CD4\09 - Johnny Cash - A Thing Called Love.wav
     Pre-gap length  0:00:01.77
     Peak level 99.7 %
     Extraction speed 5.2 X
     Track quality 99.9 %
     Test CRC 0BA4520E
     Copy CRC 0BA4520E
     Track not present in AccurateRip database
     Copy OK
Track 10
     Filename K:\3. my rip in preparation\3 - in treatment\1\CD4\10 - Perry Como - Magic Moments.wav
     Pre-gap length  0:00:01.77
     Peak level 99.7 %
     Extraction speed 6.4 X
     Track quality 100.0 %
     Test CRC B03AB61B
     Copy CRC B03AB61B
     Track not present in AccurateRip database
     Copy OK
Track 11
     Filename K:\3. my rip in preparation\3 - in treatment\1\CD4\11 - The Delfonics - La-La Means I Love You.wav
     Pre-gap length  0:00:01.77
     Peak level 98.8 %
     Extraction speed 6.9 X
     Track quality 100.0 %
     Test CRC 96F10F4D
     Copy CRC 96F10F4D
     Track not present in AccurateRip database
     Copy OK
Track 12
     Filename K:\3. my rip in preparation\3 - in treatment\1\CD4\12 - Jose Feliciano - Light My Fire.wav
     Pre-gap length  0:00:01.77
     Peak level 99.7 %
     Extraction speed 7.2 X
     Track quality 100.0 %
     Test CRC DF6BE071
     Copy CRC DF6BE071
     Track not present in AccurateRip database
     Copy OK
Track 13
     Filename K:\3. my rip in preparation\3 - in treatment\1\CD4\13 - Dionne Warwick - I'll Never Love This Way Again.wav
     Pre-gap length  0:00:01.77
     Peak level 98.6 %
     Extraction speed 6.5 X
     Track quality 99.9 %
     Test CRC 44DD7197
     Copy CRC 44DD7197
     Track not present in AccurateRip database
     Copy OK
Track 14
     Filename K:\3. my rip in preparation\3 - in treatment\1\CD4\14 - Odyssey - If You're Lookin' for a Way Out.wav
     Pre-gap length  0:00:01.77
     Peak level 99.7 %
     Extraction speed 7.8 X
     Track quality 100.0 %
     Test CRC 21529720
     Copy CRC 21529720
     Track not present in AccurateRip database
     Copy OK
Track 15
     Filename K:\3. my rip in preparation\3 - in treatment\1\CD4\15 - Natasha Bedingfield - Wild Horses.wav
     Pre-gap length  0:00:01.77
     Peak level 97.0 %
     Extraction speed 7.9 X
     Track quality 100.0 %
     Test CRC C95233A2
     Copy CRC C95233A2
     Track not present in AccurateRip database
     Copy OK
Track 16
     Filename K:\3. my rip in preparation\3 - in treatment\1\CD4\16 - Train - Marry Me.wav
     Pre-gap length  0:00:01.77
     Peak level 95.8 %
     Extraction speed 7.9 X
     Track quality 100.0 %
     Test CRC 33A1CE31
     Copy CRC 33A1CE31
     Track not present in AccurateRip database
     Copy OK
Track 17
     Filename K:\3. my rip in preparation\3 - in treatment\1\CD4\17 - John Mayer - Half of My Heart.wav
     Pre-gap length  0:00:01.77
     Peak level 99.7 %
     Extraction speed 7.4 X
     Track quality 99.9 %
     Test CRC 8A458605
     Copy CRC 8A458605
     Track not present in AccurateRip database
     Copy OK
Track 18
     Filename K:\3. my rip in preparation\3 - in treatment\1\CD4\18 - Bob Dylan - Make You Feel My Love.wav
     Pre-gap length  0:00:01.77
     Peak level 99.7 %
     Extraction speed 8.3 X
     Track quality 100.0 %
     Test CRC 7FBFCF26
     Copy CRC 7FBFCF26
     Track not present in AccurateRip database
     Copy OK
None of the tracks are present in the AccurateRip database
No errors occurred
End of status report
---- CUETools DB Plugin V2.1.6
[CTDB TOCID: DKLuSvYrDbQLOTeLDYeLMO4gQw4-] found
Submit result: DKLuSvYrDbQLOTeLDYeLMO4gQw4- has been confirmed
Track | CTDB Status
  1   | (1/1) Accurately ripped
  2   | (1/1) Accurately ripped
  3   | (1/1) Accurately ripped
  4   | (1/1) Accurately ripped
  5   | (1/1) Accurately ripped
  6   | (1/1) Accurately ripped
  7   | (1/1) Accurately ripped
  8   | (1/1) Accurately ripped
  9   | (1/1) Accurately ripped
10   | (1/1) Accurately ripped
11   | (1/1) Accurately ripped
12   | (1/1) Accurately ripped
13   | (1/1) Accurately ripped
14   | (1/1) Accurately ripped
15   | (1/1) Accurately ripped
16   | (1/1) Accurately ripped
17   | (1/1) Accurately ripped
18   | (1/1) Accurately ripped

Индексная карта (non-compilant .cue)

CD 1

REM GENRE Pop
REM DATE 2015
REM DISCID 13103D12
REM COMMENT "ExactAudioCopy v1.1"
CATALOG 0888750855725
PERFORMER "Various Artists"
TITLE "Ultimate Love: 4CDs of Great Love Songs (Disc 1)"
FILE "01 - Whitney Houston - Greatest Love All of All.wav" WAVE
  TRACK 01 AUDIO
    TITLE "Greatest Love All of All"
    PERFORMER "Whitney Houston"
    ISRC USAR10000223
    INDEX 01 00:00:00
  TRACK 02 AUDIO
    TITLE "She's Always a Woman"
    PERFORMER "Billy Joel"
    ISRC USSM17700375
    INDEX 00 04:49:21
FILE "02 - Billy Joel - She's Always a Woman.wav" WAVE
    INDEX 01 00:00:00
  TRACK 03 AUDIO
    TITLE "Brown Eyed Girl"
    PERFORMER "Van Morrison"
    ISRC USSM19802681
    INDEX 00 03:19:44
FILE "03 - Van Morrison - Brown Eyed Girl.wav" WAVE
    INDEX 01 00:00:00
  TRACK 04 AUDIO
    TITLE "All of Me"
    PERFORMER "John Legend"
    ISRC USSM11303954
    INDEX 00 03:03:27
FILE "04 - John Legend - All of Me.wav" WAVE
    INDEX 01 00:00:00
  TRACK 05 AUDIO
    TITLE "Be My Baby"
    PERFORMER "The Ronettes"
    ISRC USQX91100088
    INDEX 00 04:29:29
FILE "05 - The Ronettes - Be My Baby.wav" WAVE
    INDEX 01 00:00:00
  TRACK 06 AUDIO
    TITLE "Dance With Me Tonight"
    PERFORMER "Olly Murs"
    ISRC GBARL1101197
    INDEX 00 02:40:31
FILE "06 - Olly Murs - Dance With Me Tonight.wav" WAVE
    INDEX 01 00:00:00
  TRACK 07 AUDIO
    TITLE "Gotta Be You"
    PERFORMER "One Direction"
    ISRC GBHMU1100336
    INDEX 00 03:21:66
FILE "07 - One Direction - Gotta Be You.wav" WAVE
    INDEX 01 00:00:00
  TRACK 08 AUDIO
    TITLE "Your Love"
    PERFORMER "Nicole Scherzinger"
    ISRC GBARL1400629
    INDEX 00 04:00:68
FILE "08 - Nicole Scherzinger - Your Love.wav" WAVE
    INDEX 01 00:00:00
  TRACK 09 AUDIO
    TITLE "My Life Would Suck Without You"
    PERFORMER "Kelly Clarkson"
    ISRC GBCTA0800348
    INDEX 00 04:03:67
FILE "09 - Kelly Clarkson - My Life Would Suck Without You.wav" WAVE
    INDEX 01 00:00:00
  TRACK 10 AUDIO
    TITLE "Eternal Flame"
    PERFORMER "The Bangles"
    ISRC USSM18800152
    INDEX 00 03:31:20
FILE "10 - The Bangles - Eternal Flame.wav" WAVE
    INDEX 01 00:00:00
  TRACK 11 AUDIO
    TITLE "Amazed"
    PERFORMER "Lonestar"
    ISRC USBN19800111
    INDEX 00 03:56:25
FILE "11 - Lonestar - Amazed.wav" WAVE
    INDEX 01 00:00:00
  TRACK 12 AUDIO
    TITLE "My Love"
    PERFORMER "Westlife"
    ISRC GBARL0000212
    INDEX 00 03:59:00
FILE "12 - Westlife - My Love.wav" WAVE
    INDEX 01 00:00:00
  TRACK 13 AUDIO
    TITLE "Por ti sere (You Raise Me Up)"
    PERFORMER "Il Divo"
    ISRC GBHMU0500134
    INDEX 00 03:50:12
FILE "13 - Il Divo - Por ti sere (You Raise Me Up).wav" WAVE
    INDEX 01 00:00:00
  TRACK 14 AUDIO
    TITLE "Someone Should Tell You"
    PERFORMER "Lemar"
    ISRC GBARL0601007
    INDEX 00 04:00:11
FILE "14 - Lemar - Someone Should Tell You.wav" WAVE
    INDEX 01 00:00:00
  TRACK 15 AUDIO
    TITLE "Lovely Day"
    PERFORMER "Bill Withers"
    ISRC USSM10000363
    INDEX 00 03:42:22
FILE "15 - Bill Withers - Lovely Day.wav" WAVE
    INDEX 01 00:00:00
  TRACK 16 AUDIO
    TITLE "Shiver"
    PERFORMER "Natalie Imbruglia"
    ISRC GBHKB0500012
    INDEX 00 04:11:10
FILE "16 - Natalie Imbruglia - Shiver.wav" WAVE
    INDEX 01 00:00:00
  TRACK 17 AUDIO
    TITLE "Here With You"
    PERFORMER "Dido"
    ISRC USAR10000638
    INDEX 00 03:41:44
FILE "17 - Dido - Here With You.wav" WAVE
    INDEX 01 00:00:00
  TRACK 18 AUDIO
    TITLE "Time After Time"
    PERFORMER "Cyndi Lauper"
    ISRC USSM18300146
    INDEX 00 04:05:18
FILE "18 - Cyndi Lauper - Time After Time.wav" WAVE
    INDEX 01 00:00:00

CD 2

REM GENRE Pop
REM DATE 2015
REM DISCID FE11E512
REM COMMENT "ExactAudioCopy v1.1"
CATALOG 0888750855725
PERFORMER "Various Artists"
TITLE "Ultimate Love: 4CDs of Great Love Songs (Disc 2)"
FILE "01 - Christina Aguilera - Beautiful.wav" WAVE
  TRACK 01 AUDIO
    TITLE "Beautiful"
    PERFORMER "Christina Aguilera"
    ISRC USRC10201067
    INDEX 01 00:00:00
  TRACK 02 AUDIO
    TITLE "If I Could Turn Back the Hands of Time"
    PERFORMER "R. Kelly"
    ISRC USJI10300555
    INDEX 00 03:59:35
FILE "02 - R. Kelly - If I Could Turn Back the Hands of Time.wav" WAVE
    INDEX 01 00:00:00
  TRACK 03 AUDIO
    TITLE "Un-Break My Heart"
    PERFORMER "Toni Braxton"
    ISRC USLF29600015
    INDEX 00 04:29:57
FILE "03 - Toni Braxton - Un-Break My Heart.wav" WAVE
    INDEX 01 00:00:00
  TRACK 04 AUDIO
    TITLE "Everytime You Go Away"
    PERFORMER "Paul Young"
    ISRC GBBBN8500005
    INDEX 00 04:26:62
FILE "04 - Paul Young - Everytime You Go Away.wav" WAVE
    INDEX 01 00:00:00
  TRACK 05 AUDIO
    TITLE "Kiss on My List"
    PERFORMER "Daryl Hall & John Oates"
    ISRC USRC18007960
    INDEX 00 05:23:51
FILE "05 - Daryl Hall & John Oates - Kiss on My List.wav" WAVE
    INDEX 01 00:00:00
  TRACK 06 AUDIO
    TITLE "I Wonder Why"
    PERFORMER "Curtis Stigers"
    ISRC USAR19100185
    INDEX 00 04:20:62
FILE "06 - Curtis Stigers - I Wonder Why.wav" WAVE
    INDEX 01 00:00:00
  TRACK 07 AUDIO
    TITLE "Without You"
    PERFORMER "Harry Nilsson"
    ISRC USRC17101019
    INDEX 00 04:25:33
FILE "07 - Harry Nilsson - Without You.wav" WAVE
    INDEX 01 00:00:00
  TRACK 08 AUDIO
    TITLE "All by Myself"
    PERFORMER "Eric Carmen"
    ISRC USAR17500003
    INDEX 00 03:18:61
FILE "08 - Eric Carmen - All by Myself.wav" WAVE
    INDEX 01 00:00:00
  TRACK 09 AUDIO
    TITLE "Because You Loved Me"
    PERFORMER "Celine Dion"
    ISRC CAC220003047
    INDEX 00 04:51:28
FILE "09 - Celine Dion - Because You Loved Me.wav" WAVE
    INDEX 01 00:00:00
  TRACK 10 AUDIO
    TITLE "When a Man Loves a Woman"
    PERFORMER "Michael Bolton"
    ISRC USSM19100042
    INDEX 00 04:33:14
FILE "10 - Michael Bolton - When a Man Loves a Woman.wav" WAVE
    INDEX 01 00:00:00
  TRACK 11 AUDIO
    TITLE "Only Love Can Hurt Like This"
    PERFORMER "Paloma Faith"
    ISRC GBARL1301427
    INDEX 00 03:51:01
FILE "11 - Paloma Faith - Only Love Can Hurt Like This.wav" WAVE
    INDEX 01 00:00:00
  TRACK 12 AUDIO
    TITLE "The Power of Love"
    PERFORMER "Jennifer Rush"
    ISRC DEE868400010
    INDEX 00 03:52:15
FILE "12 - Jennifer Rush - The Power of Love.wav" WAVE
    INDEX 01 00:00:00
  TRACK 13 AUDIO
    TITLE "Keep on Loving You"
    PERFORMER "REO Speedwagon"
    ISRC USSM18800133
    INDEX 00 04:26:27
FILE "13 - REO Speedwagon - Keep on Loving You.wav" WAVE
    INDEX 01 00:00:00
  TRACK 14 AUDIO
    TITLE "Born to Make You Happy"
    PERFORMER "Britney Spears"
    ISRC USJI19910454
    INDEX 00 03:20:20
FILE "14 - Britney Spears - Born to Make You Happy.wav" WAVE
    INDEX 01 00:00:00
  TRACK 15 AUDIO
    TITLE "Sign Your Name"
    PERFORMER "Terence Trent D'Arby"
    ISRC GBBBN8702035
    INDEX 00 04:03:42
FILE "15 - Terence Trent D'Arby - Sign Your Name.wav" WAVE
    INDEX 01 00:00:00
  TRACK 16 AUDIO
    TITLE "Baby I Love You!"
    PERFORMER "Jennifer Lopez"
    ISRC USSM10213164
    INDEX 00 04:36:57
FILE "16 - Jennifer Lopez - Baby I Love You!.wav" WAVE
    INDEX 01 00:00:00
  TRACK 17 AUDIO
    TITLE "Shake You Down"
    PERFORMER "Gregory Abbott"
    ISRC USSM18600471
    INDEX 00 04:27:02
FILE "17 - Gregory Abbott - Shake You Down.wav" WAVE
    INDEX 01 00:00:00
  TRACK 18 AUDIO
    TITLE "How 'Bout Us"
    PERFORMER "Champaign"
    ISRC USSM18100819
    INDEX 00 04:03:32
FILE "18 - Champaign - How 'Bout Us.wav" WAVE
    INDEX 01 00:00:00

CD 3

REM GENRE Pop
REM DATE 2015
REM DISCID 070FDF12
REM COMMENT "ExactAudioCopy v1.1"
CATALOG 0888750855725
PERFORMER "Various Artists"
TITLE "Ultimate Love: 4CDs of Great Love Songs (Disc 3)"
FILE "01 - Marvin Gaye - Sexual healing.wav" WAVE
  TRACK 01 AUDIO
    TITLE "Sexual healing"
    PERFORMER "Marvin Gaye"
    ISRC USSM19803028
    INDEX 01 00:00:00
  TRACK 02 AUDIO
    TITLE "If You Don't Know Me by Night"
    PERFORMER "Harold Melvin & The Blue Notes"
    ISRC USSM17200813
    INDEX 00 03:57:38
FILE "02 - Harold Melvin & The Blue Notes - If You Don't Know Me by Night.wav" WAVE
    INDEX 01 00:00:00
  TRACK 03 AUDIO
    TITLE "Piece of My Heart"
    PERFORMER "Erma Franklin"
    ISRC USSM16701752
    INDEX 00 03:25:49
FILE "03 - Erma Franklin - Piece of My Heart.wav" WAVE
    INDEX 01 00:00:00
  TRACK 04 AUDIO
    TITLE "If I Ain't Got You"
    PERFORMER "Alicia Keys feat. Usher"
    ISRC USJAY0400281
    INDEX 00 02:32:74
FILE "04 - Alicia Keys feat. Usher - If I Ain't Got You.wav" WAVE
    INDEX 01 00:00:00
  TRACK 05 AUDIO
    TITLE "To Love Somebody"
    PERFORMER "Nina Simone"
    ISRC USRC10503321
    INDEX 00 03:50:18
FILE "05 - Nina Simone - To Love Somebody.wav" WAVE
    INDEX 01 00:00:00
  TRACK 06 AUDIO
    TITLE "Baby Don't Change Your Mind"
    PERFORMER "Gladys Knight & The Pips"
    ISRC USBR10400010
    INDEX 00 02:38:13
FILE "06 - Gladys Knight & The Pips - Baby Don't Change Your Mind.wav" WAVE
    INDEX 01 00:00:00
  TRACK 07 AUDIO
    TITLE "Can't Stay Away From You"
    PERFORMER "Gloria Estefan and Miami Sound Machine"
    ISRC USSM10011989
    INDEX 00 03:05:70
FILE "07 - Gloria Estefan and Miami Sound Machine - Can't Stay Away From You.wav" WAVE
    INDEX 01 00:00:00
  TRACK 08 AUDIO
    TITLE "Me and Mrs. Jones"
    PERFORMER "Billy Paul"
    ISRC USSM17200020
    INDEX 00 03:55:56
FILE "08 - Billy Paul - Me and Mrs. Jones.wav" WAVE
    INDEX 01 00:00:00
  TRACK 09 AUDIO
    TITLE "Underneath Your Clothes"
    PERFORMER "Shakira"
    ISRC NLB630100361
    INDEX 00 04:39:67
FILE "09 - Shakira - Underneath Your Clothes.wav" WAVE
    INDEX 01 00:00:00
  TRACK 10 AUDIO
    TITLE "Senorita"
    PERFORMER "Justin Timberlake"
    ISRC USJI10300241
    INDEX 00 03:39:50
FILE "10 - Justin Timberlake - Senorita.wav" WAVE
    INDEX 01 00:00:00
  TRACK 11 AUDIO
    TITLE "Good Kisser"
    PERFORMER "Usher"
    ISRC USRC11400905
    INDEX 00 04:15:26
FILE "11 - Usher - Good Kisser.wav" WAVE
    INDEX 01 00:00:00
  TRACK 12 AUDIO
    TITLE "I Got You"
    PERFORMER "Leona Lewis"
    ISRC GBHMU0900072
    INDEX 00 04:08:67
FILE "12 - Leona Lewis - I Got You.wav" WAVE
    INDEX 01 00:00:00
  TRACK 13 AUDIO
    TITLE "So Amazing"
    PERFORMER "Luther Vandross"
    ISRC USSM10106967
    INDEX 00 03:45:25
FILE "13 - Luther Vandross - So Amazing.wav" WAVE
    INDEX 01 00:00:00
  TRACK 14 AUDIO
    TITLE "Adore You"
    PERFORMER "Miley Cyrus"
    ISRC USRC11301264
    INDEX 00 03:38:71
FILE "14 - Miley Cyrus - Adore You.wav" WAVE
    INDEX 01 00:00:00
  TRACK 15 AUDIO
    TITLE "As Long As You love Me"
    PERFORMER "Backstreet Boys"
    ISRC USJI19710149
    INDEX 00 04:37:17
FILE "15 - Backstreet Boys - As Long As You love Me.wav" WAVE
    INDEX 01 00:00:00
  TRACK 16 AUDIO
    TITLE "Find My Love"
    PERFORMER "Fairground Attraction"
    ISRC GBARL8800010
    INDEX 00 03:31:35
FILE "16 - Fairground Attraction - Find My Love.wav" WAVE
    INDEX 01 00:00:00
  TRACK 17 AUDIO
    TITLE "Love Song"
    PERFORMER "Sara Bareilles"
    ISRC USSM10700066
    INDEX 00 03:42:68
FILE "17 - Sara Bareilles - Love Song.wav" WAVE
    INDEX 01 00:00:00
  TRACK 18 AUDIO
    TITLE "Wherever You Will Go"
    PERFORMER "The Calling"
    ISRC USRC10001047
    INDEX 00 04:18:12
FILE "18 - The Calling - Wherever You Will Go.wav" WAVE
    INDEX 01 00:00:00

CD 4

REM GENRE Pop
REM DATE 2015
REM DISCID 0B0DE512
REM COMMENT "ExactAudioCopy v1.1"
CATALOG 0888750855725
PERFORMER "Various Artists"
TITLE "Ultimate Love: 4CDs of Great Love Songs (Disc 4)"
FILE "01 - Andy Williams - Can't Takes My Eyes Off You.wav" WAVE
  TRACK 01 AUDIO
    TITLE "Can't Takes My Eyes Off You"
    PERFORMER "Andy Williams"
    ISRC USSM16701010
    INDEX 01 00:00:00
  TRACK 02 AUDIO
    TITLE "Stay"
    PERFORMER "Maurice Williams & The Zodiacs"
    ISRC USAR10300951
    INDEX 00 03:12:49
FILE "02 - Maurice Williams & The Zodiacs - Stay.wav" WAVE
    INDEX 01 00:00:00
  TRACK 03 AUDIO
    TITLE "Can't Help Falling in Love"
    PERFORMER "Elvis Presley"
    ISRC USRC10201473
    INDEX 00 01:38:20
FILE "03 - Elvis Presley - Can't Help Falling in Love.wav" WAVE
    INDEX 01 00:00:00
  TRACK 04 AUDIO
    TITLE "Annie's Song"
    PERFORMER "John Denver"
    ISRC USRC17403082
    INDEX 00 03:00:12
FILE "04 - John Denver - Annie's Song.wav" WAVE
    INDEX 01 00:00:00
  TRACK 05 AUDIO
    TITLE "Can't Smile Without You"
    PERFORMER "Barry Manilow"
    ISRC USAR17700175
    INDEX 00 02:59:68
FILE "05 - Barry Manilow - Can't Smile Without You.wav" WAVE
    INDEX 01 00:00:00
  TRACK 06 AUDIO
    TITLE "Put Your Head on My Shoulder"
    PERFORMER "Paulk Anka"
    ISRC USRC19900851
    INDEX 00 03:09:21
FILE "06 - Paulk Anka - Put Your Head on My Shoulder.wav" WAVE
    INDEX 01 00:00:00
  TRACK 07 AUDIO
    TITLE "Misty"
    PERFORMER "Johnny Mathis"
    ISRC USSM15901038
    INDEX 00 02:33:34
FILE "07 - Johnny Mathis - Misty.wav" WAVE
    INDEX 01 00:00:00
  TRACK 08 AUDIO
    TITLE "Fever"
    PERFORMER "Bette Midler"
    ISRC USSM10504202
    INDEX 00 03:32:13
FILE "08 - Bette Midler - Fever.wav" WAVE
    INDEX 01 00:00:00
  TRACK 09 AUDIO
    TITLE "A Thing Called Love"
    PERFORMER "Johnny Cash"
    ISRC USSM17100387
    INDEX 00 03:36:01
FILE "09 - Johnny Cash - A Thing Called Love.wav" WAVE
    INDEX 01 00:00:00
  TRACK 10 AUDIO
    TITLE "Magic Moments"
    PERFORMER "Perry Como"
    ISRC USRC15704669
    INDEX 00 02:31:44
FILE "10 - Perry Como - Magic Moments.wav" WAVE
    INDEX 01 00:00:00
  TRACK 11 AUDIO
    TITLE "La-La Means I Love You"
    PERFORMER "The Delfonics"
    ISRC USAR17200014
    INDEX 00 02:40:34
FILE "11 - The Delfonics - La-La Means I Love You.wav" WAVE
    INDEX 01 00:00:00
  TRACK 12 AUDIO
    TITLE "Light My Fire"
    PERFORMER "Jose Feliciano"
    ISRC USRC19405069
    INDEX 00 03:18:68
FILE "12 - Jose Feliciano - Light My Fire.wav" WAVE
    INDEX 01 00:00:00
  TRACK 13 AUDIO
    TITLE "I'll Never Love This Way Again"
    PERFORMER "Dionne Warwick"
    ISRC USAR17900007
    INDEX 00 03:34:30
FILE "13 - Dionne Warwick - I'll Never Love This Way Again.wav" WAVE
    INDEX 01 00:00:00
  TRACK 14 AUDIO
    TITLE "If You're Lookin' for a Way Out"
    PERFORMER "Odyssey"
    ISRC USRC17908322
    INDEX 00 03:25:28
FILE "14 - Odyssey - If You're Lookin' for a Way Out.wav" WAVE
    INDEX 01 00:00:00
  TRACK 15 AUDIO
    TITLE "Wild Horses"
    PERFORMER "Natasha Bedingfield"
    ISRC GBARL0400784
    INDEX 00 04:27:56
FILE "15 - Natasha Bedingfield - Wild Horses.wav" WAVE
    INDEX 01 00:00:00
  TRACK 16 AUDIO
    TITLE "Marry Me"
    PERFORMER "Train"
    ISRC USSM10904119
    INDEX 00 03:59:26
FILE "16 - Train - Marry Me.wav" WAVE
    INDEX 01 00:00:00
  TRACK 17 AUDIO
    TITLE "Half of My Heart"
    PERFORMER "John Mayer"
    ISRC USSM10905701
    INDEX 00 03:25:08
FILE "17 - John Mayer - Half of My Heart.wav" WAVE
    INDEX 01 00:00:00
  TRACK 18 AUDIO
    TITLE "Make You Feel My Love"
    PERFORMER "Bob Dylan"
    ISRC USSM19701402
    INDEX 00 04:09:41
FILE "18 - Bob Dylan - Make You Feel My Love.wav" WAVE
    INDEX 01 00:00:00
--
[Профиль] [ЛС]
Кто просматривает тему:

Форум Тема Автор Размер
World Pop (Pop, Soul, Electronic)VA - Romantic Worlds (2008) FLAC sergej644 496 MB
Показать сообщения:    

Текущее время: Сегодня 11:00

Часовой пояс: GMT



Вы не можете начинать темы
Вы не можете отвечать на сообщения
Вы не можете редактировать свои сообщения
Вы не можете удалять свои сообщения
Вы не можете голосовать в опросах
Вы не можете прикреплять файлы к сообщениям
Вы не можете скачивать файлы