(Pop) VA - Ultimate... Divas (4CDS Of The Greatest Female Voices)(4CD) - 2015 [FLAC, tracks +.cue, lossless]

 
Автор Сообщение

sergej644 ®

Пол:

Стаж: 4 года 11 месяцев

Сообщений: 6046

Откуда: Soviet Union



Награды: Нет

Торрент-статистика

Создавать темы 06-Фев-2016 20:08

[Цитировать]

-VA - Ultimate... Divas (4CD)--
Год издания: 2015
Страна: n/a
Жанр: Pop
Продолжительность: 04:28:35-Лейбл издания: Sony Music
Страна-выпуска диска: EU
Номер по каталогу: 88875085812-Формат: FLAC
Битрейт аудио: Lossless
Тип рипа: tracks +.cue
Наличие сканов в содержимом раздачи: да
-

Трэклист

Disc 1 | 01:08:31


01. Britney Spears - Toxic (03:22)
02. Keisha - We R Who Wer (03:27)
03. Jennifer Lopez - Love Don't Cost A Thing (03:43)
04. Shakira - Whenever, Whenever (03:18)
05. Natasha Bedingfield - These Words (03:37)
06. Little Mix - Wings (03:41)
07. Anastacia - Left Outside Alone (04:19)
08. Alicia Keys - No One (04:10)
09. Dolly Parton - I Will Always Love You (02:57)
10. Whitney Houston - One Moment In Time (04:45)
11. TLC - Waterfalls (03:33)
12. Toni Braxton - He Wasn't Man Enough (04:02)
13. Kelly Clarkson - Because Of You (03:41)
14. Jennifer Rush - The Power Of Love (04:29)
15. Cyndi Lauper - True Colors (03:49)
16. Sia - Chandelier (03:37)
17. Celine Dion - Loved Me Back To Life (03:52)
18. Christina Aguilera - You Lost Me (04:19)

Disc 2 | 01:11:35


01. Bonnie Tyler - Total Eclipse Of The Heart (04:29)
02. The Weather Girls - It's Raining Men (03:34)
03. Amerie - 1 Thing (04:00)
04. Jennifer Hudson - Spotlight (04:11)
05. Melba Moore - This Is It (03:31)
06. Evelyn 'Champagne' King - Love Come Down (03:39)
07. Cheryl Lynn - Got To Be Real (03:46)
08. Aretha Franklin - Jump To It (04:17)
09. The Pointer Sisters - Slow Hand (03:54)
10. Gladys Knight & The Pips - Midnight Train To Georgia (03:54)
11. Kelly Rowland - Stole (04:11)
12. Delta Goodrem - Born To Try (03:54)
13. Gloria Estefan - Don't Wanna Lose You (04:10)
14. Angie Stone - Wish I Didn't Miss You (04:32)
15. Heather Small - Proud (03:55)
16. Naomi Campbell - Love & Tears (04:21)
17. Avril Lavigne - I'm With You (03:45)
18. Alexandra Burke - Hallelujah (03:39)

Disc 3 | 01:08:36


01. Leona Lewis - Run (04:40)
02. Pink - I Don't Believe You (04:37)
03. Rebecca Ferguson - Nothing's Real But Love (02:54)
04. Erma Franklin - Piece Of My Heart (02:35)
05. Nina Simone - To Be Young, Gifted And Black (02:52)
06. Deniece Williams - Free (02:52)
07. Tina Arena - Chains (04:24)
08. Alison Moyet - All Cried Out (03:39)
09. Labelle - Lady Marmelade (03:56)
10. Paloma Faith - Can't Rely On You (03:20)
11. Jessica Simpson - With You (03:13)
12. Jordin Sparks - Battlefield (04:01)
13. Dionne Warwick - Heartbreaker (04:17)
14. Des'ree - You Gotta Be (04:06)
15. Dee C. Lee - See The Day (04:22)
16. Rita Ora - Shine Ya Light (03:33)
17. Aaliyah - At Your Best (You Are Love) (04:52)
18. Gossip - Perfect World (04:29)

Disc 4 | 00:59:55


01. Delaney & Bonnie and Friends - Groupie (Superstar) (02:51)
02. Etta James - Cry Me A River (05:03)
03. Carmen McRae With The Dave Brubeck Quartet - Take Five (02:17)
04. Billie Holiday - I'm A Fool To Want You (03:25)
05. Sarah Vaughan - The Nearness Of You (03:22)
06. Eartha Kitt - I Want To Be Evil (03:32)
07. Betty Carter - Let's Fall In Love (02:00)
08. Darlene Love - (Tody I Met) The Boy I'm Gonna Marry (02:48)
09. Laura Nyro - Wedding Bell Blues (02:55)
10. Lesley Duncan - Love Song (03:41)
11. Chaka Khan - Angel (04:27)
12. Bette Midler - You'll Never Know (01:47)
13. Carly Simon - In The Wee Small Hours Of The Morning (03:18)
14. Jennifer Warnes - Shot Through The Heart (04:18)
15. Jackie DeShannon - Bette Davis Eyes (02:48)
16. Sarah McLachlan - Angel (04:02)
17. Sophie B. Hawkins - Down I Wish I Was Your Lover (05:25)
18. Doris Day - Whatever Will Be, Will Be (Que Sera, Sera) (02:06)
-

Лог создания рипа

CD 1

Exact Audio Copy V1.1 from 23. June 2015
EAC extraction logfile from 4. December 2015, 16:18
Various Artists / Ultimate Divas: 4CDs of the Greatest Female Voices (Disc 1)
Used drive  : ASUS    BW-12D1S-U   Adapter: 1  ID: 1
Read mode               : Secure
Utilize accurate stream : Yes
Defeat audio cache      : Yes
Make use of C2 pointers : No
Read offset correction                      : 667
Overread into Lead-In and Lead-Out          : No
Fill up missing offset samples with silence : Yes
Delete leading and trailing silent blocks   : No
Null samples used in CRC calculations       : Yes
Used interface                              : Native Win32 interface for Win NT & 2000
Gap handling                                : Appended to previous track
Used output format              : User Defined Encoder
Selected bitrate                : 1024 kBit/s
Quality                         : High
Add ID3 tag                     : No
Command line compressor         : C:\Program Files (x86)\Kodeki za Glasbo\flac v1.3.1\win64\flac.exe
Additional command line options : -8 -V -T "ARTIST=%artist%" -T "TITLE=%title%" -T "ALBUM=%albumtitle%" -T "DATE=%year%" -T "TRACKNUMBER=%tracknr%" -T "TOTALTRACKS=%numtracks%" -T "GENRE=%genre%" -T "ALBUMARTIST=%albumartist%" -T "ALBUM ARTIST=%albumartist%" -T "COMMENT=EAC Secure Mode, Test & Copy, AccurateRip, FLAC -8" %source%
TOC of the extracted CD
     Track |   Start  |  Length  | Start sector | End sector
    ---------------------------------------------------------
        1  |  0:00.00 |  3:21.28 |         0    |    15102
        2  |  3:21.28 |  3:26.02 |     15103    |    30554
        3  |  6:47.30 |  3:42.37 |     30555    |    47241
        4  | 10:29.67 |  3:17.34 |     47242    |    62050
        5  | 13:47.26 |  3:36.44 |     62051    |    78294
        6  | 17:23.70 |  3:40.54 |     78295    |    94848
        7  | 21:04.49 |  4:18.21 |     94849    |   114219
        8  | 25:22.70 |  4:09.05 |    114220    |   132899
        9  | 29:32.00 |  2:56.22 |    132900    |   146121
       10  | 32:28.22 |  4:44.71 |    146122    |   167492
       11  | 37:13.18 |  3:32.21 |    167493    |   183413
       12  | 40:45.39 |  4:01.18 |    183414    |   201506
       13  | 44:46.57 |  3:40.24 |    201507    |   218030
       14  | 48:27.06 |  4:28.08 |    218031    |   238138
       15  | 52:55.14 |  3:48.05 |    238139    |   255243
       16  | 56:43.19 |  3:36.54 |    255244    |   271497
       17  | 60:19.73 |  3:51.22 |    271498    |   288844
       18  | 64:11.20 |  4:18.65 |    288845    |   308259
Track  1
     Filename K:\3. my rip in preparation\3 - in treatment\1\CD1\01 - Britney Spears - Toxic.wav
     Pre-gap length  0:00:02.00
     Peak level 98.8 %
     Extraction speed 4.8 X
     Track quality 100.0 %
     Test CRC B624C073
     Copy CRC B624C073
     Accurately ripped (confidence 1)  [974B3A52]  (AR v2)
     Copy OK
Track  2
     Filename K:\3. my rip in preparation\3 - in treatment\1\CD1\02 - Keisha - We R Who Wer.wav
     Pre-gap length  0:00:01.77
     Peak level 89.0 %
     Extraction speed 5.2 X
     Track quality 100.0 %
     Test CRC EFE5F8C1
     Copy CRC EFE5F8C1
     Accurately ripped (confidence 1)  [E58E8306]  (AR v2)
     Copy OK
Track  3
     Filename K:\3. my rip in preparation\3 - in treatment\1\CD1\03 - Jennifer Lopez - Love Don't  Cost a Thing.wav
     Pre-gap length  0:00:01.77
     Peak level 99.7 %
     Extraction speed 5.6 X
     Track quality 100.0 %
     Test CRC 226A1755
     Copy CRC 226A1755
     Accurately ripped (confidence 1)  [B7A5EF81]  (AR v2)
     Copy OK
Track  4
     Filename K:\3. my rip in preparation\3 - in treatment\1\CD1\04 - Shakira - Whenever, Whenever.wav
     Pre-gap length  0:00:01.77
     Peak level 99.7 %
     Extraction speed 5.9 X
     Track quality 100.0 %
     Test CRC FFB15460
     Copy CRC FFB15460
     Accurately ripped (confidence 1)  [BD23DA88]  (AR v2)
     Copy OK
Track  5
     Filename K:\3. my rip in preparation\3 - in treatment\1\CD1\05 - Natasha Bedingfield - These  Words.wav
     Pre-gap length  0:00:01.77
     Peak level 99.7 %
     Extraction speed 6.2 X
     Track quality 100.0 %
     Test CRC 62F048C5
     Copy CRC 62F048C5
     Accurately ripped (confidence 1)  [4FC83A93]  (AR v2)
     Copy OK
Track  6
     Filename K:\3. my rip in preparation\3 - in treatment\1\CD1\06 - Little Mix - Wings.wav
     Pre-gap length  0:00:01.77
     Peak level 98.8 %
     Extraction speed 6.5 X
     Track quality 100.0 %
     Test CRC B917D164
     Copy CRC B917D164
     Accurately ripped (confidence 1)  [C13C06FB]  (AR v2)
     Copy OK
Track  7
     Filename K:\3. my rip in preparation\3 - in treatment\1\CD1\07 - Anastacia - Left  Outside Alone.wav
     Pre-gap length  0:00:01.77
     Peak level 92.0 %
     Extraction speed 6.3 X
     Track quality 99.9 %
     Test CRC 79CA3976
     Copy CRC 79CA3976
     Accurately ripped (confidence 1)  [AB98334D]  (AR v2)
     Copy OK
Track  8
     Filename K:\3. my rip in preparation\3 - in treatment\1\CD1\08 - Alicia Keys - No One.wav
     Pre-gap length  0:00:01.77
     Peak level 98.8 %
     Extraction speed 7.3 X
     Track quality 100.0 %
     Test CRC DFD06D17
     Copy CRC DFD06D17
     Accurately ripped (confidence 1)  [5CDC3035]  (AR v2)
     Copy OK
Track  9
     Filename K:\3. my rip in preparation\3 - in treatment\1\CD1\09 - Dolly Parton - I Will Always Love You.wav
     Pre-gap length  0:00:01.77
     Peak level 99.7 %
     Extraction speed 6.1 X
     Track quality 99.9 %
     Test CRC 11857FC0
     Copy CRC 11857FC0
     Accurately ripped (confidence 1)  [115A40EA]  (AR v2)
     Copy OK
Track 10
     Filename K:\3. my rip in preparation\3 - in treatment\1\CD1\10 - Whitney Houston - One Moment in Time.wav
     Pre-gap length  0:00:01.77
     Peak level 99.7 %
     Extraction speed 7.9 X
     Track quality 100.0 %
     Test CRC B917FE63
     Copy CRC B917FE63
     Accurately ripped (confidence 1)  [13805D6E]  (AR v2)
     Copy OK
Track 11
     Filename K:\3. my rip in preparation\3 - in treatment\1\CD1\11 - TLC - Waterfalls.wav
     Pre-gap length  0:00:01.77
     Peak level 99.7 %
     Extraction speed 7.8 X
     Track quality 100.0 %
     Test CRC AE4FA741
     Copy CRC AE4FA741
     Accurately ripped (confidence 1)  [40405FCD]  (AR v2)
     Copy OK
Track 12
     Filename K:\3. my rip in preparation\3 - in treatment\1\CD1\12 - Toni Braxton - He Wasn't Man Enough.wav
     Pre-gap length  0:00:01.77
     Peak level 98.5 %
     Extraction speed 8.1 X
     Track quality 100.0 %
     Test CRC A703079D
     Copy CRC A703079D
     Accurately ripped (confidence 1)  [E6427538]  (AR v2)
     Copy OK
Track 13
     Filename K:\3. my rip in preparation\3 - in treatment\1\CD1\13 - Kelly Clarkson - Because of You.wav
     Pre-gap length  0:00:01.77
     Peak level 99.4 %
     Extraction speed 8.1 X
     Track quality 100.0 %
     Test CRC 541DBF71
     Copy CRC 541DBF71
     Accurately ripped (confidence 1)  [DD41A6DB]  (AR v2)
     Copy OK
Track 14
     Filename K:\3. my rip in preparation\3 - in treatment\1\CD1\14 - Jennifer Rush - The Power of Love.wav
     Pre-gap length  0:00:01.77
     Peak level 99.7 %
     Extraction speed 8.6 X
     Track quality 100.0 %
     Test CRC 9F504CBE
     Copy CRC 9F504CBE
     Accurately ripped (confidence 1)  [B64EC8C5]  (AR v2)
     Copy OK
Track 15
     Filename K:\3. my rip in preparation\3 - in treatment\1\CD1\15 - Cyndi Lauper - True Colors.wav
     Pre-gap length  0:00:01.77
     Peak level 99.7 %
     Extraction speed 7.6 X
     Track quality 99.9 %
     Test CRC AB2E0DBE
     Copy CRC AB2E0DBE
     Accurately ripped (confidence 1)  [F2A2B74A]  (AR v2)
     Copy OK
Track 16
     Filename K:\3. my rip in preparation\3 - in treatment\1\CD1\16 - Sia - Chandelier.wav
     Pre-gap length  0:00:01.77
     Peak level 75.0 %
     Extraction speed 8.8 X
     Track quality 100.0 %
     Test CRC 68D05C4E
     Copy CRC 68D05C4E
     Accurately ripped (confidence 1)  [FD4A8F16]  (AR v2)
     Copy OK
Track 17
     Filename K:\3. my rip in preparation\3 - in treatment\1\CD1\17 - Celine Dion - Loved Me Back to Life.wav
     Pre-gap length  0:00:01.77
     Peak level 99.7 %
     Extraction speed 9.0 X
     Track quality 100.0 %
     Test CRC EF80FC50
     Copy CRC EF80FC50
     Accurately ripped (confidence 1)  [4EB53E9E]  (AR v2)
     Copy OK
Track 18
     Filename K:\3. my rip in preparation\3 - in treatment\1\CD1\18 - Christina Aguilera - You Lost Me.wav
     Pre-gap length  0:00:01.77
     Peak level 99.7 %
     Extraction speed 9.3 X
     Track quality 100.0 %
     Test CRC 05A97F71
     Copy CRC 05A97F71
     Accurately ripped (confidence 1)  [E766D164]  (AR v2)
     Copy OK
All tracks accurately ripped
No errors occurred
End of status report
---- CUETools DB Plugin V2.1.6
[CTDB TOCID: nqYPz7OZvLN7HptOQdxa56TI_lU-] found
Submit result: nqYPz7OZvLN7HptOQdxa56TI_lU- has been confirmed
Track | CTDB Status
  1   | (1/1) Accurately ripped
  2   | (1/1) Accurately ripped
  3   | (1/1) Accurately ripped
  4   | (1/1) Accurately ripped
  5   | (1/1) Accurately ripped
  6   | (1/1) Accurately ripped
  7   | (1/1) Accurately ripped
  8   | (1/1) Accurately ripped
  9   | (1/1) Accurately ripped
10   | (1/1) Accurately ripped
11   | (1/1) Accurately ripped
12   | (1/1) Accurately ripped
13   | (1/1) Accurately ripped
14   | (1/1) Accurately ripped
15   | (1/1) Accurately ripped
16   | (1/1) Accurately ripped
17   | (1/1) Accurately ripped
18   | (1/1) Accurately ripped

CD 2

Exact Audio Copy V1.1 from 23. June 2015
EAC extraction logfile from 4. December 2015, 17:11
Various Artists / Ultimate Divas: 4CDs of the Greatest Female Voices (Disc 2)
Used drive  : ASUS    BW-12D1S-U   Adapter: 1  ID: 1
Read mode               : Secure
Utilize accurate stream : Yes
Defeat audio cache      : Yes
Make use of C2 pointers : No
Read offset correction                      : 667
Overread into Lead-In and Lead-Out          : No
Fill up missing offset samples with silence : Yes
Delete leading and trailing silent blocks   : No
Null samples used in CRC calculations       : Yes
Used interface                              : Native Win32 interface for Win NT & 2000
Gap handling                                : Appended to previous track
Used output format              : User Defined Encoder
Selected bitrate                : 1024 kBit/s
Quality                         : High
Add ID3 tag                     : No
Command line compressor         : C:\Program Files (x86)\Kodeki za Glasbo\flac v1.3.1\win64\flac.exe
Additional command line options : -8 -V -T "ARTIST=%artist%" -T "TITLE=%title%" -T "ALBUM=%albumtitle%" -T "DATE=%year%" -T "TRACKNUMBER=%tracknr%" -T "TOTALTRACKS=%numtracks%" -T "GENRE=%genre%" -T "ALBUMARTIST=%albumartist%" -T "ALBUM ARTIST=%albumartist%" -T "COMMENT=EAC Secure Mode, Test & Copy, AccurateRip, FLAC -8" %source%
TOC of the extracted CD
     Track |   Start  |  Length  | Start sector | End sector
    ---------------------------------------------------------
        1  |  0:00.00 |  4:28.04 |         0    |    20103
        2  |  4:28.04 |  3:33.38 |     20104    |    36116
        3  |  8:01.42 |  3:59.36 |     36117    |    54077
        4  | 12:01.03 |  4:10.73 |     54078    |    72900
        5  | 16:12.01 |  3:30.67 |     72901    |    88717
        6  | 19:42.68 |  3:38.13 |     88718    |   105080
        7  | 23:21.06 |  3:45.59 |    105081    |   122014
        8  | 27:06.65 |  4:16.42 |    122015    |   141256
        9  | 31:23.32 |  3:53.06 |    141257    |   158737
       10  | 35:16.38 |  3:53.37 |    158738    |   176249
       11  | 39:10.00 |  4:10.62 |    176250    |   195061
       12  | 43:20.62 |  3:53.38 |    195062    |   212574
       13  | 47:14.25 |  4:09.41 |    212575    |   231290
       14  | 51:23.66 |  4:31.50 |    231291    |   251665
       15  | 55:55.41 |  3:54.64 |    251666    |   269279
       16  | 59:50.30 |  4:20.48 |    269280    |   288827
       17  | 64:11.03 |  3:44.44 |    288828    |   305671
       18  | 67:55.47 |  3:38.66 |    305672    |   322087
Track  1
     Filename K:\3. my rip in preparation\3 - in treatment\1\CD2\01 - Bonnie Tyler - Total Eclipse of the Heart.wav
     Pre-gap length  0:00:02.00
     Peak level 98.7 %
     Extraction speed 5.0 X
     Track quality 100.0 %
     Test CRC E2DBB142
     Copy CRC E2DBB142
     Accurately ripped (confidence 1)  [F2CFB430]  (AR v2)
     Copy OK
Track  2
     Filename K:\3. my rip in preparation\3 - in treatment\1\CD2\02 - The Weather Girls - It's Raining Men.wav
     Pre-gap length  0:00:01.77
     Peak level 98.8 %
     Extraction speed 5.3 X
     Track quality 100.0 %
     Test CRC 2C461B3D
     Copy CRC 2C461B3D
     Accurately ripped (confidence 1)  [E5E9D0CF]  (AR v2)
     Copy OK
Track  3
     Filename K:\3. my rip in preparation\3 - in treatment\1\CD2\03 - Amerie - 1 Thing.wav
     Pre-gap length  0:00:01.77
     Peak level 94.3 %
     Extraction speed 5.8 X
     Track quality 100.0 %
     Test CRC 89668448
     Copy CRC 89668448
     Accurately ripped (confidence 1)  [2EEF7887]  (AR v2)
     Copy OK
Track  4
     Filename K:\3. my rip in preparation\3 - in treatment\1\CD2\04 - Jennifer Hudson - Spootlight.wav
     Pre-gap length  0:00:01.77
     Peak level 88.7 %
     Extraction speed 5.5 X
     Track quality 99.9 %
     Test CRC EC4F5DA0
     Copy CRC EC4F5DA0
     Accurately ripped (confidence 1)  [99D8E2C2]  (AR v2)
     Copy OK
Track  5
     Filename K:\3. my rip in preparation\3 - in treatment\1\CD2\05 - Melba Moore - This Is It.wav
     Pre-gap length  0:00:01.77
     Peak level 98.6 %
     Extraction speed 6.4 X
     Track quality 100.0 %
     Test CRC ED8EEBF9
     Copy CRC ED8EEBF9
     Accurately ripped (confidence 1)  [43AD78C2]  (AR v2)
     Copy OK
Track  6
     Filename K:\3. my rip in preparation\3 - in treatment\1\CD2\06 - Evelyn 'Champagne' King - Love Come Down.wav
     Pre-gap length  0:00:01.77
     Peak level 98.8 %
     Extraction speed 6.7 X
     Track quality 100.0 %
     Test CRC 4D884EDA
     Copy CRC 4D884EDA
     Accurately ripped (confidence 1)  [0E776168]  (AR v2)
     Copy OK
Track  7
     Filename K:\3. my rip in preparation\3 - in treatment\1\CD2\07 - Cheryl Lynn - Got to Be Real.wav
     Pre-gap length  0:00:01.77
     Peak level 98.5 %
     Extraction speed 7.0 X
     Track quality 100.0 %
     Test CRC 3F5D05C8
     Copy CRC 3F5D05C8
     Accurately ripped (confidence 1)  [40E38B3E]  (AR v2)
     Copy OK
Track  8
     Filename K:\3. my rip in preparation\3 - in treatment\1\CD2\08 - Aretha Franklin - Jump to It.wav
     Pre-gap length  0:00:01.77
     Peak level 99.7 %
     Extraction speed 7.4 X
     Track quality 100.0 %
     Test CRC 3AF8FA69
     Copy CRC 3AF8FA69
     Accurately ripped (confidence 1)  [B79A4051]  (AR v2)
     Copy OK
Track  9
     Filename K:\3. my rip in preparation\3 - in treatment\1\CD2\09 - The Pointer Sisters - Slow Hand.wav
     Pre-gap length  0:00:01.77
     Peak level 98.8 %
     Extraction speed 7.5 X
     Track quality 100.0 %
     Test CRC 22DD1087
     Copy CRC 22DD1087
     Accurately ripped (confidence 1)  [D0DD4802]  (AR v2)
     Copy OK
Track 10
     Filename K:\3. my rip in preparation\3 - in treatment\1\CD2\10 - Gladys Knight & The Pips - Midnight Train to Georgia.wav
     Pre-gap length  0:00:01.77
     Peak level 88.9 %
     Extraction speed 7.7 X
     Track quality 100.0 %
     Test CRC B32B5307
     Copy CRC B32B5307
     Accurately ripped (confidence 1)  [A0D0CE3C]  (AR v2)
     Copy OK
Track 11
     Filename K:\3. my rip in preparation\3 - in treatment\1\CD2\11 - Kelly Rowland - Stole.wav
     Pre-gap length  0:00:01.77
     Peak level 88.1 %
     Extraction speed 7.8 X
     Track quality 100.0 %
     Test CRC 5A73BE10
     Copy CRC 5A73BE10
     Accurately ripped (confidence 1)  [B169408C]  (AR v2)
     Copy OK
Track 12
     Filename K:\3. my rip in preparation\3 - in treatment\1\CD2\12 - Delta Goodrem - Born to Try.wav
     Pre-gap length  0:00:01.77
     Peak level 98.8 %
     Extraction speed 8.1 X
     Track quality 100.0 %
     Test CRC F735CAB0
     Copy CRC F735CAB0
     Accurately ripped (confidence 1)  [59FEC9ED]  (AR v2)
     Copy OK
Track 13
     Filename K:\3. my rip in preparation\3 - in treatment\1\CD2\13 - Gloria Estefan - Don't Wanna Lose You.wav
     Pre-gap length  0:00:01.77
     Peak level 98.8 %
     Extraction speed 8.4 X
     Track quality 100.0 %
     Test CRC 22C5D46A
     Copy CRC 22C5D46A
     Accurately ripped (confidence 1)  [B79E064D]  (AR v2)
     Copy OK
Track 14
     Filename K:\3. my rip in preparation\3 - in treatment\1\CD2\14 - Angie Stone - Wish I Didn't Miss You.wav
     Pre-gap length  0:00:01.77
     Peak level 82.1 %
     Extraction speed 8.8 X
     Track quality 100.0 %
     Test CRC 14DB6147
     Copy CRC 14DB6147
     Accurately ripped (confidence 1)  [5F202466]  (AR v2)
     Copy OK
Track 15
     Filename K:\3. my rip in preparation\3 - in treatment\1\CD2\15 - Heather Small - Proud.wav
     Pre-gap length  0:00:01.77
     Peak level 98.5 %
     Extraction speed 8.8 X
     Track quality 100.0 %
     Test CRC 6B965CE5
     Copy CRC 6B965CE5
     Accurately ripped (confidence 1)  [E16D9EFF]  (AR v2)
     Copy OK
Track 16
     Filename K:\3. my rip in preparation\3 - in treatment\1\CD2\16 - Naomi Campbell - Love & Tears.wav
     Pre-gap length  0:00:01.77
     Peak level 98.5 %
     Extraction speed 9.0 X
     Track quality 100.0 %
     Test CRC 01D92E26
     Copy CRC 01D92E26
     Accurately ripped (confidence 1)  [67965EB1]  (AR v2)
     Copy OK
Track 17
     Filename K:\3. my rip in preparation\3 - in treatment\1\CD2\17 - Avril Lavigne - I'm With You.wav
     Pre-gap length  0:00:01.77
     Peak level 98.8 %
     Extraction speed 9.0 X
     Track quality 100.0 %
     Test CRC 9E51780D
     Copy CRC 9E51780D
     Accurately ripped (confidence 1)  [BF6B2A4D]  (AR v2)
     Copy OK
Track 18
     Filename K:\3. my rip in preparation\3 - in treatment\1\CD2\18 - Alexandra Burke - Hallelujah.wav
     Pre-gap length  0:00:01.77
     Peak level 92.4 %
     Extraction speed 9.3 X
     Track quality 100.0 %
     Test CRC 251E6877
     Copy CRC 251E6877
     Accurately ripped (confidence 1)  [480D238C]  (AR v2)
     Copy OK
All tracks accurately ripped
No errors occurred
End of status report
---- CUETools DB Plugin V2.1.6
[CTDB TOCID: uz6NsJ7LdGqLyMYUUaDbZd32iUU-] found
Submit result: uz6NsJ7LdGqLyMYUUaDbZd32iUU- has been confirmed
Track | CTDB Status
  1   | (1/1) Accurately ripped
  2   | (1/1) Accurately ripped
  3   | (1/1) Accurately ripped
  4   | (1/1) Accurately ripped
  5   | (1/1) Accurately ripped
  6   | (1/1) Accurately ripped
  7   | (1/1) Accurately ripped
  8   | (1/1) Accurately ripped
  9   | (1/1) Accurately ripped
10   | (1/1) Accurately ripped
11   | (1/1) Accurately ripped
12   | (1/1) Accurately ripped
13   | (1/1) Accurately ripped
14   | (1/1) Accurately ripped
15   | (1/1) Accurately ripped
16   | (1/1) Accurately ripped
17   | (1/1) Accurately ripped
18   | (1/1) Accurately ripped

CD 3

Exact Audio Copy V1.1 from 23. June 2015
EAC extraction logfile from 4. December 2015, 17:49
Various Artists / Ultimate Divas: 4CDs of the Greatest Female Voices (Disc 3)
Used drive  : ASUS    BW-12D1S-U   Adapter: 1  ID: 1
Read mode               : Secure
Utilize accurate stream : Yes
Defeat audio cache      : Yes
Make use of C2 pointers : No
Read offset correction                      : 667
Overread into Lead-In and Lead-Out          : No
Fill up missing offset samples with silence : Yes
Delete leading and trailing silent blocks   : No
Null samples used in CRC calculations       : Yes
Used interface                              : Native Win32 interface for Win NT & 2000
Gap handling                                : Appended to previous track
Used output format              : User Defined Encoder
Selected bitrate                : 1024 kBit/s
Quality                         : High
Add ID3 tag                     : No
Command line compressor         : C:\Program Files (x86)\Kodeki za Glasbo\flac v1.3.1\win64\flac.exe
Additional command line options : -8 -V -T "ARTIST=%artist%" -T "TITLE=%title%" -T "ALBUM=%albumtitle%" -T "DATE=%year%" -T "TRACKNUMBER=%tracknr%" -T "TOTALTRACKS=%numtracks%" -T "GENRE=%genre%" -T "ALBUMARTIST=%albumartist%" -T "ALBUM ARTIST=%albumartist%" -T "COMMENT=EAC Secure Mode, Test & Copy, AccurateRip, FLAC -8" %source%
TOC of the extracted CD
     Track |   Start  |  Length  | Start sector | End sector
    ---------------------------------------------------------
        1  |  0:00.00 |  4:39.39 |         0    |    20963
        2  |  4:39.39 |  4:36.51 |     20964    |    41714
        3  |  9:16.15 |  2:53.51 |     41715    |    54740
        4  | 12:09.66 |  2:34.56 |     54741    |    66346
        5  | 14:44.47 |  2:51.03 |     66347    |    79174
        6  | 17:35.50 |  2:51.28 |     79175    |    92027
        7  | 20:27.03 |  4:23.43 |     92028    |   111795
        8  | 24:50.46 |  3:38.51 |    111796    |   128196
        9  | 28:29.22 |  3:55.69 |    128197    |   145890
       10  | 32:25.16 |  3:19.57 |    145891    |   160872
       11  | 35:44.73 |  3:12.51 |    160873    |   175323
       12  | 38:57.49 |  4:01.00 |    175324    |   193398
       13  | 42:58.49 |  4:16.48 |    193399    |   212646
       14  | 47:15.22 |  4:05.73 |    212647    |   231094
       15  | 51:21.20 |  4:21.40 |    231095    |   250709
       16  | 55:42.60 |  3:32.44 |    250710    |   266653
       17  | 59:15.29 |  4:51.11 |    266654    |   288489
       18  | 64:06.40 |  4:28.52 |    288490    |   308641
Track  1
     Filename K:\3. my rip in preparation\3 - in treatment\1\CD3\01 - Leona Lewis - Run.wav
     Pre-gap length  0:00:02.00
     Peak level 77.6 %
     Extraction speed 4.6 X
     Track quality 99.9 %
     Test CRC 70EEE882
     Copy CRC 70EEE882
     Accurately ripped (confidence 1)  [B78E715F]  (AR v2)
     Copy OK
Track  2
     Filename K:\3. my rip in preparation\3 - in treatment\1\CD3\02 - Pink - I Don't Believe You.wav
     Pre-gap length  0:00:01.77
     Peak level 98.4 %
     Extraction speed 5.6 X
     Track quality 100.0 %
     Test CRC 994FE50D
     Copy CRC 994FE50D
     Accurately ripped (confidence 1)  [84D29D05]  (AR v2)
     Copy OK
Track  3
     Filename K:\3. my rip in preparation\3 - in treatment\1\CD3\03 - Rebecca Ferguson - Nothing's Real But Love.wav
     Pre-gap length  0:00:01.77
     Peak level 80.1 %
     Extraction speed 5.6 X
     Track quality 100.0 %
     Test CRC A2C98BB2
     Copy CRC A2C98BB2
     Accurately ripped (confidence 1)  [FF4E5B45]  (AR v2)
     Copy OK
Track  4
     Filename K:\3. my rip in preparation\3 - in treatment\1\CD3\04 - Erma Franklin - Piece of My Heart.wav
     Pre-gap length  0:00:01.77
     Peak level 94.4 %
     Extraction speed 5.7 X
     Track quality 100.0 %
     Test CRC 934D4698
     Copy CRC 934D4698
     Accurately ripped (confidence 1)  [F4CD6E25]  (AR v2)
     Copy OK
Track  5
     Filename K:\3. my rip in preparation\3 - in treatment\1\CD3\05 - Nina Simone - To Be Young, Gifted and Black.wav
     Pre-gap length  0:00:01.77
     Peak level 99.6 %
     Extraction speed 6.0 X
     Track quality 100.0 %
     Test CRC 33572690
     Copy CRC 33572690
     Accurately ripped (confidence 1)  [9284B2DA]  (AR v2)
     Copy OK
Track  6
     Filename K:\3. my rip in preparation\3 - in treatment\1\CD3\06 - Deniece Williams - Free.wav
     Pre-gap length  0:00:01.77
     Peak level 98.7 %
     Extraction speed 6.3 X
     Track quality 100.0 %
     Test CRC 2B8DC1C5
     Copy CRC 2B8DC1C5
     Accurately ripped (confidence 1)  [571A6B56]  (AR v2)
     Copy OK
Track  7
     Filename K:\3. my rip in preparation\3 - in treatment\1\CD3\07 - Tina Arena - Chains.wav
     Pre-gap length  0:00:01.77
     Peak level 88.1 %
     Extraction speed 6.1 X
     Track quality 99.9 %
     Test CRC 96F0651B
     Copy CRC 96F0651B
     Accurately ripped (confidence 1)  [F74AE301]  (AR v2)
     Copy OK
Track  8
     Filename K:\3. my rip in preparation\3 - in treatment\1\CD3\08 - Alison Moyet - All Cried Out.wav
     Pre-gap length  0:00:01.77
     Peak level 99.7 %
     Extraction speed 7.1 X
     Track quality 100.0 %
     Test CRC F6B1E268
     Copy CRC F6B1E268
     Accurately ripped (confidence 1)  [35436DA0]  (AR v2)
     Copy OK
Track  9
     Filename K:\3. my rip in preparation\3 - in treatment\1\CD3\09 - Labelle - Lady Marmelade.wav
     Pre-gap length  0:00:01.77
     Peak level 96.2 %
     Extraction speed 7.3 X
     Track quality 100.0 %
     Test CRC 3053283D
     Copy CRC 3053283D
     Accurately ripped (confidence 1)  [4169138E]  (AR v2)
     Copy OK
Track 10
     Filename K:\3. my rip in preparation\3 - in treatment\1\CD3\10 - Paloma Faith - Can't Rely on You.wav
     Pre-gap length  0:00:01.77
     Peak level 89.0 %
     Extraction speed 7.4 X
     Track quality 100.0 %
     Test CRC 2728942D
     Copy CRC 2728942D
     Accurately ripped (confidence 1)  [25C061C7]  (AR v2)
     Copy OK
Track 11
     Filename K:\3. my rip in preparation\3 - in treatment\1\CD3\11 - Jessica Simpson - With You.wav
     Pre-gap length  0:00:01.77
     Peak level 98.8 %
     Extraction speed 7.5 X
     Track quality 100.0 %
     Test CRC 10844585
     Copy CRC 10844585
     Accurately ripped (confidence 1)  [CEEB998A]  (AR v2)
     Copy OK
Track 12
     Filename K:\3. my rip in preparation\3 - in treatment\1\CD3\12 - Jordin Sparks - Battlefield.wav
     Pre-gap length  0:00:01.77
     Peak level 84.1 %
     Extraction speed 7.0 X
     Track quality 99.9 %
     Test CRC C56B9425
     Copy CRC C56B9425
     Accurately ripped (confidence 1)  [EB7375BE]  (AR v2)
     Copy OK
Track 13
     Filename K:\3. my rip in preparation\3 - in treatment\1\CD3\13 - Dionne Warwick - Heartbreaker.wav
     Pre-gap length  0:00:01.77
     Peak level 99.7 %
     Extraction speed 7.3 X
     Track quality 99.9 %
     Test CRC 31182397
     Copy CRC 31182397
     Accurately ripped (confidence 1)  [D8F82C89]  (AR v2)
     Copy OK
Track 14
     Filename K:\3. my rip in preparation\3 - in treatment\1\CD3\14 - Des'ree - You Gotta Be.wav
     Pre-gap length  0:00:01.77
     Peak level 98.9 %
     Extraction speed 8.4 X
     Track quality 100.0 %
     Test CRC 1243B142
     Copy CRC 1243B142
     Accurately ripped (confidence 1)  [3AB5D1D3]  (AR v2)
     Copy OK
Track 15
     Filename K:\3. my rip in preparation\3 - in treatment\1\CD3\15 - Dee C. Lee - See the Day.wav
     Pre-gap length  0:00:01.77
     Peak level 99.7 %
     Extraction speed 8.7 X
     Track quality 100.0 %
     Test CRC 77AB1A98
     Copy CRC 77AB1A98
     Accurately ripped (confidence 1)  [11C12D06]  (AR v2)
     Copy OK
Track 16
     Filename K:\3. my rip in preparation\3 - in treatment\1\CD3\16 - Rita Ora - Shine Ya Light.wav
     Pre-gap length  0:00:01.77
     Peak level 74.9 %
     Extraction speed 8.6 X
     Track quality 100.0 %
     Test CRC D5B229D8
     Copy CRC D5B229D8
     Accurately ripped (confidence 1)  [F192DCDD]  (AR v2)
     Copy OK
Track 17
     Filename K:\3. my rip in preparation\3 - in treatment\1\CD3\17 - Aaliyah - At Your Best (You Are Love).wav
     Pre-gap length  0:00:01.77
     Peak level 99.7 %
     Extraction speed 8.3 X
     Track quality 99.9 %
     Test CRC 134E5BF6
     Copy CRC 134E5BF6
     Accurately ripped (confidence 1)  [B3AC81AF]  (AR v2)
     Copy OK
Track 18
     Filename K:\3. my rip in preparation\3 - in treatment\1\CD3\18 - Gossip - Perfect World.wav
     Pre-gap length  0:00:01.77
     Peak level 99.7 %
     Extraction speed 9.3 X
     Track quality 100.0 %
     Test CRC 44762D91
     Copy CRC 44762D91
     Accurately ripped (confidence 1)  [A8355792]  (AR v2)
     Copy OK
All tracks accurately ripped
No errors occurred
End of status report
---- CUETools DB Plugin V2.1.6
[CTDB TOCID: ExaBz4vTqUvIi2kbBtymqB0ACfU-] found
Submit result: ExaBz4vTqUvIi2kbBtymqB0ACfU- has been confirmed
Track | CTDB Status
  1   | (1/1) Accurately ripped
  2   | (1/1) Accurately ripped
  3   | (1/1) Accurately ripped
  4   | (1/1) Accurately ripped
  5   | (1/1) Accurately ripped
  6   | (1/1) Accurately ripped
  7   | (1/1) Accurately ripped
  8   | (1/1) Accurately ripped
  9   | (1/1) Accurately ripped
10   | (1/1) Accurately ripped
11   | (1/1) Accurately ripped
12   | (1/1) Accurately ripped
13   | (1/1) Accurately ripped
14   | (1/1) Accurately ripped
15   | (1/1) Accurately ripped
16   | (1/1) Accurately ripped
17   | (1/1) Accurately ripped
18   | (1/1) Accurately ripped

CD 4

Exact Audio Copy V1.1 from 23. June 2015
EAC extraction logfile from 4. December 2015, 18:55
Various Artists / Ultimate Divas: 4CDs of the Greatest Female Voices (Disc 4)
Used drive  : ASUS    BW-12D1S-U   Adapter: 1  ID: 1
Read mode               : Secure
Utilize accurate stream : Yes
Defeat audio cache      : Yes
Make use of C2 pointers : No
Read offset correction                      : 667
Overread into Lead-In and Lead-Out          : No
Fill up missing offset samples with silence : Yes
Delete leading and trailing silent blocks   : No
Null samples used in CRC calculations       : Yes
Used interface                              : Native Win32 interface for Win NT & 2000
Gap handling                                : Appended to previous track
Used output format              : User Defined Encoder
Selected bitrate                : 1024 kBit/s
Quality                         : High
Add ID3 tag                     : No
Command line compressor         : C:\Program Files (x86)\Kodeki za Glasbo\flac v1.3.1\win64\flac.exe
Additional command line options : -8 -V -T "ARTIST=%artist%" -T "TITLE=%title%" -T "ALBUM=%albumtitle%" -T "DATE=%year%" -T "TRACKNUMBER=%tracknr%" -T "TOTALTRACKS=%numtracks%" -T "GENRE=%genre%" -T "ALBUMARTIST=%albumartist%" -T "ALBUM ARTIST=%albumartist%" -T "COMMENT=EAC Secure Mode, Test & Copy, AccurateRip, FLAC -8" %source%
TOC of the extracted CD
     Track |   Start  |  Length  | Start sector | End sector
    ---------------------------------------------------------
        1  |  0:00.00 |  2:50.43 |         0    |    12792
        2  |  2:50.43 |  5:02.61 |     12793    |    35503
        3  |  7:53.29 |  2:16.45 |     35504    |    45748
        4  | 10:09.74 |  3:24.69 |     45749    |    61117
        5  | 13:34.68 |  3:21.22 |     61118    |    76214
        6  | 16:56.15 |  3:31.21 |     76215    |    92060
        7  | 20:27.36 |  1:59.39 |     92061    |   101024
        8  | 22:27.00 |  2:47.42 |    101025    |   113591
        9  | 25:14.42 |  2:54.50 |    113592    |   126691
       10  | 28:09.17 |  3:40.19 |    126692    |   143210
       11  | 31:49.36 |  4:26.18 |    143211    |   163178
       12  | 36:15.54 |  1:46.24 |    163179    |   171152
       13  | 38:02.03 |  3:17.43 |    171153    |   185970
       14  | 41:19.46 |  4:17.07 |    185971    |   205252
       15  | 45:36.53 |  2:47.05 |    205253    |   217782
       16  | 48:23.58 |  4:01.25 |    217783    |   235882
       17  | 52:25.08 |  5:24.07 |    235883    |   260189
       18  | 57:49.15 |  2:05.07 |    260190    |   269571
Track  1
     Filename K:\3. my rip in preparation\3 - in treatment\1\CD4\01 - Delaney & Bonnie and Friends - Groupie (Superstar).wav
     Pre-gap length  0:00:02.00
     Peak level 98.8 %
     Extraction speed 4.2 X
     Track quality 100.0 %
     Test CRC 8C5FED67
     Copy CRC 8C5FED67
     Accurately ripped (confidence 1)  [9A145D77]  (AR v2)
     Copy OK
Track  2
     Filename K:\3. my rip in preparation\3 - in treatment\1\CD4\02 - Etta James - Cry Me a River.wav
     Pre-gap length  0:00:01.77
     Peak level 98.5 %
     Extraction speed 5.0 X
     Track quality 100.0 %
     Test CRC 313297EB
     Copy CRC 313297EB
     Accurately ripped (confidence 1)  [9A903FBF]  (AR v2)
     Copy OK
Track  3
     Filename K:\3. my rip in preparation\3 - in treatment\1\CD4\03 - Carmen McRae With The Dave Brubeck Quartet - Take Five.wav
     Pre-gap length  0:00:01.77
     Peak level 98.5 %
     Extraction speed 4.8 X
     Track quality 100.0 %
     Test CRC 3566A319
     Copy CRC 3566A319
     Accurately ripped (confidence 1)  [B73F8710]  (AR v2)
     Copy OK
Track  4
     Filename K:\3. my rip in preparation\3 - in treatment\1\CD4\04 - Billie Holiday - I'm a Fool to Want You.wav
     Pre-gap length  0:00:01.77
     Peak level 99.7 %
     Extraction speed 5.4 X
     Track quality 100.0 %
     Test CRC 231289FF
     Copy CRC 231289FF
     Accurately ripped (confidence 1)  [4B771A48]  (AR v2)
     Copy OK
Track  5
     Filename K:\3. my rip in preparation\3 - in treatment\1\CD4\05 - Sarah Vaughan - The Nearness of You.wav
     Pre-gap length  0:00:01.77
     Peak level 99.7 %
     Extraction speed 5.7 X
     Track quality 100.0 %
     Test CRC 6D9428AF
     Copy CRC 6D9428AF
     Accurately ripped (confidence 1)  [227572C5]  (AR v2)
     Copy OK
Track  6
     Filename K:\3. my rip in preparation\3 - in treatment\1\CD4\06 - Eartha Kitt - I Want to Be Evil.wav
     Pre-gap length  0:00:01.77
     Peak level 99.7 %
     Extraction speed 6.0 X
     Track quality 100.0 %
     Test CRC 534CC71A
     Copy CRC 534CC71A
     Accurately ripped (confidence 1)  [49D2E4CC]  (AR v2)
     Copy OK
Track  7
     Filename K:\3. my rip in preparation\3 - in treatment\1\CD4\07 - Betty Carter - Let's Fall in Love.wav
     Pre-gap length  0:00:01.77
     Peak level 99.7 %
     Extraction speed 4.6 X
     Track quality 99.9 %
     Test CRC 31DDE263
     Copy CRC 31DDE263
     Accurately ripped (confidence 1)  [640C5506]  (AR v2)
     Copy OK
Track  8
     Filename K:\3. my rip in preparation\3 - in treatment\1\CD4\08 - Darlene Love - (Tody I Met) The Boy I'm Gonna Marry.wav
     Pre-gap length  0:00:01.77
     Peak level 85.6 %
     Extraction speed 6.2 X
     Track quality 100.0 %
     Test CRC A85C4694
     Copy CRC A85C4694
     Accurately ripped (confidence 1)  [B04205E0]  (AR v2)
     Copy OK
Track  9
     Filename K:\3. my rip in preparation\3 - in treatment\1\CD4\09 - Laura Nyro - Wedding Bell Blues.wav
     Pre-gap length  0:00:01.77
     Peak level 99.7 %
     Extraction speed 6.4 X
     Track quality 100.0 %
     Test CRC C795F0BA
     Copy CRC C795F0BA
     Accurately ripped (confidence 1)  [0C0E23AC]  (AR v2)
     Copy OK
Track 10
     Filename K:\3. my rip in preparation\3 - in treatment\1\CD4\10 - Lesley Duncan - Love Song.wav
     Pre-gap length  0:00:01.77
     Peak level 98.2 %
     Extraction speed 6.9 X
     Track quality 100.0 %
     Test CRC D972E3C7
     Copy CRC D972E3C7
     Accurately ripped (confidence 1)  [A760A198]  (AR v2)
     Copy OK
Track 11
     Filename K:\3. my rip in preparation\3 - in treatment\1\CD4\11 - Chaka Khan - Angel.wav
     Pre-gap length  0:00:01.77
     Peak level 98.8 %
     Extraction speed 6.5 X
     Track quality 99.9 %
     Test CRC DCE98D3A
     Copy CRC DCE98D3A
     Accurately ripped (confidence 1)  [B4A3FBF1]  (AR v2)
     Copy OK
Track 12
     Filename K:\3. my rip in preparation\3 - in treatment\1\CD4\12 - Bette Midler - You'll Never Know.wav
     Pre-gap length  0:00:01.77
     Peak level 99.7 %
     Extraction speed 6.4 X
     Track quality 100.0 %
     Test CRC C52FAA1D
     Copy CRC C52FAA1D
     Accurately ripped (confidence 1)  [B76D477C]  (AR v2)
     Copy OK
Track 13
     Filename K:\3. my rip in preparation\3 - in treatment\1\CD4\13 - Carly Simon - In the Wee Small Hours of the Morning.wav
     Pre-gap length  0:00:01.77
     Peak level 99.7 %
     Extraction speed 7.2 X
     Track quality 100.0 %
     Test CRC 534A65DD
     Copy CRC 534A65DD
     Accurately ripped (confidence 1)  [2EBBF951]  (AR v2)
     Copy OK
Track 14
     Filename K:\3. my rip in preparation\3 - in treatment\1\CD4\14 - Jennifer Warnes - Shot Through the Heart.wav
     Pre-gap length  0:00:01.77
     Peak level 98.5 %
     Extraction speed 7.8 X
     Track quality 100.0 %
     Test CRC D5EBBF6A
     Copy CRC D5EBBF6A
     Accurately ripped (confidence 1)  [8C8A075F]  (AR v2)
     Copy OK
Track 15
     Filename K:\3. my rip in preparation\3 - in treatment\1\CD4\15 - Jackie DeShannon - Bette Davis Eyes.wav
     Pre-gap length  0:00:01.77
     Peak level 98.8 %
     Extraction speed 7.4 X
     Track quality 100.0 %
     Test CRC E5726B20
     Copy CRC E5726B20
     Accurately ripped (confidence 1)  [BFB0F98A]  (AR v2)
     Copy OK
Track 16
     Filename K:\3. my rip in preparation\3 - in treatment\1\CD4\16 - Sarah McLachlan - Angel.wav
     Pre-gap length  0:00:01.77
     Peak level 98.4 %
     Extraction speed 7.1 X
     Track quality 99.9 %
     Test CRC 72799377
     Copy CRC 72799377
     Accurately ripped (confidence 1)  [9A37517B]  (AR v2)
     Copy OK
Track 17
     Filename K:\3. my rip in preparation\3 - in treatment\1\CD4\17 - Sophie B. Hawkins - Down I Wish I Was Your Lover.wav
     Pre-gap length  0:00:01.77
     Peak level 88.1 %
     Extraction speed 8.6 X
     Track quality 100.0 %
     Test CRC 77856AAB
     Copy CRC 77856AAB
     Accurately ripped (confidence 1)  [7373FA84]  (AR v2)
     Copy OK
Track 18
     Filename K:\3. my rip in preparation\3 - in treatment\1\CD4\18 - Doris Day - Whatever Will Be, Will Be (Que Sera, Sera).wav
     Pre-gap length  0:00:01.77
     Peak level 99.7 %
     Extraction speed 7.5 X
     Track quality 100.0 %
     Test CRC 98ECC98A
     Copy CRC 98ECC98A
     Accurately ripped (confidence 1)  [B53078BE]  (AR v2)
     Copy OK
All tracks accurately ripped
No errors occurred
End of status report
---- CUETools DB Plugin V2.1.6
[CTDB TOCID: zF0aASnCsrlD3.HdlMzwk_M4LdQ-] found
Submit result: zF0aASnCsrlD3.HdlMzwk_M4LdQ- has been confirmed
Track | CTDB Status
  1   | (1/1) Accurately ripped
  2   | (1/1) Accurately ripped
  3   | (1/1) Accurately ripped
  4   | (1/1) Accurately ripped
  5   | (1/1) Accurately ripped
  6   | (1/1) Accurately ripped
  7   | (1/1) Accurately ripped
  8   | (1/1) Accurately ripped
  9   | (1/1) Accurately ripped
10   | (1/1) Accurately ripped
11   | (1/1) Accurately ripped
12   | (1/1) Accurately ripped
13   | (1/1) Accurately ripped
14   | (1/1) Accurately ripped
15   | (1/1) Accurately ripped
16   | (1/1) Accurately ripped
17   | (1/1) Accurately ripped
18   | (1/1) Accurately ripped

Индексная карта (non-compilant .cue)

CD 1

REM GENRE Pop
REM DATE 2015
REM DISCID FE100E12
REM COMMENT "ExactAudioCopy v1.1"
CATALOG 0888750858122
PERFORMER "Various Artists"
TITLE "Ultimate Divas: 4CDs of the Greatest Female Voices (Disc 1)"
FILE "01 - Britney Spears - Toxic.wav" WAVE
  TRACK 01 AUDIO
    TITLE "Toxic"
    PERFORMER "Britney Spears"
    ISRC USJI10301005
    INDEX 01 00:00:00
  TRACK 02 AUDIO
    TITLE "We R Who Wer"
    PERFORMER "Keisha"
    ISRC USRC11000838
    INDEX 00 03:19:45
FILE "02 - Keisha - We R Who Wer.wav" WAVE
    INDEX 01 00:00:00
  TRACK 03 AUDIO
    TITLE "Love Don't  Cost a Thing"
    PERFORMER "Jennifer Lopez"
    ISRC USSM10017308
    INDEX 00 03:24:19
FILE "03 - Jennifer Lopez - Love Don't  Cost a Thing.wav" WAVE
    INDEX 01 00:00:00
  TRACK 04 AUDIO
    TITLE "Whenever, Whenever"
    PERFORMER "Shakira"
    ISRC NLB630100324
    INDEX 00 03:40:54
FILE "04 - Shakira - Whenever, Whenever.wav" WAVE
    INDEX 01 00:00:00
  TRACK 05 AUDIO
    TITLE "These  Words"
    PERFORMER "Natasha Bedingfield"
    ISRC GBARL0400683
    INDEX 00 03:15:51
FILE "05 - Natasha Bedingfield - These  Words.wav" WAVE
    INDEX 01 00:00:00
  TRACK 06 AUDIO
    TITLE "Wings"
    PERFORMER "Little Mix"
    ISRC GBHMU1200137
    INDEX 00 03:34:61
FILE "06 - Little Mix - Wings.wav" WAVE
    INDEX 01 00:00:00
  TRACK 07 AUDIO
    TITLE "Left  Outside Alone"
    PERFORMER "Anastacia"
    ISRC USSM10400150
    INDEX 00 03:38:71
FILE "07 - Anastacia - Left  Outside Alone.wav" WAVE
    INDEX 01 00:00:00
  TRACK 08 AUDIO
    TITLE "No One"
    PERFORMER "Alicia Keys"
    INDEX 00 04:16:38
FILE "08 - Alicia Keys - No One.wav" WAVE
    INDEX 01 00:00:00
  TRACK 09 AUDIO
    TITLE "I Will Always Love You"
    PERFORMER "Dolly Parton"
    INDEX 00 04:07:22
FILE "09 - Dolly Parton - I Will Always Love You.wav" WAVE
    INDEX 01 00:00:00
  TRACK 10 AUDIO
    TITLE "One Moment in Time"
    PERFORMER "Whitney Houston"
    INDEX 00 02:54:39
FILE "10 - Whitney Houston - One Moment in Time.wav" WAVE
    INDEX 01 00:00:00
  TRACK 11 AUDIO
    TITLE "Waterfalls"
    PERFORMER "TLC"
    ISRC USLF20400001
    INDEX 00 04:43:13
FILE "11 - TLC - Waterfalls.wav" WAVE
    INDEX 01 00:00:00
  TRACK 12 AUDIO
    TITLE "He Wasn't Man Enough"
    PERFORMER "Toni Braxton"
    ISRC USLF20000048
    INDEX 00 03:30:38
FILE "12 - Toni Braxton - He Wasn't Man Enough.wav" WAVE
    INDEX 01 00:00:00
  TRACK 13 AUDIO
    TITLE "Because of You"
    PERFORMER "Kelly Clarkson"
    ISRC GBCTA0400265
    INDEX 00 03:59:35
FILE "13 - Kelly Clarkson - Because of You.wav" WAVE
    INDEX 01 00:00:00
  TRACK 14 AUDIO
    TITLE "The Power of Love"
    PERFORMER "Jennifer Rush"
    ISRC DEE868400010
    INDEX 00 03:38:41
FILE "14 - Jennifer Rush - The Power of Love.wav" WAVE
    INDEX 01 00:00:00
  TRACK 15 AUDIO
    TITLE "True Colors"
    PERFORMER "Cyndi Lauper"
    ISRC USSM18600632
    INDEX 00 04:26:25
FILE "15 - Cyndi Lauper - True Colors.wav" WAVE
    INDEX 01 00:00:00
  TRACK 16 AUDIO
    TITLE "Chandelier"
    PERFORMER "Sia"
    ISRC USRC11400498
    INDEX 00 03:46:22
FILE "16 - Sia - Chandelier.wav" WAVE
    INDEX 01 00:00:00
  TRACK 17 AUDIO
    TITLE "Loved Me Back to Life"
    PERFORMER "Celine Dion"
    ISRC CAC221300020
    INDEX 00 03:34:71
FILE "17 - Celine Dion - Loved Me Back to Life.wav" WAVE
    INDEX 01 00:00:00
  TRACK 18 AUDIO
    TITLE "You Lost Me"
    PERFORMER "Christina Aguilera"
    ISRC USRC11000265
    INDEX 00 03:49:39
FILE "18 - Christina Aguilera - You Lost Me.wav" WAVE
    INDEX 01 00:00:00

CD 2

REM GENRE Pop
REM DATE 2015
REM DISCID 0710C612
REM COMMENT "ExactAudioCopy v1.1"
CATALOG 0888750858122
PERFORMER "Various Artists"
TITLE "Ultimate Divas: 4CDs of the Greatest Female Voices (Disc 2)"
FILE "01 - Bonnie Tyler - Total Eclipse of the Heart.wav" WAVE
  TRACK 01 AUDIO
    TITLE "Total Eclipse of the Heart"
    PERFORMER "Bonnie Tyler"
    ISRC GBBBN8300002
    INDEX 01 00:00:00
  TRACK 02 AUDIO
    TITLE "It's Raining Men"
    PERFORMER "The Weather Girls"
    ISRC USSM19913325
    INDEX 00 04:26:21
FILE "02 - The Weather Girls - It's Raining Men.wav" WAVE
    INDEX 01 00:00:00
  TRACK 03 AUDIO
    TITLE "1 Thing"
    PERFORMER "Amerie"
    ISRC USSM10500192
    INDEX 00 03:31:55
FILE "03 - Amerie - 1 Thing.wav" WAVE
    INDEX 01 00:00:00
  TRACK 04 AUDIO
    TITLE "Spootlight"
    PERFORMER "Jennifer Hudson"
    ISRC USAR10800074
    INDEX 00 03:57:53
FILE "04 - Jennifer Hudson - Spootlight.wav" WAVE
    INDEX 01 00:00:00
  TRACK 05 AUDIO
    TITLE "This Is It"
    PERFORMER "Melba Moore"
    ISRC USBR17600002
    INDEX 00 04:09:15
FILE "05 - Melba Moore - This Is It.wav" WAVE
    INDEX 01 00:00:00
  TRACK 06 AUDIO
    TITLE "Love Come Down"
    PERFORMER "Evelyn 'Champagne' King"
    ISRC USRC18207928
    INDEX 00 03:29:09
FILE "06 - Evelyn 'Champagne' King - Love Come Down.wav" WAVE
    INDEX 01 00:00:00
  TRACK 07 AUDIO
    TITLE "Got to Be Real"
    PERFORMER "Cheryl Lynn"
    ISRC USSM19800905
    INDEX 00 03:36:30
FILE "07 - Cheryl Lynn - Got to Be Real.wav" WAVE
    INDEX 01 00:00:00
  TRACK 08 AUDIO
    TITLE "Jump to It"
    PERFORMER "Aretha Franklin"
    ISRC USAR10600364
    INDEX 00 03:44:01
FILE "08 - Aretha Franklin - Jump to It.wav" WAVE
    INDEX 01 00:00:00
  TRACK 09 AUDIO
    TITLE "Slow Hand"
    PERFORMER "The Pointer Sisters"
    ISRC USRC18101745
    INDEX 00 04:14:59
FILE "09 - The Pointer Sisters - Slow Hand.wav" WAVE
    INDEX 01 00:00:00
  TRACK 10 AUDIO
    TITLE "Midnight Train to Georgia"
    PERFORMER "Gladys Knight & The Pips"
    ISRC USBR10800045
    INDEX 00 03:51:23
FILE "10 - Gladys Knight & The Pips - Midnight Train to Georgia.wav" WAVE
    INDEX 01 00:00:00
  TRACK 11 AUDIO
    TITLE "Stole"
    PERFORMER "Kelly Rowland"
    ISRC USSM10211177
    INDEX 00 03:51:54
FILE "11 - Kelly Rowland - Stole.wav" WAVE
    INDEX 01 00:00:00
  TRACK 12 AUDIO
    TITLE "Born to Try"
    PERFORMER "Delta Goodrem"
    ISRC AUSM00200231
    INDEX 00 04:09:04
FILE "12 - Delta Goodrem - Born to Try.wav" WAVE
    INDEX 01 00:00:00
  TRACK 13 AUDIO
    TITLE "Don't Wanna Lose You"
    PERFORMER "Gloria Estefan"
    ISRC USSM18900355
    INDEX 00 03:51:55
FILE "13 - Gloria Estefan - Don't Wanna Lose You.wav" WAVE
    INDEX 01 00:00:00
  TRACK 14 AUDIO
    TITLE "Wish I Didn't Miss You"
    PERFORMER "Angie Stone"
    ISRC USJAY0100309
    INDEX 00 04:07:58
FILE "14 - Angie Stone - Wish I Didn't Miss You.wav" WAVE
    INDEX 01 00:00:00
  TRACK 15 AUDIO
    TITLE "Proud"
    PERFORMER "Heather Small"
    ISRC GBARK0000017
    INDEX 00 04:29:67
FILE "15 - Heather Small - Proud.wav" WAVE
    INDEX 01 00:00:00
  TRACK 16 AUDIO
    TITLE "Love & Tears"
    PERFORMER "Naomi Campbell"
    ISRC USSM10015282
    INDEX 00 03:53:06
FILE "16 - Naomi Campbell - Love & Tears.wav" WAVE
    INDEX 01 00:00:00
  TRACK 17 AUDIO
    TITLE "I'm With You"
    PERFORMER "Avril Lavigne"
    ISRC USAR10200224
    INDEX 00 04:18:65
FILE "17 - Avril Lavigne - I'm With You.wav" WAVE
    INDEX 01 00:00:00
  TRACK 18 AUDIO
    TITLE "Hallelujah"
    PERFORMER "Alexandra Burke"
    ISRC GBHMU0800141
    INDEX 00 03:42:61
FILE "18 - Alexandra Burke - Hallelujah.wav" WAVE
    INDEX 01 00:00:00

CD 3

REM GENRE Pop
REM DATE 2015
REM DISCID 13101312
REM COMMENT "ExactAudioCopy v1.1"
CATALOG 0888750858122
PERFORMER "Various Artists"
TITLE "Ultimate Divas: 4CDs of the Greatest Female Voices (Disc 3)"
FILE "01 - Leona Lewis - Run.wav" WAVE
  TRACK 01 AUDIO
    TITLE "Run"
    PERFORMER "Leona Lewis"
    ISRC GBHMU0800137
    INDEX 01 00:00:00
  TRACK 02 AUDIO
    TITLE "I Don't Believe You"
    PERFORMER "Pink"
    ISRC USLF20800180
    INDEX 00 04:37:56
FILE "02 - Pink - I Don't Believe You.wav" WAVE
    INDEX 01 00:00:00
  TRACK 03 AUDIO
    TITLE "Nothing's Real But Love"
    PERFORMER "Rebecca Ferguson"
    ISRC GBARL1101210
    INDEX 00 04:34:68
FILE "03 - Rebecca Ferguson - Nothing's Real But Love.wav" WAVE
    INDEX 01 00:00:00
  TRACK 04 AUDIO
    TITLE "Piece of My Heart"
    PERFORMER "Erma Franklin"
    ISRC USSM16701752
    INDEX 00 02:51:68
FILE "04 - Erma Franklin - Piece of My Heart.wav" WAVE
    INDEX 01 00:00:00
  TRACK 05 AUDIO
    TITLE "To Be Young, Gifted and Black"
    PERFORMER "Nina Simone"
    ISRC USRC10503461
    INDEX 00 02:32:73
FILE "05 - Nina Simone - To Be Young, Gifted and Black.wav" WAVE
    INDEX 01 00:00:00
  TRACK 06 AUDIO
    TITLE "Free"
    PERFORMER "Deniece Williams"
    ISRC USSM10503158
    INDEX 00 02:49:20
FILE "06 - Deniece Williams - Free.wav" WAVE
    INDEX 01 00:00:00
  TRACK 07 AUDIO
    TITLE "Chains"
    PERFORMER "Tina Arena"
    ISRC AUSM09600080
    INDEX 00 02:49:45
FILE "07 - Tina Arena - Chains.wav" WAVE
    INDEX 01 00:00:00
  TRACK 08 AUDIO
    TITLE "All Cried Out"
    PERFORMER "Alison Moyet"
    ISRC GBBBN8400005
    INDEX 00 04:21:60
FILE "08 - Alison Moyet - All Cried Out.wav" WAVE
    INDEX 01 00:00:00
  TRACK 09 AUDIO
    TITLE "Lady Marmelade"
    PERFORMER "Labelle"
    ISRC USSM17400748
    INDEX 00 03:36:68
FILE "09 - Labelle - Lady Marmelade.wav" WAVE
    INDEX 01 00:00:00
  TRACK 10 AUDIO
    TITLE "Can't Rely on You"
    PERFORMER "Paloma Faith"
    ISRC GBARL1301426
    INDEX 00 03:54:11
FILE "10 - Paloma Faith - Can't Rely on You.wav" WAVE
    INDEX 01 00:00:00
  TRACK 11 AUDIO
    TITLE "With You"
    PERFORMER "Jessica Simpson"
    ISRC USSM10308249
    INDEX 00 03:17:74
FILE "11 - Jessica Simpson - With You.wav" WAVE
    INDEX 01 00:00:00
  TRACK 12 AUDIO
    TITLE "Battlefield"
    PERFORMER "Jordin Sparks"
    ISRC GBCTA0900150
    INDEX 00 03:10:68
FILE "12 - Jordin Sparks - Battlefield.wav" WAVE
    INDEX 01 00:00:00
  TRACK 13 AUDIO
    TITLE "Heartbreaker"
    PERFORMER "Dionne Warwick"
    ISRC USAR18200009
    INDEX 00 03:59:17
FILE "13 - Dionne Warwick - Heartbreaker.wav" WAVE
    INDEX 01 00:00:00
  TRACK 14 AUDIO
    TITLE "You Gotta Be"
    PERFORMER "Des'ree"
    ISRC GBBBN0009325
    INDEX 00 04:14:65
FILE "14 - Des'ree - You Gotta Be.wav" WAVE
    INDEX 01 00:00:00
  TRACK 15 AUDIO
    TITLE "See the Day"
    PERFORMER "Dee C. Lee"
    ISRC GBBBN8500001
    INDEX 00 04:04:15
FILE "15 - Dee C. Lee - See the Day.wav" WAVE
    INDEX 01 00:00:00
  TRACK 16 AUDIO
    TITLE "Shine Ya Light"
    PERFORMER "Rita Ora"
    ISRC USQX91201249
    INDEX 00 04:19:57
FILE "16 - Rita Ora - Shine Ya Light.wav" WAVE
    INDEX 01 00:00:00
  TRACK 17 AUDIO
    TITLE "At Your Best (You Are Love)"
    PERFORMER "Aaliyah"
    ISRC USJI19400005
    INDEX 00 03:30:61
FILE "17 - Aaliyah - At Your Best (You Are Love).wav" WAVE
    INDEX 01 00:00:00
  TRACK 18 AUDIO
    TITLE "Perfect World"
    PERFORMER "Gossip"
    ISRC USSM11201514
    INDEX 00 04:49:28
FILE "18 - Gossip - Perfect World.wav" WAVE
    INDEX 01 00:00:00

CD 4

REM GENRE Pop
REM DATE 2015
REM DISCID F80E0A12
REM COMMENT "ExactAudioCopy v1.1"
CATALOG 0888750858122
PERFORMER "Various Artists"
TITLE "Ultimate Divas: 4CDs of the Greatest Female Voices (Disc 4)"
FILE "01 - Delaney & Bonnie and Friends - Groupie (Superstar).wav" WAVE
  TRACK 01 AUDIO
    TITLE "Groupie (Superstar)"
    PERFORMER "Delaney & Bonnie and Friends"
    ISRC USSM19910304
    INDEX 01 00:00:00
  TRACK 02 AUDIO
    TITLE "Cry Me a River"
    PERFORMER "Etta James"
    ISRC USPM10100014
    INDEX 00 02:48:60
FILE "02 - Etta James - Cry Me a River.wav" WAVE
    INDEX 01 00:00:00
  TRACK 03 AUDIO
    TITLE "Take Five"
    PERFORMER "Carmen McRae With The Dave Brubeck Quartet"
    ISRC USSM10016393
    INDEX 00 05:01:03
FILE "03 - Carmen McRae With The Dave Brubeck Quartet - Take Five.wav" WAVE
    INDEX 01 00:00:00
  TRACK 04 AUDIO
    TITLE "I'm a Fool to Want You"
    PERFORMER "Billie Holiday"
    ISRC USSM15800227
    INDEX 00 02:14:62
FILE "04 - Billie Holiday - I'm a Fool to Want You.wav" WAVE
    INDEX 01 00:00:00
  TRACK 05 AUDIO
    TITLE "The Nearness of You"
    PERFORMER "Sarah Vaughan"
    ISRC USSM10027703
    INDEX 00 03:23:11
FILE "05 - Sarah Vaughan - The Nearness of You.wav" WAVE
    INDEX 01 00:00:00
  TRACK 06 AUDIO
    TITLE "I Want to Be Evil"
    PERFORMER "Eartha Kitt"
    ISRC USBB10101073
    INDEX 00 03:19:39
FILE "06 - Eartha Kitt - I Want to Be Evil.wav" WAVE
    INDEX 01 00:00:00
  TRACK 07 AUDIO
    TITLE "Let's Fall in Love"
    PERFORMER "Betty Carter"
    ISRC USSM15600025
    INDEX 00 03:29:38
FILE "07 - Betty Carter - Let's Fall in Love.wav" WAVE
    INDEX 01 00:00:00
  TRACK 08 AUDIO
    TITLE "(Tody I Met) The Boy I'm Gonna Marry"
    PERFORMER "Darlene Love"
    ISRC USSM10906444
    INDEX 00 01:57:56
FILE "08 - Darlene Love - (Tody I Met) The Boy I'm Gonna Marry.wav" WAVE
    INDEX 01 00:00:00
  TRACK 09 AUDIO
    TITLE "Wedding Bell Blues"
    PERFORMER "Laura Nyro"
    ISRC USSM16600064
    INDEX 00 02:45:59
FILE "09 - Laura Nyro - Wedding Bell Blues.wav" WAVE
    INDEX 01 00:00:00
  TRACK 10 AUDIO
    TITLE "Love Song"
    PERFORMER "Lesley Duncan"
    ISRC USSM10012963
    INDEX 00 02:52:67
FILE "10 - Lesley Duncan - Love Song.wav" WAVE
    INDEX 01 00:00:00
  TRACK 11 AUDIO
    TITLE "Angel"
    PERFORMER "Chaka Khan"
    ISRC USA820700179
    INDEX 00 03:38:36
FILE "11 - Chaka Khan - Angel.wav" WAVE
    INDEX 01 00:00:00
  TRACK 12 AUDIO
    TITLE "You'll Never Know"
    PERFORMER "Bette Midler"
    ISRC USSM10308844
    INDEX 00 04:24:35
FILE "12 - Bette Midler - You'll Never Know.wav" WAVE
    INDEX 01 00:00:00
  TRACK 13 AUDIO
    TITLE "In the Wee Small Hours of the Morning"
    PERFORMER "Carly Simon"
    ISRC USAR19000163
    INDEX 00 01:44:41
FILE "13 - Carly Simon - In the Wee Small Hours of the Morning.wav" WAVE
    INDEX 01 00:00:00
  TRACK 14 AUDIO
    TITLE "Shot Through the Heart"
    PERFORMER "Jennifer Warnes"
    INDEX 00 03:15:60
FILE "14 - Jennifer Warnes - Shot Through the Heart.wav" WAVE
    INDEX 01 00:00:00
  TRACK 15 AUDIO
    TITLE "Bette Davis Eyes"
    PERFORMER "Jackie DeShannon"
    ISRC USSM10114706
    INDEX 00 04:15:24
FILE "15 - Jackie DeShannon - Bette Davis Eyes.wav" WAVE
    INDEX 01 00:00:00
  TRACK 16 AUDIO
    TITLE "Angel"
    PERFORMER "Sarah McLachlan"
    INDEX 00 02:45:22
FILE "16 - Sarah McLachlan - Angel.wav" WAVE
    INDEX 01 00:00:00
  TRACK 17 AUDIO
    TITLE "Down I Wish I Was Your Lover"
    PERFORMER "Sophie B. Hawkins"
    ISRC USSM10019593
    INDEX 00 03:59:42
FILE "17 - Sophie B. Hawkins - Down I Wish I Was Your Lover.wav" WAVE
    INDEX 01 00:00:00
  TRACK 18 AUDIO
    TITLE "Whatever Will Be, Will Be (Que Sera, Sera)"
    PERFORMER "Doris Day"
    ISRC USSM15600286
    INDEX 00 05:22:24
FILE "18 - Doris Day - Whatever Will Be, Will Be (Que Sera, Sera).wav" WAVE
    INDEX 01 00:00:00
--
[Профиль] [ЛС]
Показать сообщения:    

Текущее время: Сегодня 13:02

Часовой пояс: GMT



Вы не можете начинать темы
Вы не можете отвечать на сообщения
Вы не можете редактировать свои сообщения
Вы не можете удалять свои сообщения
Вы не можете голосовать в опросах
Вы не можете прикреплять файлы к сообщениям
Вы не можете скачивать файлы