(Country) VA - Ultimate Country (4CD) - 2015 [FLAC, tracks+.cue, lossless]

 
Автор Сообщение

sergej644 ®

Пол:

Стаж: 4 года 11 месяцев

Сообщений: 6043

Откуда: Soviet Union



Награды: Нет

Торрент-статистика

Создавать темы 07-Янв-2016 14:27

[Цитировать]

-Ultimate Country (4CD)-- Год издания: 2015
Страна: n/a
Жанр: Country
Продолжительность: 03:49:34-Лейбл издания: Sony Music Entertainment
Тип альбома: Compilation
Страна-выпуска диска: EU
Номер по каталогу: 88875085562
Источник (релизер): ruskaval-Формат: FLAC
Битрейт аудио: lossless
Тип рипа: tracks+.cue
Наличие сканов в содержимом раздачи: да
-

Трэклист

CD 1 | 00:57:51

01.Alan Jackson duet With Jimmy Buffett - It's Five O'Clock Somewhere (03:52)
02.Miranda Lambert - Gunpowder & Lead (03:11)
03.Brad Paisley - This Is Country Music (05:14)
04.Willie Nelson - On the Road Again (02:33)
05.Johnny Cash - Ring of Fire (02:38)
06.Dolly Parton - Jolene (02:42)
07.Billy Ray Cyrus - Crazy 'Bout You Baby (03:22)
08.Pistol Annies - Hell on Heels (03:17)
09.Gretchen Wilson - California Girls (02:51)
10.The Statler Brothers - Flowers on the Wall (02:21)
11.Ricky Skaggs - Country Boy (03:51)
12.Charlie Daniels - The Devil Went Down to Georgia (03:36)
13.Chet Atkins & Mark Knopfler - Yakety Axe (03:26)
14.John Denver - Take Me Home, Country Roads (03:12)
15.Charlie Rich - The Most Beautiful Girl (02:41)
16.Tammy Wynette - Stand by Your Man (02:39)
17.George Jones & Tammy Wynette - Golden Ring (03:05)
18.Smokie - Living Next Door to Alice (03:29)

CD 2 | 01:02:34

01.Dolly Parton & Kenny Rogers - Islands in the Stream (04:11)
02.Billy Swan - I Can Help (03:59)
03.Brooks & Dunn - Ain't Nothing 'Bout You (03:22)
04.Sara Evans - Born to Fly (05:38)
05.Kris Kristofferson - Me and Bobby McGee (04:15)
06.The Highwaymen - Highwayman (03:04)
07.Waylon Jennings & Willie Nelson - Mamma's Don't Let Your Babies Grow Up to Be Cowboys (02:33)
08.Joe Diffie - Pickup Man (03:38)
09.Johnny Paycheck - Take This Job and Shove It (02:38)
10.Clint Black - A Good Run of Bad Luck (02:44)
11.Martina McBride - I Just Call You Mine (04:22)
12.Love and Theft - Angel Eyes (03:09)
13.Mary Chapin Carpenter - I Feel Lucky (03:33)
14.Ricochet - Daddy's Money (03:05)
15.Jake Owen - Barefoot Blue Jean Night (02:49)
16.Patty Loveless - Here I Am (03:04)
17.Merle Haggard - That's the Way Love Goes (03:02)
18.Earl Thomas Conley With Emmylou Harris - We Believe in Happy Endings (03:36)

CD 3 | 01:00:54

01.Lonestar - Amazed (04:02)
02.Rosanne Cash - Seven Year Ache (03:16)
03.Phil Vassar - Just Another Day in Paradise (03:56)
04.Restless Heart - You Can Depend on Me (02:41)
05.Barbara Mandrell - Tonight My Baby's Coming Home (02:05)
06.Ty Herndon - It Must Be Love (03:34)
07.Exile - Woke Up in Love (03:08)
08.Tanya Tucker - Would You Lay With Me (In a Field of Stone) (02:25)
09.Montgomery Gentry - Roll With Me (03:55)
10.Diamond Rio - How Your Love Makes Me Feel (04:06)
11.Travis Tritt - Honky-Tonk History (03:36)
12.Alabama - Roll On (Eighteen Wheeler) (03:45)
13.Don Williams - I've Been Loved by the Best (03:34)
14.Lari White - Now I Know (04:33)
15.Doug Stone - A Jukebox With a Country Song (03:30)
16.Chris Young - Tomorrow (03:40)
17.Ricky Van Shelton - I'll Leave This World Loving You (03:08)
18.Elvis Presley - Snowbird (02:07)

CD 4 | 00:48:16

01.Jim Reeves - Welcome to My World (02:35)
02.Skeeter Davis - The End of the World (02:38)
03.Mac Davis - Baby Don't Get Hooked on Me (03:04)
04.Lynn Anderson - (I Never Promised You a) Rose Garden (02:56)
05.Marty Robbins - Big Iron (03:58)
06.Don Gibson - Oh, Lonesome Me (02:31)
07.George Hamilton IV - Abilene (02:14)
08.Bobby Bare - The Streets of Baltimore (02:39)
09.George Jones - She Thinks I Still Care (02:50)
10.Connie Smith - Once a Day (02:20)
11.B.J. Thomas - Whatever Happened to Old Fashioned Love (03:28)
12.Eddy Arnold - Make the World Go Away (02:40)
13.Charley Pride - Kiss an Angel Good Mornin' (02:03)
14.Porter Wagoner - A Satisfied Mind (02:48)
15.The Browns - The Three Bells (02:52)
16.Lester Flatt & Earl Scruggs With The Foggy Mountain Boys - The Ballad of Jed Clampett (02:04)
17.Waylon Jennings - Theme From 'The Dukes of Hazzard' (Good Ol' Boys) (02:08)
18.Roy Rogers and The Sons of the Pioneers - Stampede (02:37)
-

Лог создания рипа

CD 1

Exact Audio Copy V1.1 from 23. June 2015
EAC extraction logfile from 2. December 2015, 15:30
Various Artists / Ultimate Country: 4CDs of Great Country Music (Disc 1)
Used drive  : ASUS    BW-12D1S-U   Adapter: 1  ID: 1
Read mode               : Secure
Utilize accurate stream : Yes
Defeat audio cache      : Yes
Make use of C2 pointers : No
Read offset correction                      : 667
Overread into Lead-In and Lead-Out          : No
Fill up missing offset samples with silence : Yes
Delete leading and trailing silent blocks   : No
Null samples used in CRC calculations       : Yes
Used interface                              : Native Win32 interface for Win NT & 2000
Gap handling                                : Appended to previous track
Used output format              : User Defined Encoder
Selected bitrate                : 1024 kBit/s
Quality                         : High
Add ID3 tag                     : No
Command line compressor         : C:\Program Files (x86)\Kodeki za Glasbo\flac v1.3.1\win64\flac.exe
Additional command line options : -8 -V -T "ARTIST=%artist%" -T "TITLE=%title%" -T "ALBUM=%albumtitle%" -T "DATE=%year%" -T "TRACKNUMBER=%tracknr%" -T "TOTALTRACKS=%numtracks%" -T "GENRE=%genre%" -T "ALBUMARTIST=%albumartist%" -T "ALBUM ARTIST=%albumartist%" -T "COMMENT=EAC Secure Mode, Test & Copy, AccurateRip, FLAC -8" %source%
TOC of the extracted CD
     Track |   Start  |  Length  | Start sector | End sector
    ---------------------------------------------------------
        1  |  0:00.00 |  3:51.52 |         0    |    17376
        2  |  3:51.52 |  3:10.52 |     17377    |    31678
        3  |  7:02.29 |  5:13.10 |     31679    |    55163
        4  | 12:15.39 |  2:32.65 |     55164    |    66628
        5  | 14:48.29 |  2:37.71 |     66629    |    78474
        6  | 17:26.25 |  2:41.12 |     78475    |    90561
        7  | 20:07.37 |  3:21.50 |     90562    |   105686
        8  | 23:29.12 |  3:16.64 |    105687    |   120450
        9  | 26:46.01 |  2:50.01 |    120451    |   133201
       10  | 29:36.02 |  2:20.34 |    133202    |   143735
       11  | 31:56.36 |  3:50.19 |    143736    |   161004
       12  | 35:46.55 |  3:35.51 |    161005    |   177180
       13  | 39:22.31 |  3:25.47 |    177181    |   192602
       14  | 42:48.03 |  3:11.19 |    192603    |   206946
       15  | 45:59.22 |  2:40.13 |    206947    |   218959
       16  | 48:39.35 |  2:38.59 |    218960    |   230868
       17  | 51:18.19 |  3:04.10 |    230869    |   244678
       18  | 54:22.29 |  3:28.24 |    244679    |   260302
Track  1
     Filename K:\3. my rip in preparation\3 - in treatment\1\CD1\01 - Alan Jackson duet With Jimmy Buffett - It's Five O'Clock Somewhere.wav
     Pre-gap length  0:00:02.00
     Peak level 87.8 %
     Extraction speed 4.6 X
     Track quality 100.0 %
     Test CRC 37A6AE3C
     Copy CRC 37A6AE3C
     Accurately ripped (confidence 1)  [A737054E]  (AR v2)
     Copy OK
Track  2
     Filename K:\3. my rip in preparation\3 - in treatment\1\CD1\02 - Miranda Lambert - Gunpowder & Lead.wav
     Pre-gap length  0:00:01.77
     Peak level 99.6 %
     Extraction speed 4.8 X
     Track quality 100.0 %
     Test CRC F63C1A68
     Copy CRC F63C1A68
     Accurately ripped (confidence 1)  [87B95795]  (AR v2)
     Copy OK
Track  3
     Filename K:\3. my rip in preparation\3 - in treatment\1\CD1\03 - Brad Paisley - This Is Country Music.wav
     Pre-gap length  0:00:01.77
     Peak level 93.2 %
     Extraction speed 5.6 X
     Track quality 100.0 %
     Test CRC 5EADBDBA
     Copy CRC 5EADBDBA
     Accurately ripped (confidence 1)  [71C0834E]  (AR v2)
     Copy OK
Track  4
     Filename K:\3. my rip in preparation\3 - in treatment\1\CD1\04 - Willie Nelson - On the Road Again.wav
     Pre-gap length  0:00:01.77
     Peak level 99.0 %
     Extraction speed 5.4 X
     Track quality 100.0 %
     Test CRC 7F04114C
     Copy CRC 7F04114C
     Accurately ripped (confidence 1)  [B5CC6459]  (AR v2)
     Copy OK
Track  5
     Filename K:\3. my rip in preparation\3 - in treatment\1\CD1\05 - Johnny Cash - Ring of Fire.wav
     Pre-gap length  0:00:01.77
     Peak level 98.4 %
     Extraction speed 5.6 X
     Track quality 100.0 %
     Test CRC E4C4914D
     Copy CRC E4C4914D
     Accurately ripped (confidence 1)  [C6E5CDDF]  (AR v2)
     Copy OK
Track  6
     Filename K:\3. my rip in preparation\3 - in treatment\1\CD1\06 - Dolly Parton - Jolene.wav
     Pre-gap length  0:00:02.30
     Peak level 98.6 %
     Extraction speed 5.8 X
     Track quality 100.0 %
     Test CRC 03DE5F8E
     Copy CRC 03DE5F8E
     Accurately ripped (confidence 1)  [35ADB31E]  (AR v2)
     Copy OK
Track  7
     Filename K:\3. my rip in preparation\3 - in treatment\1\CD1\07 - Billy Ray Cyrus - Crazy 'Bout You Baby.wav
     Pre-gap length  0:00:01.77
     Peak level 99.7 %
     Extraction speed 6.2 X
     Track quality 100.0 %
     Test CRC DEEDFFED
     Copy CRC DEEDFFED
     Accurately ripped (confidence 1)  [A481E181]  (AR v2)
     Copy OK
Track  8
     Filename K:\3. my rip in preparation\3 - in treatment\1\CD1\08 - Pistol Annies - Hell on Heels.wav
     Pre-gap length  0:00:01.77
     Peak level 99.5 %
     Extraction speed 5.7 X
     Track quality 99.9 %
     Test CRC 42FB1242
     Copy CRC 42FB1242
     Accurately ripped (confidence 1)  [9F697068]  (AR v2)
     Copy OK
Track  9
     Filename K:\3. my rip in preparation\3 - in treatment\1\CD1\09 - Gretchen Wilson - California Girls.wav
     Pre-gap length  0:00:01.77
     Peak level 96.5 %
     Extraction speed 6.5 X
     Track quality 100.0 %
     Test CRC 0EC44717
     Copy CRC 0EC44717
     Accurately ripped (confidence 1)  [74FE76B3]  (AR v2)
     Copy OK
Track 10
     Filename K:\3. my rip in preparation\3 - in treatment\1\CD1\10 - The Statler Brothers - Flowers on the Wall.wav
     Pre-gap length  0:00:01.77
     Peak level 98.7 %
     Extraction speed 6.4 X
     Track quality 100.0 %
     Test CRC 1D338F1B
     Copy CRC 1D338F1B
     Accurately ripped (confidence 1)  [5C4CE855]  (AR v2)
     Copy OK
Track 11
     Filename K:\3. my rip in preparation\3 - in treatment\1\CD1\11 - Ricky Skaggs - Country Boy.wav
     Pre-gap length  0:00:01.77
     Peak level 99.7 %
     Extraction speed 7.2 X
     Track quality 100.0 %
     Test CRC 0B00C51B
     Copy CRC 0B00C51B
     Accurately ripped (confidence 1)  [FE80A4D1]  (AR v2)
     Copy OK
Track 12
     Filename K:\3. my rip in preparation\3 - in treatment\1\CD1\12 - Charlie Daniels - The Devil Went Down to Georgia.wav
     Pre-gap length  0:00:01.77
     Peak level 98.6 %
     Extraction speed 7.3 X
     Track quality 100.0 %
     Test CRC 22167ADA
     Copy CRC 22167ADA
     Accurately ripped (confidence 1)  [9DB14C66]  (AR v2)
     Copy OK
Track 13
     Filename K:\3. my rip in preparation\3 - in treatment\1\CD1\13 - Chet Atkins & Mark Knopfler - Yakety Axe.wav
     Pre-gap length  0:00:01.77
     Peak level 92.9 %
     Extraction speed 7.4 X
     Track quality 100.0 %
     Test CRC AEAC6A22
     Copy CRC AEAC6A22
     Accurately ripped (confidence 1)  [DD3F82A5]  (AR v2)
     Copy OK
Track 14
     Filename K:\3. my rip in preparation\3 - in treatment\1\CD1\14 - John Denver - Take Me Home, Country Roads.wav
     Pre-gap length  0:00:01.77
     Peak level 99.7 %
     Extraction speed 6.5 X
     Track quality 99.9 %
     Test CRC 9ECC5A8E
     Copy CRC 9ECC5A8E
     Accurately ripped (confidence 1)  [4EC56D15]  (AR v2)
     Copy OK
Track 15
     Filename K:\3. my rip in preparation\3 - in treatment\1\CD1\15 - Charlie Rich - The Most Beautiful Girl.wav
     Pre-gap length  0:00:01.77
     Peak level 95.8 %
     Extraction speed 7.4 X
     Track quality 100.0 %
     Test CRC 4A9FAFCE
     Copy CRC 4A9FAFCE
     Accurately ripped (confidence 1)  [5330DB7A]  (AR v2)
     Copy OK
Track 16
     Filename K:\3. my rip in preparation\3 - in treatment\1\CD1\16 - Tammy Wynette - Stand by Your Man.wav
     Pre-gap length  0:00:01.77
     Peak level 99.7 %
     Extraction speed 7.6 X
     Track quality 100.0 %
     Test CRC B81D7F36
     Copy CRC B81D7F36
     Accurately ripped (confidence 1)  [26919B17]  (AR v2)
     Copy OK
Track 17
     Filename K:\3. my rip in preparation\3 - in treatment\1\CD1\17 - George Jones & Tammy Wynette - Golden Ring.wav
     Pre-gap length  0:00:01.77
     Peak level 99.7 %
     Extraction speed 7.9 X
     Track quality 100.0 %
     Test CRC 2EADC094
     Copy CRC 2EADC094
     Accurately ripped (confidence 1)  [8530E886]  (AR v2)
     Copy OK
Track 18
     Filename K:\3. my rip in preparation\3 - in treatment\1\CD1\18 - Smokie - Living Next Door to Alice.wav
     Pre-gap length  0:00:01.77
     Peak level 98.5 %
     Extraction speed 8.1 X
     Track quality 100.0 %
     Test CRC 566F1013
     Copy CRC 566F1013
     Accurately ripped (confidence 1)  [C7892283]  (AR v2)
     Copy OK
All tracks accurately ripped
No errors occurred
End of status report
---- CUETools DB Plugin V2.1.6
[CTDB TOCID: 9UH_ejxZUifcvjJnSvy_yvxy59c-] found
Submit result: 9UH_ejxZUifcvjJnSvy_yvxy59c- has been confirmed
Track | CTDB Status
  1   | (2/2) Accurately ripped
  2   | (2/2) Accurately ripped
  3   | (2/2) Accurately ripped
  4   | (2/2) Accurately ripped
  5   | (2/2) Accurately ripped
  6   | (2/2) Accurately ripped
  7   | (2/2) Accurately ripped
  8   | (2/2) Accurately ripped
  9   | (2/2) Accurately ripped
10   | (2/2) Accurately ripped
11   | (2/2) Accurately ripped
12   | (2/2) Accurately ripped
13   | (2/2) Accurately ripped
14   | (2/2) Accurately ripped
15   | (2/2) Accurately ripped
16   | (2/2) Accurately ripped
17   | (2/2) Accurately ripped
18   | (2/2) Accurately ripped

CD 2

Exact Audio Copy V1.1 from 23. June 2015
EAC extraction logfile from 2. December 2015, 16:09
Various Artists / Ultimate Country: 4CDs of Great Country Music (Disc 2)
Used drive  : ASUS    BW-12D1S-U   Adapter: 1  ID: 1
Read mode               : Secure
Utilize accurate stream : Yes
Defeat audio cache      : Yes
Make use of C2 pointers : No
Read offset correction                      : 667
Overread into Lead-In and Lead-Out          : No
Fill up missing offset samples with silence : Yes
Delete leading and trailing silent blocks   : No
Null samples used in CRC calculations       : Yes
Used interface                              : Native Win32 interface for Win NT & 2000
Gap handling                                : Appended to previous track
Used output format              : User Defined Encoder
Selected bitrate                : 1024 kBit/s
Quality                         : High
Add ID3 tag                     : No
Command line compressor         : C:\Program Files (x86)\Kodeki za Glasbo\flac v1.3.1\win64\flac.exe
Additional command line options : -8 -V -T "ARTIST=%artist%" -T "TITLE=%title%" -T "ALBUM=%albumtitle%" -T "DATE=%year%" -T "TRACKNUMBER=%tracknr%" -T "TOTALTRACKS=%numtracks%" -T "GENRE=%genre%" -T "ALBUMARTIST=%albumartist%" -T "ALBUM ARTIST=%albumartist%" -T "COMMENT=EAC Secure Mode, Test & Copy, AccurateRip, FLAC -8" %source%
TOC of the extracted CD
     Track |   Start  |  Length  | Start sector | End sector
    ---------------------------------------------------------
        1  |  0:00.00 |  4:10.51 |         0    |    18800
        2  |  4:10.51 |  3:58.51 |     18801    |    36701
        3  |  8:09.27 |  3:21.60 |     36702    |    51836
        4  | 11:31.12 |  5:37.14 |     51837    |    77125
        5  | 17:08.26 |  4:15.00 |     77126    |    96250
        6  | 21:23.26 |  3:03.32 |     96251    |   110007
        7  | 24:26.58 |  2:32.67 |    110008    |   121474
        8  | 26:59.50 |  3:37.36 |    121475    |   137785
        9  | 30:37.11 |  2:37.26 |    137786    |   149586
       10  | 33:14.37 |  2:43.03 |    149587    |   161814
       11  | 35:57.40 |  4:21.64 |    161815    |   181453
       12  | 40:19.29 |  3:08.06 |    181454    |   195559
       13  | 43:27.35 |  3:32.66 |    195560    |   211525
       14  | 47:00.26 |  3:04.05 |    211526    |   225330
       15  | 50:04.31 |  2:48.37 |    225331    |   237967
       16  | 52:52.68 |  3:03.19 |    237968    |   251711
       17  | 55:56.12 |  3:01.41 |    251712    |   265327
       18  | 58:57.53 |  3:35.68 |    265328    |   281520
Track  1
     Filename K:\3. my rip in preparation\3 - in treatment\1\CD2\01 - Dolly Parton & Kenny Rogers - Islands in the Stream.wav
     Pre-gap length  0:00:02.00
     Peak level 98.7 %
     Extraction speed 4.1 X
     Track quality 99.9 %
     Test CRC 39D107AB
     Copy CRC 39D107AB
     Accurately ripped (confidence 1)  [98AF402A]  (AR v2)
     Copy OK
Track  2
     Filename K:\3. my rip in preparation\3 - in treatment\1\CD2\02 - Billy Swan - I Can Help.wav
     Pre-gap length  0:00:01.77
     Peak level 98.5 %
     Extraction speed 4.5 X
     Track quality 99.9 %
     Test CRC C1E097B2
     Copy CRC C1E097B2
     Accurately ripped (confidence 1)  [60B3CC5A]  (AR v2)
     Copy OK
Track  3
     Filename K:\3. my rip in preparation\3 - in treatment\1\CD2\03 - Brooks & Dunn - Ain't Nothing 'Bout You.wav
     Pre-gap length  0:00:01.77
     Peak level 98.6 %
     Extraction speed 5.2 X
     Track quality 100.0 %
     Test CRC 717FF060
     Copy CRC 717FF060
     Accurately ripped (confidence 1)  [85EA0525]  (AR v2)
     Copy OK
Track  4
     Filename K:\3. my rip in preparation\3 - in treatment\1\CD2\04 - Sara Evans - Born to Fly.wav
     Pre-gap length  0:00:01.77
     Peak level 99.7 %
     Extraction speed 6.0 X
     Track quality 100.0 %
     Test CRC 0A85F52D
     Copy CRC 0A85F52D
     Accurately ripped (confidence 1)  [A99BD91D]  (AR v2)
     Copy OK
Track  5
     Filename K:\3. my rip in preparation\3 - in treatment\1\CD2\05 - Kris Kristofferson - Me and Bobby McGee.wav
     Pre-gap length  0:00:01.77
     Peak level 99.7 %
     Extraction speed 6.2 X
     Track quality 100.0 %
     Test CRC 00B76578
     Copy CRC 00B76578
     Accurately ripped (confidence 1)  [14FAA173]  (AR v2)
     Copy OK
Track  6
     Filename K:\3. my rip in preparation\3 - in treatment\1\CD2\06 - The Highwaymen - Highwayman.wav
     Pre-gap length  0:00:01.77
     Peak level 99.7 %
     Extraction speed 6.2 X
     Track quality 100.0 %
     Test CRC E5048106
     Copy CRC E5048106
     Accurately ripped (confidence 1)  [6FDC73C1]  (AR v2)
     Copy OK
Track  7
     Filename K:\3. my rip in preparation\3 - in treatment\1\CD2\07 - Waylon Jennings & Willie Nelson - Mamma's Don't Let Your Babies Grow Up to Be Cowboys.wav
     Pre-gap length  0:00:01.77
     Peak level 99.7 %
     Extraction speed 6.3 X
     Track quality 100.0 %
     Test CRC FEB10F7C
     Copy CRC FEB10F7C
     Accurately ripped (confidence 1)  [39CF2168]  (AR v2)
     Copy OK
Track  8
     Filename K:\3. my rip in preparation\3 - in treatment\1\CD2\08 - Joe Diffie - Pickup Man.wav
     Pre-gap length  0:00:01.77
     Peak level 84.1 %
     Extraction speed 6.0 X
     Track quality 99.9 %
     Test CRC 3A986AEC
     Copy CRC 3A986AEC
     Accurately ripped (confidence 1)  [73157652]  (AR v2)
     Copy OK
Track  9
     Filename K:\3. my rip in preparation\3 - in treatment\1\CD2\09 - Johnny Paycheck - Take This Job and Shove It.wav
     Pre-gap length  0:00:01.77
     Peak level 98.5 %
     Extraction speed 5.6 X
     Track quality 99.9 %
     Test CRC E0BA20B6
     Copy CRC E0BA20B6
     Accurately ripped (confidence 1)  [192B280E]  (AR v2)
     Copy OK
Track 10
     Filename K:\3. my rip in preparation\3 - in treatment\1\CD2\10 - Clint Black - A Good Run of Bad Luck.wav
     Pre-gap length  0:00:01.77
     Peak level 98.7 %
     Extraction speed 6.8 X
     Track quality 100.0 %
     Test CRC 89A04F0F
     Copy CRC 89A04F0F
     Accurately ripped (confidence 1)  [516D33DB]  (AR v2)
     Copy OK
Track 11
     Filename K:\3. my rip in preparation\3 - in treatment\1\CD2\11 - Martina McBride - I Just Call You Mine.wav
     Pre-gap length  0:00:01.77
     Peak level 88.2 %
     Extraction speed 7.6 X
     Track quality 100.0 %
     Test CRC 62FD4971
     Copy CRC 62FD4971
     Accurately ripped (confidence 1)  [06411E72]  (AR v2)
     Copy OK
Track 12
     Filename K:\3. my rip in preparation\3 - in treatment\1\CD2\12 - Love and Theft - Angel Eyes.wav
     Pre-gap length  0:00:01.77
     Peak level 84.1 %
     Extraction speed 7.4 X
     Track quality 100.0 %
     Test CRC ADC41194
     Copy CRC ADC41194
     Accurately ripped (confidence 1)  [3FC52A29]  (AR v2)
     Copy OK
Track 13
     Filename K:\3. my rip in preparation\3 - in treatment\1\CD2\13 - Mary Chapin Carpenter - I Feel Lucky.wav
     Pre-gap length  0:00:01.77
     Peak level 99.7 %
     Extraction speed 7.7 X
     Track quality 100.0 %
     Test CRC C6293DED
     Copy CRC C6293DED
     Accurately ripped (confidence 1)  [D3D09512]  (AR v2)
     Copy OK
Track 14
     Filename K:\3. my rip in preparation\3 - in treatment\1\CD2\14 - Ricochet - Daddy's Money.wav
     Pre-gap length  0:00:01.77
     Peak level 99.7 %
     Extraction speed 7.7 X
     Track quality 100.0 %
     Test CRC 32057EF5
     Copy CRC 32057EF5
     Accurately ripped (confidence 1)  [ECF42BD0]  (AR v2)
     Copy OK
Track 15
     Filename K:\3. my rip in preparation\3 - in treatment\1\CD2\15 - Jake Owen - Barefoot Blue Jean Night.wav
     Pre-gap length  0:00:01.77
     Peak level 93.3 %
     Extraction speed 7.7 X
     Track quality 100.0 %
     Test CRC E277B8C1
     Copy CRC E277B8C1
     Accurately ripped (confidence 1)  [D54624D7]  (AR v2)
     Copy OK
Track 16
     Filename K:\3. my rip in preparation\3 - in treatment\1\CD2\16 - Patty Loveless - Here I Am.wav
     Pre-gap length  0:00:01.77
     Peak level 99.7 %
     Extraction speed 6.8 X
     Track quality 99.9 %
     Test CRC 17EA299C
     Copy CRC 17EA299C
     Accurately ripped (confidence 1)  [FEEED882]  (AR v2)
     Copy OK
Track 17
     Filename K:\3. my rip in preparation\3 - in treatment\1\CD2\17 - Merle Haggard - That's the Way Love Goes.wav
     Pre-gap length  0:00:01.77
     Peak level 99.7 %
     Extraction speed 8.0 X
     Track quality 100.0 %
     Test CRC B00A480C
     Copy CRC B00A480C
     Accurately ripped (confidence 1)  [FC4BB168]  (AR v2)
     Copy OK
Track 18
     Filename K:\3. my rip in preparation\3 - in treatment\1\CD2\18 - Earl Thomas Conley With Emmylou Harris - We Believe in Happy Endings.wav
     Pre-gap length  0:00:01.77
     Peak level 99.4 %
     Extraction speed 8.5 X
     Track quality 100.0 %
     Test CRC 8238F21E
     Copy CRC 8238F21E
     Accurately ripped (confidence 1)  [653324B1]  (AR v2)
     Copy OK
All tracks accurately ripped
No errors occurred
End of status report
---- CUETools DB Plugin V2.1.6
[CTDB TOCID: gCUcmHY84gz0SrzNP9gyVpTkegA-] found
Submit result: gCUcmHY84gz0SrzNP9gyVpTkegA- has been confirmed
Track | CTDB Status
  1   | (2/2) Accurately ripped
  2   | (2/2) Accurately ripped
  3   | (2/2) Accurately ripped
  4   | (2/2) Accurately ripped
  5   | (2/2) Accurately ripped
  6   | (2/2) Accurately ripped
  7   | (2/2) Accurately ripped
  8   | (2/2) Accurately ripped
  9   | (2/2) Accurately ripped
10   | (2/2) Accurately ripped
11   | (2/2) Accurately ripped
12   | (2/2) Accurately ripped
13   | (2/2) Accurately ripped
14   | (2/2) Accurately ripped
15   | (2/2) Accurately ripped
16   | (2/2) Accurately ripped
17   | (2/2) Accurately ripped
18   | (2/2) Accurately ripped

CD 3

Exact Audio Copy V1.1 from 23. June 2015
EAC extraction logfile from 2. December 2015, 18:11
Various Artists / Ultimate Country: 4CDs of Great Country Music (Disc 3)
Used drive  : ASUS    BW-12D1S-U   Adapter: 1  ID: 1
Read mode               : Secure
Utilize accurate stream : Yes
Defeat audio cache      : Yes
Make use of C2 pointers : No
Read offset correction                      : 667
Overread into Lead-In and Lead-Out          : No
Fill up missing offset samples with silence : Yes
Delete leading and trailing silent blocks   : No
Null samples used in CRC calculations       : Yes
Used interface                              : Native Win32 interface for Win NT & 2000
Gap handling                                : Appended to previous track
Used output format              : User Defined Encoder
Selected bitrate                : 1024 kBit/s
Quality                         : High
Add ID3 tag                     : No
Command line compressor         : C:\Program Files (x86)\Kodeki za Glasbo\flac v1.3.1\win64\flac.exe
Additional command line options : -8 -V -T "ARTIST=%artist%" -T "TITLE=%title%" -T "ALBUM=%albumtitle%" -T "DATE=%year%" -T "TRACKNUMBER=%tracknr%" -T "TOTALTRACKS=%numtracks%" -T "GENRE=%genre%" -T "ALBUMARTIST=%albumartist%" -T "ALBUM ARTIST=%albumartist%" -T "COMMENT=EAC Secure Mode, Test & Copy, AccurateRip, FLAC -8" %source%
TOC of the extracted CD
     Track |   Start  |  Length  | Start sector | End sector
    ---------------------------------------------------------
        1  |  0:00.00 |  4:01.39 |         0    |    18113
        2  |  4:01.39 |  3:15.65 |     18114    |    32803
        3  |  7:17.29 |  3:55.10 |     32804    |    50438
        4  | 11:12.39 |  2:40.49 |     50439    |    62487
        5  | 13:53.13 |  2:04.24 |     62488    |    71811
        6  | 15:57.37 |  3:33.72 |     71812    |    87858
        7  | 19:31.34 |  3:07.50 |     87859    |   101933
        8  | 22:39.09 |  2:24.46 |    101934    |   112779
        9  | 25:03.55 |  3:54.40 |    112780    |   130369
       10  | 28:58.20 |  4:05.61 |    130370    |   148805
       11  | 33:04.06 |  3:35.68 |    148806    |   164998
       12  | 36:39.74 |  3:45.00 |    164999    |   181873
       13  | 40:24.74 |  3:33.36 |    181874    |   197884
       14  | 43:58.35 |  4:32.46 |    197885    |   218330
       15  | 48:31.06 |  3:29.05 |    218331    |   234010
       16  | 52:00.11 |  3:39.34 |    234011    |   250469
       17  | 55:39.45 |  3:07.47 |    250470    |   264541
       18  | 58:47.17 |  2:06.01 |    264542    |   273992
Track  1
     Filename K:\3. my rip in preparation\3 - in treatment\1\CD3\01 - Lonestar - Amazed.wav
     Pre-gap length  0:00:02.00
     Peak level 99.0 %
     Extraction speed 4.5 X
     Track quality 100.0 %
     Test CRC 9BDEAC88
     Copy CRC 9BDEAC88
     Accurately ripped (confidence 1)  [4D40AA21]  (AR v2)
     Copy OK
Track  2
     Filename K:\3. my rip in preparation\3 - in treatment\1\CD3\02 - Rosanne Cash - Seven Year Ache.wav
     Pre-gap length  0:00:01.77
     Peak level 98.7 %
     Extraction speed 4.2 X
     Track quality 99.9 %
     Test CRC 941983DE
     Copy CRC 941983DE
     Accurately ripped (confidence 1)  [34C9E1EC]  (AR v2)
     Copy OK
Track  3
     Filename K:\3. my rip in preparation\3 - in treatment\1\CD3\03 - Phil Vassar - Just Another Day in Paradise.wav
     Pre-gap length  0:00:01.77
     Peak level 96.1 %
     Extraction speed 5.3 X
     Track quality 100.0 %
     Test CRC F42D341A
     Copy CRC F42D341A
     Accurately ripped (confidence 1)  [C42DDCEA]  (AR v2)
     Copy OK
Track  4
     Filename K:\3. my rip in preparation\3 - in treatment\1\CD3\04 - Restless Heart - You Can Depend on Me.wav
     Pre-gap length  0:00:01.77
     Peak level 99.7 %
     Extraction speed 4.5 X
     Track quality 99.9 %
     Test CRC 3794D914
     Copy CRC 3794D914
     Accurately ripped (confidence 1)  [98CA327B]  (AR v2)
     Copy OK
Track  5
     Filename K:\3. my rip in preparation\3 - in treatment\1\CD3\05 - Barbara Mandrell - Tonight My Baby's Coming Home.wav
     Pre-gap length  0:00:01.77
     Peak level 84.8 %
     Extraction speed 5.2 X
     Track quality 100.0 %
     Test CRC 59E66865
     Copy CRC 59E66865
     Accurately ripped (confidence 1)  [9DAE758E]  (AR v2)
     Copy OK
Track  6
     Filename K:\3. my rip in preparation\3 - in treatment\1\CD3\06 - Ty Herndon - It Must Be Love.wav
     Pre-gap length  0:00:01.77
     Peak level 98.6 %
     Extraction speed 6.0 X
     Track quality 100.0 %
     Test CRC 726F2DF9
     Copy CRC 726F2DF9
     Accurately ripped (confidence 1)  [17E107FF]  (AR v2)
     Copy OK
Track  7
     Filename K:\3. my rip in preparation\3 - in treatment\1\CD3\07 - Exile - Woke Up in Love.wav
     Pre-gap length  0:00:01.77
     Peak level 99.7 %
     Extraction speed 6.1 X
     Track quality 100.0 %
     Test CRC 0320B259
     Copy CRC 0320B259
     Accurately ripped (confidence 1)  [AF5C45F3]  (AR v2)
     Copy OK
Track  8
     Filename K:\3. my rip in preparation\3 - in treatment\1\CD3\08 - Tanya Tucker - Would You Lay With Me (In a Field of Stone).wav
     Pre-gap length  0:00:01.77
     Peak level 99.7 %
     Extraction speed 6.0 X
     Track quality 100.0 %
     Test CRC E1F7061F
     Copy CRC E1F7061F
     Accurately ripped (confidence 1)  [48BB77C7]  (AR v2)
     Copy OK
Track  9
     Filename K:\3. my rip in preparation\3 - in treatment\1\CD3\09 - Montgomery Gentry - Roll With Me.wav
     Pre-gap length  0:00:01.77
     Peak level 86.5 %
     Extraction speed 6.7 X
     Track quality 100.0 %
     Test CRC 92BA799D
     Copy CRC 92BA799D
     Accurately ripped (confidence 1)  [7AC0CB3D]  (AR v2)
     Copy OK
Track 10
     Filename K:\3. my rip in preparation\3 - in treatment\1\CD3\10 - Diamond Rio - How Your Love Makes Me Feel.wav
     Pre-gap length  0:00:01.77
     Peak level 98.8 %
     Extraction speed 7.1 X
     Track quality 100.0 %
     Test CRC F5B6553C
     Copy CRC F5B6553C
     Accurately ripped (confidence 1)  [EB1D29AA]  (AR v2)
     Copy OK
Track 11
     Filename K:\3. my rip in preparation\3 - in treatment\1\CD3\11 - Travis Tritt - Honky-Tonk History.wav
     Pre-gap length  0:00:01.77
     Peak level 74.1 %
     Extraction speed 7.3 X
     Track quality 100.0 %
     Test CRC CC43C0B8
     Copy CRC CC43C0B8
     Accurately ripped (confidence 1)  [AD440814]  (AR v2)
     Copy OK
Track 12
     Filename K:\3. my rip in preparation\3 - in treatment\1\CD3\12 - Alabama - Roll On (Eighteen Wheeler).wav
     Pre-gap length  0:00:01.77
     Peak level 99.7 %
     Extraction speed 7.4 X
     Track quality 100.0 %
     Test CRC F73A79F3
     Copy CRC F73A79F3
     Accurately ripped (confidence 1)  [1A47255F]  (AR v2)
     Copy OK
Track 13
     Filename K:\3. my rip in preparation\3 - in treatment\1\CD3\13 - Don Williams - I've Been Loved by the Best.wav
     Pre-gap length  0:00:01.77
     Peak level 99.4 %
     Extraction speed 6.7 X
     Track quality 99.9 %
     Test CRC 28137704
     Copy CRC 28137704
     Accurately ripped (confidence 1)  [31469918]  (AR v2)
     Copy OK
Track 14
     Filename K:\3. my rip in preparation\3 - in treatment\1\CD3\14 - Lari White - Now I Know.wav
     Pre-gap length  0:00:01.77
     Peak level 98.9 %
     Extraction speed 8.0 X
     Track quality 100.0 %
     Test CRC 2225BFC7
     Copy CRC 2225BFC7
     Accurately ripped (confidence 1)  [414D4D72]  (AR v2)
     Copy OK
Track 15
     Filename K:\3. my rip in preparation\3 - in treatment\1\CD3\15 - Doug Stone - A Jukebox With a Country Song.wav
     Pre-gap length  0:00:01.77
     Peak level 99.7 %
     Extraction speed 8.0 X
     Track quality 100.0 %
     Test CRC 42A8ED78
     Copy CRC 42A8ED78
     Accurately ripped (confidence 1)  [C2DA925C]  (AR v2)
     Copy OK
Track 16
     Filename K:\3. my rip in preparation\3 - in treatment\1\CD3\16 - Chris Young - Tomorrow.wav
     Pre-gap length  0:00:01.77
     Peak level 98.0 %
     Extraction speed 7.2 X
     Track quality 99.9 %
     Test CRC 14B1D62A
     Copy CRC 14B1D62A
     Accurately ripped (confidence 1)  [C71699D2]  (AR v2)
     Copy OK
Track 17
     Filename K:\3. my rip in preparation\3 - in treatment\1\CD3\17 - Ricky Van Shelton - I'll Leave This World Loving You.wav
     Pre-gap length  0:00:01.77
     Peak level 99.7 %
     Extraction speed 8.1 X
     Track quality 100.0 %
     Test CRC D23552FF
     Copy CRC D23552FF
     Accurately ripped (confidence 1)  [C02640D3]  (AR v2)
     Copy OK
Track 18
     Filename K:\3. my rip in preparation\3 - in treatment\1\CD3\18 - Elvis Presley - Snowbird.wav
     Pre-gap length  0:00:01.77
     Peak level 99.7 %
     Extraction speed 7.6 X
     Track quality 100.0 %
     Test CRC 65447FD8
     Copy CRC 65447FD8
     Accurately ripped (confidence 1)  [029F7BCE]  (AR v2)
     Copy OK
All tracks accurately ripped
No errors occurred
End of status report
---- CUETools DB Plugin V2.1.6
[CTDB TOCID: UuoE6HCJsaaaVHLxDAO1aaXM40Y-] found
Submit result: UuoE6HCJsaaaVHLxDAO1aaXM40Y- has been confirmed
Track | CTDB Status
  1   | (1/1) Accurately ripped
  2   | (1/1) Accurately ripped
  3   | (1/1) Accurately ripped
  4   | (1/1) Accurately ripped
  5   | (1/1) Accurately ripped
  6   | (1/1) Accurately ripped
  7   | (1/1) Accurately ripped
  8   | (1/1) Accurately ripped
  9   | (1/1) Accurately ripped
10   | (1/1) Accurately ripped
11   | (1/1) Accurately ripped
12   | (1/1) Accurately ripped
13   | (1/1) Accurately ripped
14   | (1/1) Accurately ripped
15   | (1/1) Accurately ripped
16   | (1/1) Accurately ripped
17   | (1/1) Accurately ripped
18   | (1/1) Accurately ripped

CD 4

Exact Audio Copy V1.1 from 23. June 2015
EAC extraction logfile from 3. December 2015, 14:02
Various Artists / Ultimate Country: 4CDs of Great Country Music (Disc 4)
Used drive  : ASUS    BW-12D1S-U   Adapter: 1  ID: 1
Read mode               : Secure
Utilize accurate stream : Yes
Defeat audio cache      : Yes
Make use of C2 pointers : No
Read offset correction                      : 667
Overread into Lead-In and Lead-Out          : No
Fill up missing offset samples with silence : Yes
Delete leading and trailing silent blocks   : No
Null samples used in CRC calculations       : Yes
Used interface                              : Native Win32 interface for Win NT & 2000
Gap handling                                : Appended to previous track
Used output format              : User Defined Encoder
Selected bitrate                : 1024 kBit/s
Quality                         : High
Add ID3 tag                     : No
Command line compressor         : C:\Program Files (x86)\Kodeki za Glasbo\flac v1.3.1\win64\flac.exe
Additional command line options : -8 -V -T "ARTIST=%artist%" -T "TITLE=%title%" -T "ALBUM=%albumtitle%" -T "DATE=%year%" -T "TRACKNUMBER=%tracknr%" -T "TOTALTRACKS=%numtracks%" -T "GENRE=%genre%" -T "ALBUMARTIST=%albumartist%" -T "ALBUM ARTIST=%albumartist%" -T "COMMENT=EAC Secure Mode, Test & Copy, AccurateRip, FLAC -8" %source%
TOC of the extracted CD
     Track |   Start  |  Length  | Start sector | End sector
    ---------------------------------------------------------
        1  |  0:00.00 |  2:34.62 |         0    |    11611
        2  |  2:34.62 |  2:37.36 |     11612    |    23422
        3  |  5:12.23 |  3:03.07 |     23423    |    37154
        4  |  8:15.30 |  2:55.73 |     37155    |    50352
        5  | 11:11.28 |  3:57.48 |     50353    |    68175
        6  | 15:09.01 |  2:30.04 |     68176    |    79429
        7  | 17:39.05 |  2:13.58 |     79430    |    89462
        8  | 19:52.63 |  2:38.68 |     89463    |   101380
        9  | 22:31.56 |  2:49.08 |    101381    |   114063
       10  | 25:20.64 |  2:19.53 |    114064    |   124541
       11  | 27:40.42 |  3:27.28 |    124542    |   140094
       12  | 31:07.70 |  2:39.24 |    140095    |   152043
       13  | 33:47.19 |  2:02.30 |    152044    |   161223
       14  | 35:49.49 |  2:47.44 |    161224    |   173792
       15  | 38:37.18 |  2:51.15 |    173793    |   186632
       16  | 41:28.33 |  2:03.42 |    186633    |   195899
       17  | 43:32.00 |  2:07.32 |    195900    |   205456
       18  | 45:39.32 |  2:36.26 |    205457    |   217182
Track  1
     Filename K:\3. my rip in preparation\3 - in treatment\1\CD4\01 - Jim Reeves - Welcome to My World.wav
     Pre-gap length  0:00:02.00
     Peak level 99.7 %
     Extraction speed 4.1 X
     Track quality 100.0 %
     Test CRC BB402371
     Copy CRC BB402371
     Accurately ripped (confidence 1)  [8404139E]  (AR v2)
     Copy OK
Track  2
     Filename K:\3. my rip in preparation\3 - in treatment\1\CD4\02 - Skeeter Davis - The End of the World.wav
     Pre-gap length  0:00:01.77
     Peak level 97.5 %
     Extraction speed 4.4 X
     Track quality 100.0 %
     Test CRC AE0A38BB
     Copy CRC AE0A38BB
     Accurately ripped (confidence 1)  [BAC160AE]  (AR v2)
     Copy OK
Track  3
     Filename K:\3. my rip in preparation\3 - in treatment\1\CD4\03 - Mac Davis - Baby Don't Get Hooked on Me.wav
     Pre-gap length  0:00:01.77
     Peak level 87.7 %
     Extraction speed 4.8 X
     Track quality 100.0 %
     Test CRC 352E49E5
     Copy CRC 352E49E5
     Accurately ripped (confidence 1)  [287E72D6]  (AR v2)
     Copy OK
Track  4
     Filename K:\3. my rip in preparation\3 - in treatment\1\CD4\04 - Lynn Anderson - (I Never Promised You a) Rose Garden.wav
     Pre-gap length  0:00:01.77
     Peak level 98.5 %
     Extraction speed 4.4 X
     Track quality 99.9 %
     Test CRC C4326F16
     Copy CRC C4326F16
     Accurately ripped (confidence 1)  [B81D055B]  (AR v2)
     Copy OK
Track  5
     Filename K:\3. my rip in preparation\3 - in treatment\1\CD4\05 - Marty Robbins - Big Iron.wav
     Pre-gap length  0:00:01.77
     Peak level 92.1 %
     Extraction speed 5.7 X
     Track quality 100.0 %
     Test CRC 90E72007
     Copy CRC 90E72007
     Accurately ripped (confidence 1)  [47BB33D2]  (AR v2)
     Copy OK
Track  6
     Filename K:\3. my rip in preparation\3 - in treatment\1\CD4\06 - Don Gibson - Oh, Lonesome Me.wav
     Pre-gap length  0:00:01.77
     Peak level 87.9 %
     Extraction speed 4.6 X
     Track quality 99.9 %
     Test CRC D0243788
     Copy CRC D0243788
     Accurately ripped (confidence 1)  [BAC31199]  (AR v2)
     Copy OK
Track  7
     Filename K:\3. my rip in preparation\3 - in treatment\1\CD4\07 - George Hamilton IV - Abilene.wav
     Pre-gap length  0:00:01.77
     Peak level 98.4 %
     Extraction speed 4.6 X
     Track quality 99.9 %
     Test CRC 7376A47E
     Copy CRC 7376A47E
     Accurately ripped (confidence 1)  [BA163D39]  (AR v2)
     Copy OK
Track  8
     Filename K:\3. my rip in preparation\3 - in treatment\1\CD4\08 - Bobby Bare - The Streets of Baltimore.wav
     Pre-gap length  0:00:01.77
     Peak level 98.4 %
     Extraction speed 5.9 X
     Track quality 100.0 %
     Test CRC 8FBD6B34
     Copy CRC 8FBD6B34
     Accurately ripped (confidence 1)  [7CEADDCC]  (AR v2)
     Copy OK
Track  9
     Filename K:\3. my rip in preparation\3 - in treatment\1\CD4\09 - George Jones - She Thinks I Still Care.wav
     Pre-gap length  0:00:01.77
     Peak level 98.7 %
     Extraction speed 6.2 X
     Track quality 100.0 %
     Test CRC 72D87044
     Copy CRC 72D87044
     Accurately ripped (confidence 1)  [B0B49F9F]  (AR v2)
     Copy OK
Track 10
     Filename K:\3. my rip in preparation\3 - in treatment\1\CD4\10 - Connie Smith - Once a Day.wav
     Pre-gap length  0:00:01.77
     Peak level 99.7 %
     Extraction speed 6.2 X
     Track quality 100.0 %
     Test CRC 9011873F
     Copy CRC 9011873F
     Accurately ripped (confidence 1)  [0810F124]  (AR v2)
     Copy OK
Track 11
     Filename K:\3. my rip in preparation\3 - in treatment\1\CD4\11 - B.J. Thomas - Whatever Happened to Old Fashioned Love.wav
     Pre-gap length  0:00:01.77
     Peak level 98.4 %
     Extraction speed 6.8 X
     Track quality 100.0 %
     Test CRC 09B10CF6
     Copy CRC 09B10CF6
     Accurately ripped (confidence 1)  [4E45E231]  (AR v2)
     Copy OK
Track 12
     Filename K:\3. my rip in preparation\3 - in treatment\1\CD4\12 - Eddy Arnold - Make the World Go Away.wav
     Pre-gap length  0:00:01.77
     Peak level 98.4 %
     Extraction speed 6.7 X
     Track quality 100.0 %
     Test CRC 78DE8A11
     Copy CRC 78DE8A11
     Accurately ripped (confidence 1)  [1B9DF5AE]  (AR v2)
     Copy OK
Track 13
     Filename K:\3. my rip in preparation\3 - in treatment\1\CD4\13 - Charley Pride - Kiss an Angel Good Mornin'.wav
     Pre-gap length  0:00:01.77
     Peak level 98.4 %
     Extraction speed 6.4 X
     Track quality 100.0 %
     Test CRC 0BF9C6D0
     Copy CRC 0BF9C6D0
     Accurately ripped (confidence 1)  [35EDC49F]  (AR v2)
     Copy OK
Track 14
     Filename K:\3. my rip in preparation\3 - in treatment\1\CD4\14 - Porter Wagoner - A Satisfied Mind.wav
     Pre-gap length  0:00:01.77
     Peak level 99.7 %
     Extraction speed 7.0 X
     Track quality 100.0 %
     Test CRC B45DD70E
     Copy CRC B45DD70E
     Accurately ripped (confidence 1)  [82DC918F]  (AR v2)
     Copy OK
Track 15
     Filename K:\3. my rip in preparation\3 - in treatment\1\CD4\15 - The Browns - The Three Bells.wav
     Pre-gap length  0:00:01.77
     Peak level 99.7 %
     Extraction speed 7.2 X
     Track quality 100.0 %
     Test CRC 651A2DAC
     Copy CRC 651A2DAC
     Accurately ripped (confidence 1)  [FD195B9E]  (AR v2)
     Copy OK
Track 16
     Filename K:\3. my rip in preparation\3 - in treatment\1\CD4\16 - Lester Flatt & Earl Scruggs With The Foggy Mountain Boys - The Ballad of Jed Clampett.wav
     Pre-gap length  0:00:01.77
     Peak level 99.7 %
     Extraction speed 6.7 X
     Track quality 100.0 %
     Test CRC A2EC0E3F
     Copy CRC A2EC0E3F
     Accurately ripped (confidence 1)  [92E266AB]  (AR v2)
     Copy OK
Track 17
     Filename K:\3. my rip in preparation\3 - in treatment\1\CD4\17 - Waylon Jennings - Theme From 'The Dukes of Hazzard' (Good Ol' Boys).wav
     Pre-gap length  0:00:01.77
     Peak level 98.9 %
     Extraction speed 6.9 X
     Track quality 100.0 %
     Test CRC 1A1EFE52
     Copy CRC 1A1EFE52
     Accurately ripped (confidence 1)  [807A62C6]  (AR v2)
     Copy OK
Track 18
     Filename K:\3. my rip in preparation\3 - in treatment\1\CD4\18 - Roy Rogers and The Sons of the Pioneers - Stampede.wav
     Pre-gap length  0:00:01.77
     Peak level 99.7 %
     Extraction speed 7.3 X
     Track quality 100.0 %
     Test CRC D2084BA3
     Copy CRC D2084BA3
     Accurately ripped (confidence 1)  [D34C395B]  (AR v2)
     Copy OK
All tracks accurately ripped
No errors occurred
End of status report
---- CUETools DB Plugin V2.1.6
[CTDB TOCID: 7Py6ATKFo7n81cI8JVyE6ZZyNWM-] found
Submit result: already submitted
Track | CTDB Status
  1   | (3/3) Accurately ripped
  2   | (3/3) Accurately ripped
  3   | (3/3) Accurately ripped
  4   | (3/3) Accurately ripped
  5   | (3/3) Accurately ripped
  6   | (3/3) Accurately ripped
  7   | (3/3) Accurately ripped
  8   | (3/3) Accurately ripped
  9   | (3/3) Accurately ripped
10   | (3/3) Accurately ripped
11   | (3/3) Accurately ripped
12   | (3/3) Accurately ripped
13   | (3/3) Accurately ripped
14   | (3/3) Accurately ripped
15   | (3/3) Accurately ripped
16   | (3/3) Accurately ripped
17   | (3/3) Accurately ripped
18   | (3/3) Accurately ripped

Индексная карта (non-compilant .cue)

CD 1

REM GENRE Country
REM DATE 2015
REM DISCID F30D8E12
REM COMMENT "ExactAudioCopy v1.1"
CATALOG 0888750855626
PERFORMER "Various Artists"
TITLE "Ultimate Country: 4CDs of Great Country Music (Disc 1)"
FILE "01 - Alan Jackson duet With Jimmy Buffett - It's Five O'Clock Somewhere.wav" WAVE
  TRACK 01 AUDIO
    TITLE "It's Five O'Clock Somewhere"
    PERFORMER "Alan Jackson duet With Jimmy Buffett"
    ISRC USAN20300025
    INDEX 01 00:00:00
  TRACK 02 AUDIO
    TITLE "Gunpowder & Lead"
    PERFORMER "Miranda Lambert"
    ISRC USSM10605626
    INDEX 00 03:49:69
FILE "02 - Miranda Lambert - Gunpowder & Lead.wav" WAVE
    INDEX 01 00:00:00
  TRACK 03 AUDIO
    TITLE "This Is Country Music"
    PERFORMER "Brad Paisley"
    ISRC USAN21000129
    INDEX 00 03:08:69
FILE "03 - Brad Paisley - This Is Country Music.wav" WAVE
    INDEX 01 00:00:00
  TRACK 04 AUDIO
    TITLE "On the Road Again"
    PERFORMER "Willie Nelson"
    ISRC USSM10105948
    INDEX 00 05:11:27
FILE "04 - Willie Nelson - On the Road Again.wav" WAVE
    INDEX 01 00:00:00
  TRACK 05 AUDIO
    TITLE "Ring of Fire"
    PERFORMER "Johnny Cash"
    ISRC USSM16301296
    INDEX 00 02:31:07
FILE "05 - Johnny Cash - Ring of Fire.wav" WAVE
    INDEX 01 00:00:00
  TRACK 06 AUDIO
    TITLE "Jolene"
    PERFORMER "Dolly Parton"
    ISRC USRN19600096
    INDEX 00 02:35:48
FILE "06 - Dolly Parton - Jolene.wav" WAVE
    INDEX 01 00:00:00
  TRACK 07 AUDIO
    TITLE "Crazy 'Bout You Baby"
    PERFORMER "Billy Ray Cyrus"
    ISRC USSM10011381
    INDEX 00 02:39:29
FILE "07 - Billy Ray Cyrus - Crazy 'Bout You Baby.wav" WAVE
    INDEX 01 00:00:00
  TRACK 08 AUDIO
    TITLE "Hell on Heels"
    PERFORMER "Pistol Annies"
    ISRC USG4X1100032
    INDEX 00 03:19:67
FILE "08 - Pistol Annies - Hell on Heels.wav" WAVE
    INDEX 01 00:00:00
  TRACK 09 AUDIO
    TITLE "California Girls"
    PERFORMER "Gretchen Wilson"
    ISRC USSM10504499
    INDEX 00 03:15:06
FILE "09 - Gretchen Wilson - California Girls.wav" WAVE
    INDEX 01 00:00:00
  TRACK 10 AUDIO
    TITLE "Flowers on the Wall"
    PERFORMER "The Statler Brothers"
    ISRC USSM19927115
    INDEX 00 02:48:18
FILE "10 - The Statler Brothers - Flowers on the Wall.wav" WAVE
    INDEX 01 00:00:00
  TRACK 11 AUDIO
    TITLE "Country Boy"
    PERFORMER "Ricky Skaggs"
    ISRC USSM18400103
    INDEX 00 02:18:51
FILE "11 - Ricky Skaggs - Country Boy.wav" WAVE
    INDEX 01 00:00:00
  TRACK 12 AUDIO
    TITLE "The Devil Went Down to Georgia"
    PERFORMER "Charlie Daniels"
    ISRC USSM10008560
    INDEX 00 03:48:36
FILE "12 - Charlie Daniels - The Devil Went Down to Georgia.wav" WAVE
    INDEX 01 00:00:00
  TRACK 13 AUDIO
    TITLE "Yakety Axe"
    PERFORMER "Chet Atkins & Mark Knopfler"
    ISRC USSM19907518
    INDEX 00 03:33:68
FILE "13 - Chet Atkins & Mark Knopfler - Yakety Axe.wav" WAVE
    INDEX 01 00:00:00
  TRACK 14 AUDIO
    TITLE "Take Me Home, Country Roads"
    PERFORMER "John Denver"
    ISRC USRC10400931
    INDEX 00 03:23:64
FILE "14 - John Denver - Take Me Home, Country Roads.wav" WAVE
    INDEX 01 00:00:00
  TRACK 15 AUDIO
    TITLE "The Most Beautiful Girl"
    PERFORMER "Charlie Rich"
    ISRC USSM19928824
    INDEX 00 03:09:36
FILE "15 - Charlie Rich - The Most Beautiful Girl.wav" WAVE
    INDEX 01 00:00:00
  TRACK 16 AUDIO
    TITLE "Stand by Your Man"
    PERFORMER "Tammy Wynette"
    ISRC USSM16800349
    INDEX 00 02:38:30
FILE "16 - Tammy Wynette - Stand by Your Man.wav" WAVE
    INDEX 01 00:00:00
  TRACK 17 AUDIO
    TITLE "Golden Ring"
    PERFORMER "George Jones & Tammy Wynette"
    ISRC USSM19903509
    INDEX 00 02:37:01
FILE "17 - George Jones & Tammy Wynette - Golden Ring.wav" WAVE
    INDEX 01 00:00:00
  TRACK 18 AUDIO
    TITLE "Living Next Door to Alice"
    PERFORMER "Smokie"
    ISRC DEA817600021
    INDEX 00 03:02:27
FILE "18 - Smokie - Living Next Door to Alice.wav" WAVE
    INDEX 01 00:00:00

CD 2

REM GENRE Country/Pop
REM DATE 2015
REM DISCID 030EA912
REM COMMENT "ExactAudioCopy v1.1"
CATALOG 0888750855626
PERFORMER "Various Artists"
TITLE "Ultimate Country: 4CDs of Great Country Music (Disc 2)"
FILE "01 - Dolly Parton & Kenny Rogers - Islands in the Stream.wav" WAVE
  TRACK 01 AUDIO
    TITLE "Islands in the Stream"
    PERFORMER "Dolly Parton & Kenny Rogers"
    ISRC USRN19400390
    INDEX 01 00:00:00
  TRACK 02 AUDIO
    TITLE "I Can Help"
    PERFORMER "Billy Swan"
    ISRC USSM17400106
    INDEX 00 04:08:68
FILE "02 - Billy Swan - I Can Help.wav" WAVE
    INDEX 01 00:00:00
  TRACK 03 AUDIO
    TITLE "Ain't Nothing 'Bout You"
    PERFORMER "Brooks & Dunn"
    ISRC USAN20000251
    INDEX 00 03:56:68
FILE "03 - Brooks & Dunn - Ain't Nothing 'Bout You.wav" WAVE
    INDEX 01 00:00:00
  TRACK 04 AUDIO
    TITLE "Born to Fly"
    PERFORMER "Sara Evans"
    ISRC USRN10000133
    INDEX 00 03:20:02
FILE "04 - Sara Evans - Born to Fly.wav" WAVE
    INDEX 01 00:00:00
  TRACK 05 AUDIO
    TITLE "Me and Bobby McGee"
    PERFORMER "Kris Kristofferson"
    ISRC USSM17101266
    INDEX 00 05:35:31
FILE "05 - Kris Kristofferson - Me and Bobby McGee.wav" WAVE
    INDEX 01 00:00:00
  TRACK 06 AUDIO
    TITLE "Highwayman"
    PERFORMER "The Highwaymen"
    ISRC USSM19904362
    INDEX 00 04:13:17
FILE "06 - The Highwaymen - Highwayman.wav" WAVE
    INDEX 01 00:00:00
  TRACK 07 AUDIO
    TITLE "Mamma's Don't Let Your Babies Grow Up to Be Cowboys"
    PERFORMER "Waylon Jennings & Willie Nelson"
    ISRC USRN10000382
    INDEX 00 03:01:49
FILE "07 - Waylon Jennings & Willie Nelson - Mamma's Don't Let Your Babies Grow Up to Be Cowboys.wav" WAVE
    INDEX 01 00:00:00
  TRACK 08 AUDIO
    TITLE "Pickup Man"
    PERFORMER "Joe Diffie"
    ISRC USSM19401995
    INDEX 00 02:31:09
FILE "08 - Joe Diffie - Pickup Man.wav" WAVE
    INDEX 01 00:00:00
  TRACK 09 AUDIO
    TITLE "Take This Job and Shove It"
    PERFORMER "Johnny Paycheck"
    ISRC USSM17700228
    INDEX 00 03:35:53
FILE "09 - Johnny Paycheck - Take This Job and Shove It.wav" WAVE
    INDEX 01 00:00:00
  TRACK 10 AUDIO
    TITLE "A Good Run of Bad Luck"
    PERFORMER "Clint Black"
    ISRC USRN19400066
    INDEX 00 02:35:43
FILE "10 - Clint Black - A Good Run of Bad Luck.wav" WAVE
    INDEX 01 00:00:00
  TRACK 11 AUDIO
    TITLE "I Just Call You Mine"
    PERFORMER "Martina McBride"
    ISRC USRN10800460
    INDEX 00 02:41:20
FILE "11 - Martina McBride - I Just Call You Mine.wav" WAVE
    INDEX 01 00:00:00
  TRACK 12 AUDIO
    TITLE "Angel Eyes"
    PERFORMER "Love and Theft"
    ISRC USRN11100128
    INDEX 00 04:20:06
FILE "12 - Love and Theft - Angel Eyes.wav" WAVE
    INDEX 01 00:00:00
  TRACK 13 AUDIO
    TITLE "I Feel Lucky"
    PERFORMER "Mary Chapin Carpenter"
    ISRC USSM19200392
    INDEX 00 03:06:23
FILE "13 - Mary Chapin Carpenter - I Feel Lucky.wav" WAVE
    INDEX 01 00:00:00
  TRACK 14 AUDIO
    TITLE "Daddy's Money"
    PERFORMER "Ricochet"
    ISRC USSM19501566
    INDEX 00 03:31:08
FILE "14 - Ricochet - Daddy's Money.wav" WAVE
    INDEX 01 00:00:00
  TRACK 15 AUDIO
    TITLE "Barefoot Blue Jean Night"
    PERFORMER "Jake Owen"
    ISRC USRN11100006
    INDEX 00 03:02:22
FILE "15 - Jake Owen - Barefoot Blue Jean Night.wav" WAVE
    INDEX 01 00:00:00
  TRACK 16 AUDIO
    TITLE "Here I Am"
    PERFORMER "Patty Loveless"
    ISRC USSM19400437
    INDEX 00 02:46:54
FILE "16 - Patty Loveless - Here I Am.wav" WAVE
    INDEX 01 00:00:00
  TRACK 17 AUDIO
    TITLE "That's the Way Love Goes"
    PERFORMER "Merle Haggard"
    ISRC USSM19905516
    INDEX 00 03:01:36
FILE "17 - Merle Haggard - That's the Way Love Goes.wav" WAVE
    INDEX 01 00:00:00
  TRACK 18 AUDIO
    TITLE "We Believe in Happy Endings"
    PERFORMER "Earl Thomas Conley With Emmylou Harris"
    INDEX 00 02:59:58
FILE "18 - Earl Thomas Conley With Emmylou Harris - We Believe in Happy Endings.wav" WAVE
    INDEX 01 00:00:00

CD 3

REM GENRE Country/Pop
REM DATE 2015
REM DISCID ED0E4512
REM COMMENT "ExactAudioCopy v1.1"
CATALOG 0888750855626
PERFORMER "Various Artists"
TITLE "Ultimate Country: 4CDs of Great Country Music (Disc 3)"
FILE "01 - Lonestar - Amazed.wav" WAVE
  TRACK 01 AUDIO
    TITLE "Amazed"
    PERFORMER "Lonestar"
    ISRC USBN19800111
    INDEX 01 00:00:00
  TRACK 02 AUDIO
    TITLE "Seven Year Ache"
    PERFORMER "Rosanne Cash"
    ISRC USSM18000605
    INDEX 00 03:59:56
FILE "02 - Rosanne Cash - Seven Year Ache.wav" WAVE
    INDEX 01 00:00:00
  TRACK 03 AUDIO
    TITLE "Just Another Day in Paradise"
    PERFORMER "Phil Vassar"
    ISRC USAN29900118
    INDEX 00 03:14:07
FILE "03 - Phil Vassar - Just Another Day in Paradise.wav" WAVE
    INDEX 01 00:00:00
  TRACK 04 AUDIO
    TITLE "You Can Depend on Me"
    PERFORMER "Restless Heart"
    ISRC USRN19100001
    INDEX 00 03:53:27
FILE "04 - Restless Heart - You Can Depend on Me.wav" WAVE
    INDEX 01 00:00:00
  TRACK 05 AUDIO
    TITLE "Tonight My Baby's Coming Home"
    PERFORMER "Barbara Mandrell"
    ISRC USSM17100170
    INDEX 00 02:38:66
FILE "05 - Barbara Mandrell - Tonight My Baby's Coming Home.wav" WAVE
    INDEX 01 00:00:00
  TRACK 06 AUDIO
    TITLE "It Must Be Love"
    PERFORMER "Ty Herndon"
    ISRC USSM19704076
    INDEX 00 02:02:41
FILE "06 - Ty Herndon - It Must Be Love.wav" WAVE
    INDEX 01 00:00:00
  TRACK 07 AUDIO
    TITLE "Woke Up in Love"
    PERFORMER "Exile"
    ISRC USSM18300536
    INDEX 00 03:32:14
FILE "07 - Exile - Woke Up in Love.wav" WAVE
    INDEX 01 00:00:00
  TRACK 08 AUDIO
    TITLE "Would You Lay With Me (In a Field of Stone)"
    PERFORMER "Tanya Tucker"
    ISRC USSM17300422
    INDEX 00 03:05:67
FILE "08 - Tanya Tucker - Would You Lay With Me (In a Field of Stone).wav" WAVE
    INDEX 01 00:00:00
  TRACK 09 AUDIO
    TITLE "Roll With Me"
    PERFORMER "Montgomery Gentry"
    ISRC USG4X0800038
    INDEX 00 02:22:63
FILE "09 - Montgomery Gentry - Roll With Me.wav" WAVE
    INDEX 01 00:00:00
  TRACK 10 AUDIO
    TITLE "How Your Love Makes Me Feel"
    PERFORMER "Diamond Rio"
    ISRC USAN29700091
    INDEX 00 03:52:57
FILE "10 - Diamond Rio - How Your Love Makes Me Feel.wav" WAVE
    INDEX 01 00:00:00
  TRACK 11 AUDIO
    TITLE "Honky-Tonk History"
    PERFORMER "Travis Tritt"
    ISRC USSM10406709
    INDEX 00 04:04:03
FILE "11 - Travis Tritt - Honky-Tonk History.wav" WAVE
    INDEX 01 00:00:00
  TRACK 12 AUDIO
    TITLE "Roll On (Eighteen Wheeler)"
    PERFORMER "Alabama"
    ISRC USRN18300002
    INDEX 00 03:34:10
FILE "12 - Alabama - Roll On (Eighteen Wheeler).wav" WAVE
    INDEX 01 00:00:00
  TRACK 13 AUDIO
    TITLE "I've Been Loved by the Best"
    PERFORMER "Don Williams"
    ISRC USRN19500103
    INDEX 00 03:43:17
FILE "13 - Don Williams - I've Been Loved by the Best.wav" WAVE
    INDEX 01 00:00:00
  TRACK 14 AUDIO
    TITLE "Now I Know"
    PERFORMER "Lari White"
    ISRC USRN19400089
    INDEX 00 03:31:53
FILE "14 - Lari White - Now I Know.wav" WAVE
    INDEX 01 00:00:00
  TRACK 15 AUDIO
    TITLE "A Jukebox With a Country Song"
    PERFORMER "Doug Stone"
    ISRC USSM19100087
    INDEX 00 04:30:63
FILE "15 - Doug Stone - A Jukebox With a Country Song.wav" WAVE
    INDEX 01 00:00:00
  TRACK 16 AUDIO
    TITLE "Tomorrow"
    PERFORMER "Chris Young"
    ISRC USRN11000086
    INDEX 00 03:27:22
FILE "16 - Chris Young - Tomorrow.wav" WAVE
    INDEX 01 00:00:00
  TRACK 17 AUDIO
    TITLE "I'll Leave This World Loving You"
    PERFORMER "Ricky Van Shelton"
    INDEX 00 03:37:51
FILE "17 - Ricky Van Shelton - I'll Leave This World Loving You.wav" WAVE
    INDEX 01 00:00:00
  TRACK 18 AUDIO
    TITLE "Snowbird"
    PERFORMER "Elvis Presley"
    ISRC USRC17007866
    INDEX 00 03:05:64
FILE "18 - Elvis Presley - Snowbird.wav" WAVE
    INDEX 01 00:00:00

CD 4

REM GENRE Country/Pop
REM DATE 2015
REM DISCID E80B4F12
REM COMMENT "ExactAudioCopy v1.1"
CATALOG 0888750855626
PERFORMER "Various Artists"
TITLE "Ultimate Country: 4CDs of Great Country Music (Disc 4)"
FILE "01 - Jim Reeves - Welcome to My World.wav" WAVE
  TRACK 01 AUDIO
    TITLE "Welcome to My World"
    PERFORMER "Jim Reeves"
    ISRC USRN19500181
    INDEX 01 00:00:00
  TRACK 02 AUDIO
    TITLE "The End of the World"
    PERFORMER "Skeeter Davis"
    ISRC USRN10100512
    INDEX 00 02:33:04
FILE "02 - Skeeter Davis - The End of the World.wav" WAVE
    INDEX 01 00:00:00
  TRACK 03 AUDIO
    TITLE "Baby Don't Get Hooked on Me"
    PERFORMER "Mac Davis"
    ISRC USSM19920756
    INDEX 00 02:35:53
FILE "03 - Mac Davis - Baby Don't Get Hooked on Me.wav" WAVE
    INDEX 01 00:00:00
  TRACK 04 AUDIO
    TITLE "(I Never Promised You a) Rose Garden"
    PERFORMER "Lynn Anderson"
    ISRC USSM17000131
    INDEX 00 03:01:24
FILE "04 - Lynn Anderson - (I Never Promised You a) Rose Garden.wav" WAVE
    INDEX 01 00:00:00
  TRACK 05 AUDIO
    TITLE "Big Iron"
    PERFORMER "Marty Robbins"
    ISRC USSM15901193
    INDEX 00 02:54:15
FILE "05 - Marty Robbins - Big Iron.wav" WAVE
    INDEX 01 00:00:00
  TRACK 06 AUDIO
    TITLE "Oh, Lonesome Me"
    PERFORMER "Don Gibson"
    ISRC USRN10200036
    INDEX 00 03:55:65
FILE "06 - Don Gibson - Oh, Lonesome Me.wav" WAVE
    INDEX 01 00:00:00
  TRACK 07 AUDIO
    TITLE "Abilene"
    PERFORMER "George Hamilton IV"
    ISRC USRC19901089
    INDEX 00 02:28:21
FILE "07 - George Hamilton IV - Abilene.wav" WAVE
    INDEX 01 00:00:00
  TRACK 08 AUDIO
    TITLE "The Streets of Baltimore"
    PERFORMER "Bobby Bare"
    ISRC USRN19600345
    INDEX 00 02:12:00
FILE "08 - Bobby Bare - The Streets of Baltimore.wav" WAVE
    INDEX 01 00:00:00
  TRACK 09 AUDIO
    TITLE "She Thinks I Still Care"
    PERFORMER "George Jones"
    INDEX 00 02:37:10
FILE "09 - George Jones - She Thinks I Still Care.wav" WAVE
    INDEX 01 00:00:00
  TRACK 10 AUDIO
    TITLE "Once a Day"
    PERFORMER "Connie Smith"
    INDEX 00 02:47:25
FILE "10 - Connie Smith - Once a Day.wav" WAVE
    INDEX 01 00:00:00
  TRACK 11 AUDIO
    TITLE "Whatever Happened to Old Fashioned Love"
    PERFORMER "B.J. Thomas"
    ISRC USSM10009539
    INDEX 00 02:17:70
FILE "11 - B.J. Thomas - Whatever Happened to Old Fashioned Love.wav" WAVE
    INDEX 01 00:00:00
  TRACK 12 AUDIO
    TITLE "Make the World Go Away"
    PERFORMER "Eddy Arnold"
    ISRC USRN19600049
    INDEX 00 03:25:45
FILE "12 - Eddy Arnold - Make the World Go Away.wav" WAVE
    INDEX 01 00:00:00
  TRACK 13 AUDIO
    TITLE "Kiss an Angel Good Mornin'"
    PERFORMER "Charley Pride"
    ISRC USRN19500248
    INDEX 00 02:37:41
FILE "13 - Charley Pride - Kiss an Angel Good Mornin'.wav" WAVE
    INDEX 01 00:00:00
  TRACK 14 AUDIO
    TITLE "A Satisfied Mind"
    PERFORMER "Porter Wagoner"
    ISRC USRN15400001
    INDEX 00 02:00:47
FILE "14 - Porter Wagoner - A Satisfied Mind.wav" WAVE
    INDEX 01 00:00:00
  TRACK 15 AUDIO
    TITLE "The Three Bells"
    PERFORMER "The Browns"
    ISRC USRC18805873
    INDEX 00 02:45:61
FILE "15 - The Browns - The Three Bells.wav" WAVE
    INDEX 01 00:00:00
  TRACK 16 AUDIO
    TITLE "The Ballad of Jed Clampett"
    PERFORMER "Lester Flatt & Earl Scruggs With The Foggy Mountain Boys"
    ISRC USSM16201307
    INDEX 00 02:49:32
FILE "16 - Lester Flatt & Earl Scruggs With The Foggy Mountain Boys - The Ballad of Jed Clampett.wav" WAVE
    INDEX 01 00:00:00
  TRACK 17 AUDIO
    TITLE "Theme From 'The Dukes of Hazzard' (Good Ol' Boys)"
    PERFORMER "Waylon Jennings"
    ISRC USRN19600060
    INDEX 00 02:01:59
FILE "17 - Waylon Jennings - Theme From 'The Dukes of Hazzard' (Good Ol' Boys).wav" WAVE
    INDEX 01 00:00:00
  TRACK 18 AUDIO
    TITLE "Stampede"
    PERFORMER "Roy Rogers and The Sons of the Pioneers"
    ISRC USRN10800452
    INDEX 00 02:05:49
FILE "18 - Roy Rogers and The Sons of the Pioneers - Stampede.wav" WAVE
    INDEX 01 00:00:00
--
[Профиль] [ЛС]
Кто просматривает тему:

Показать сообщения:    

Текущее время: Сегодня 04:21

Часовой пояс: GMT



Вы не можете начинать темы
Вы не можете отвечать на сообщения
Вы не можете редактировать свои сообщения
Вы не можете удалять свои сообщения
Вы не можете голосовать в опросах
Вы не можете прикреплять файлы к сообщениям
Вы не можете скачивать файлы