(Pop, Rock, Dance) VA - Ultimate... 90s (Of The Great Music From The 1990s) (4CD) [FLAC, tracks +.cue, lossless]

 
Автор Сообщение

sergej644 ®

Пол:

Стаж: 4 года 11 месяцев

Сообщений: 6043

Откуда: Soviet Union



Награды: Нет

Торрент-статистика

Создавать темы 31-Янв-2016 18:29

[Цитировать]

-VA - Ultimate... 90s (4CD)--
Год издания: 2015
Страна: n/a
Жанр: Pop, Rock, Dance
Продолжительность: 04:34:56-Лейбл издания: Sony Music
Тип альбома: Compilation
Страна-выпуска диска: EU
Номер по каталогу: 88875085592-Формат: FLAC
Битрейт аудио: Lossless
Тип рипа: tracks +.cue
Наличие сканов в содержимом раздачи: да
-

Трэклист

Disc 1 / 01:11:13


01. Backstreet Boys - Everybody (Backstreet's Back) (03:48)
02. Britney Spears - ...Baby One More Time (03:32)
03. Ricky Martin - Shake Your Bon-Bon (03:12)
04. Dr. Alban - It's My Life (04:02)
05. Real McCoy - Another Night (03:59)
06. Christina Aguilera - Genie in a Bottle (03:39)
07. C & C Music Factory feat. Freedom Williams - Gonna Make You Sweat (Everybody Dance Now) (04:06)
08. Aretha Franklin - A Deeper Love (04:37)
09. Taylor Dayne - Can't Get Enough of Your Love (04:27)
10. Whitney Houston - I'm Every Woman (04:48)
11. Five - Everybody Get Up (03:06)
12. Jennifer Lopez - Waiting for Tonight (04:06)
13. Pras - Blue Angels (04:16)
14. Steps - Tragedy (04:32)
15. Anastacia - I'm Outta Lova (04:05)
16. MN8 - I've Got a Little Something for You (03:42)
17. Alison Limerick - Where Love Lives (03:50)
18. M Pople - Moving On Up (03:35)

Disc 2 / 01:10:56


01. Run-D.M.C. vs. Jason Nevis - It's Lake That (04:13)
02. Tatyana Ali - Boy You Knock Me Out (04:01)
03. DJ Jazzy Jeff & The Fresh Prince - Sommertime (03:59)
04. Des'ree - Life (03:12)
05. R. Kelly & Public Announcement - She's Got That Vibe (03:22)
06. Olive - You're Not Alone (03:46)
07. Lisa Stansfield - Change (04:19)
08. Usher - You Make Me Wanna... (03:40)
09. Monica - Angel of Mine (04:12)
10. Natalia Imbruglia - Torn (04:06)
11. Michael Bolton - Steel Bars (03:31)
12. Celin Dion - Think Twice (04:49)
13. 3T - I Need You (03:57)
14. Gloria Estefan - Here We Are (04:51)
15. Another Level - Bomb Diggy (03:36)
16. TLC - Creep (04:30)
17. Mary Mary - Shackles (Praise You) (03:08)
18. TQ - Westside (03:54)

Disc 3 / 01:04:46


01. The Boo Radleys - Wake Up Bo! (03:08)
02. Republica - Drop Dead Gorgeous (03:33)
03. Lightning Seeds - Change (03:41)
04. Reef - Place Your Hands (03:39)
05. Spin Doctors - Twp Princes (04:18)
06. Kula Shaker - Hush (02:57)
07. Soul Asylum - Runaway Train (04:28)
08. Crash Test Dummies - Mmm Mmm Mmm Mmm (03:54)
09. Len - Steal My Sunshine (04:01)
10. Fugees - Fu-Gee-La (04:17)
11. Finley Quaye - Sunday Shining (03:43)
12. Ini Kamoze - Here Comes the Hotstepper (04:10)
13. Diana King - Shy Guy (04:06)
14. Shabba Ranks feat. Chevelle Franklin - Mr. Loverman (03:37)
15. Cypress Hill - Insane in the Brain (03:30)
16. I Tribe Called Quest - Can I Kick It (04:14)
17. Crazy Town - Butterfly (03:37)

Disc 4 / 01:08:02


01. Faithless - Insomnia (03:36)
02. Republica - Stop the Rock (03:34)
03. Scatman John - Scatman (Ski-Ba-Bop-Ba-Dop-Bop) (03:34)
04. Rednex - Cotton Eye Joe (03:13)
05. B'Witched - C'est la vie (02:54)
06. Betty Boo - Doin' the Do (03:43)
07. NSYNC - I Want You Back (03:22)
08. Los Del Rio - Macarena (Bayside Boys remix) (03:54)
09. Lou Bega - Mambo No.5 (a Little Bit of...) (03:41)
10. Gipsy Kings - Volare (Nel blu dipinto di blu) (03:41)
11. Meja - All 'Bout the Money (02:54)
12. New Kids on the Block - Step by Step (04:29)
13. Curtis Stigers - O Wonder Why (04:28)
14. Wyclef Jean - Gone Till November (03:30)
15. Sophie B. Hawkins - Damn I Wish I Was Your Lover (05:25)
16. Groove Armada - At the River (04:11)
17. Tal Bacham - She's So High (03:46)
18. Jeff Buckley - Hallelujah (04:17)
-

Лог создания рипа

CD 1

Exact Audio Copy V1.1 from 23. June 2015
EAC extraction logfile from 20. December 2015, 17:33
Various Artists / Ultimate 90s: 4CDs of the Greatest Muisc from the 1990s (Disc 1)
Used drive  : ASUS    BW-12D1S-U   Adapter: 1  ID: 1
Read mode               : Secure
Utilize accurate stream : Yes
Defeat audio cache      : Yes
Make use of C2 pointers : No
Read offset correction                      : 667
Overread into Lead-In and Lead-Out          : No
Fill up missing offset samples with silence : Yes
Delete leading and trailing silent blocks   : No
Null samples used in CRC calculations       : Yes
Used interface                              : Native Win32 interface for Win NT & 2000
Gap handling                                : Appended to previous track
Used output format              : User Defined Encoder
Selected bitrate                : 1024 kBit/s
Quality                         : High
Add ID3 tag                     : No
Command line compressor         : C:\Program Files (x86)\Music Codec\flac1.3.1\win64\flac.exe
Additional command line options : -8 -V -T "ARTIST=%artist%" -T "TITLE=%title%" -T "ALBUM=%albumtitle%" -T "DATE=%year%" -T "TRACKNUMBER=%tracknr%" -T "TOTALTRACKS=%numtracks%" -T "GENRE=%genre%" -T "ALBUMARTIST=%albumartist%" -T "ALBUM ARTIST=%albumartist%" -T "COMMENT=EAC Secure Mode, Test & Copy, AccurateRip, FLAC -8" %source%
TOC of the extracted CD
     Track |   Start  |  Length  | Start sector | End sector
    ---------------------------------------------------------
        1  |  0:00.00 |  3:47.09 |         0    |    17033
        2  |  3:47.09 |  3:31.74 |     17034    |    32932
        3  |  7:19.08 |  3:11.30 |     32933    |    47287
        4  | 10:30.38 |  4:01.14 |     47288    |    65376
        5  | 14:31.52 |  3:58.63 |     65377    |    83289
        6  | 18:30.40 |  3:38.17 |     83290    |    99656
        7  | 22:08.57 |  4:05.40 |     99657    |   118071
        8  | 26:14.22 |  4:36.26 |    118072    |   138797
        9  | 30:50.48 |  4:26.42 |    138798    |   158789
       10  | 35:17.15 |  4:47.26 |    158790    |   180340
       11  | 40:04.41 |  3:05.28 |    180341    |   194243
       12  | 43:09.69 |  4:05.68 |    194244    |   212686
       13  | 47:15.62 |  4:15.45 |    212687    |   231856
       14  | 51:31.32 |  4:31.39 |    231857    |   252220
       15  | 56:02.71 |  4:04.25 |    252221    |   270545
       16  | 60:07.21 |  3:41.28 |    270546    |   287148
       17  | 63:48.49 |  3:49.51 |    287149    |   304374
       18  | 67:38.25 |  3:34.35 |    304375    |   320459
Track  1
     Filename H:\3. my rip in preparation\1 - finished xbtmusic\knjiznica domzale\CD1\01 - Backstreet Boys - Everybody (Backstreet's Back).wav
     Pre-gap length  0:00:02.00
     Peak level 98.8 %
     Extraction speed 4.9 X
     Track quality 100.0 %
     Test CRC 2B49114D
     Copy CRC 2B49114D
     Track not present in AccurateRip database
     Copy OK
Track  2
     Filename H:\3. my rip in preparation\1 - finished xbtmusic\knjiznica domzale\CD1\02 - Britney Spears - ...Baby One More Time.wav
     Pre-gap length  0:00:01.77
     Peak level 98.9 %
     Extraction speed 5.3 X
     Track quality 100.0 %
     Test CRC 32CA93EE
     Copy CRC 32CA93EE
     Track not present in AccurateRip database
     Copy OK
Track  3
     Filename H:\3. my rip in preparation\1 - finished xbtmusic\knjiznica domzale\CD1\03 - Ricky Martin - Shake Your Bon-Bon.wav
     Pre-gap length  0:00:01.77
     Peak level 79.4 %
     Extraction speed 5.5 X
     Track quality 100.0 %
     Test CRC 847EA6BD
     Copy CRC 847EA6BD
     Track not present in AccurateRip database
     Copy OK
Track  4
     Filename H:\3. my rip in preparation\1 - finished xbtmusic\knjiznica domzale\CD1\04 - Dr. Alban - It's My Life.wav
     Pre-gap length  0:00:01.77
     Peak level 98.0 %
     Extraction speed 6.0 X
     Track quality 100.0 %
     Test CRC 71A5B538
     Copy CRC 71A5B538
     Track not present in AccurateRip database
     Copy OK
Track  5
     Filename H:\3. my rip in preparation\1 - finished xbtmusic\knjiznica domzale\CD1\05 - Real McCoy - Another Night.wav
     Pre-gap length  0:00:01.77
     Peak level 88.1 %
     Extraction speed 6.4 X
     Track quality 100.0 %
     Test CRC 47226931
     Copy CRC 47226931
     Track not present in AccurateRip database
     Copy OK
Track  6
     Filename H:\3. my rip in preparation\1 - finished xbtmusic\knjiznica domzale\CD1\06 - Christina Aguilera - Genie in a Bottle.wav
     Pre-gap length  0:00:01.77
     Peak level 98.8 %
     Extraction speed 6.6 X
     Track quality 100.0 %
     Test CRC 60BAF8A2
     Copy CRC 60BAF8A2
     Track not present in AccurateRip database
     Copy OK
Track  7
     Filename H:\3. my rip in preparation\1 - finished xbtmusic\knjiznica domzale\CD1\07 - C & C Music Factory feat. Freedom Williams - Gonna Make You Sweat (Everybody Dance Now).wav
     Pre-gap length  0:00:01.77
     Peak level 89.2 %
     Extraction speed 7.0 X
     Track quality 100.0 %
     Test CRC 4F619388
     Copy CRC 4F619388
     Track not present in AccurateRip database
     Copy OK
Track  8
     Filename H:\3. my rip in preparation\1 - finished xbtmusic\knjiznica domzale\CD1\08 - Aretha Franklin - A Deeper Love.wav
     Pre-gap length  0:00:01.77
     Peak level 98.8 %
     Extraction speed 7.4 X
     Track quality 100.0 %
     Test CRC 2D25C2AF
     Copy CRC 2D25C2AF
     Track not present in AccurateRip database
     Copy OK
Track  9
     Filename H:\3. my rip in preparation\1 - finished xbtmusic\knjiznica domzale\CD1\09 - Taylor Dayne - Can't Get Enough of Your Love.wav
     Pre-gap length  0:00:01.77
     Peak level 98.7 %
     Extraction speed 6.9 X
     Track quality 99.9 %
     Test CRC 2DFF2C97
     Copy CRC 2DFF2C97
     Track not present in AccurateRip database
     Copy OK
Track 10
     Filename H:\3. my rip in preparation\1 - finished xbtmusic\knjiznica domzale\CD1\10 - Whitney Houston - I'm Every Woman.wav
     Pre-gap length  0:00:01.77
     Peak level 98.7 %
     Extraction speed 7.9 X
     Track quality 100.0 %
     Test CRC A17AC895
     Copy CRC A17AC895
     Track not present in AccurateRip database
     Copy OK
Track 11
     Filename H:\3. my rip in preparation\1 - finished xbtmusic\knjiznica domzale\CD1\11 - Five - Everybody Get Up.wav
     Pre-gap length  0:00:01.77
     Peak level 98.6 %
     Extraction speed 7.7 X
     Track quality 100.0 %
     Test CRC 1FC0C088
     Copy CRC 1FC0C088
     Track not present in AccurateRip database
     Copy OK
Track 12
     Filename H:\3. my rip in preparation\1 - finished xbtmusic\knjiznica domzale\CD1\12 - Jennifer Lopez - Waiting for Tonight.wav
     Pre-gap length  0:00:01.77
     Peak level 85.9 %
     Extraction speed 8.2 X
     Track quality 100.0 %
     Test CRC AB973B65
     Copy CRC AB973B65
     Track not present in AccurateRip database
     Copy OK
Track 13
     Filename H:\3. my rip in preparation\1 - finished xbtmusic\knjiznica domzale\CD1\13 - Pras - Blue Angels.wav
     Pre-gap length  0:00:01.77
     Peak level 99.7 %
     Extraction speed 7.5 X
     Track quality 99.9 %
     Test CRC 1E8871C1
     Copy CRC 1E8871C1
     Track not present in AccurateRip database
     Copy OK
Track 14
     Filename H:\3. my rip in preparation\1 - finished xbtmusic\knjiznica domzale\CD1\14 - Steps - Tragedy.wav
     Pre-gap length  0:00:01.77
     Peak level 98.8 %
     Extraction speed 8.7 X
     Track quality 100.0 %
     Test CRC 4814EECB
     Copy CRC 4814EECB
     Track not present in AccurateRip database
     Copy OK
Track 15
     Filename H:\3. my rip in preparation\1 - finished xbtmusic\knjiznica domzale\CD1\15 - Anastacia - I'm Outta Lova.wav
     Pre-gap length  0:00:01.77
     Peak level 88.1 %
     Extraction speed 7.9 X
     Track quality 99.9 %
     Test CRC 67F793EF
     Copy CRC 67F793EF
     Track not present in AccurateRip database
     Copy OK
Track 16
     Filename H:\3. my rip in preparation\1 - finished xbtmusic\knjiznica domzale\CD1\16 - MN8 - I've Got a Little Something for You.wav
     Pre-gap length  0:00:01.77
     Peak level 83.2 %
     Extraction speed 8.9 X
     Track quality 100.0 %
     Test CRC F2F2B52D
     Copy CRC F2F2B52D
     Track not present in AccurateRip database
     Copy OK
Track 17
     Filename H:\3. my rip in preparation\1 - finished xbtmusic\knjiznica domzale\CD1\17 - Alison Limerick - Where Love Lives.wav
     Pre-gap length  0:00:01.77
     Peak level 99.7 %
     Extraction speed 9.1 X
     Track quality 100.0 %
     Test CRC FE3F3499
     Copy CRC FE3F3499
     Track not present in AccurateRip database
     Copy OK
Track 18
     Filename H:\3. my rip in preparation\1 - finished xbtmusic\knjiznica domzale\CD1\18 - M Pople - Moving On Up.wav
     Pre-gap length  0:00:01.77
     Peak level 99.7 %
     Extraction speed 7.9 X
     Track quality 99.9 %
     Test CRC 75BB962F
     Copy CRC 75BB962F
     Track not present in AccurateRip database
     Copy OK
None of the tracks are present in the AccurateRip database
No errors occurred
End of status report
---- CUETools DB Plugin V2.1.6
[CTDB TOCID: xaHb0r3vbxohyYrJYj4E_BjpFnc-] found
Submit result: already submitted
Track | CTDB Status
  1   | (6/6) Accurately ripped
  2   | (6/6) Accurately ripped
  3   | (6/6) Accurately ripped
  4   | (6/6) Accurately ripped
  5   | (6/6) Accurately ripped
  6   | (6/6) Accurately ripped
  7   | (6/6) Accurately ripped
  8   | (6/6) Accurately ripped
  9   | (6/6) Accurately ripped
10   | (6/6) Accurately ripped
11   | (6/6) Accurately ripped
12   | (6/6) Accurately ripped
13   | (6/6) Accurately ripped
14   | (6/6) Accurately ripped
15   | (6/6) Accurately ripped
16   | (6/6) Accurately ripped
17   | (6/6) Accurately ripped
18   | (6/6) Accurately ripped

CD 2

Exact Audio Copy V1.1 from 23. June 2015
EAC extraction logfile from 2. December 2015, 9:09
Various Artists / Ultimate 90s: 4CDs of the Greatest Muisc from the 1990s (Disc 2)
Used drive  : ASUS    BW-12D1S-U   Adapter: 1  ID: 1
Read mode               : Secure
Utilize accurate stream : Yes
Defeat audio cache      : Yes
Make use of C2 pointers : No
Read offset correction                      : 667
Overread into Lead-In and Lead-Out          : No
Fill up missing offset samples with silence : Yes
Delete leading and trailing silent blocks   : No
Null samples used in CRC calculations       : Yes
Used interface                              : Native Win32 interface for Win NT & 2000
Gap handling                                : Appended to previous track
Used output format              : User Defined Encoder
Selected bitrate                : 1024 kBit/s
Quality                         : High
Add ID3 tag                     : No
Command line compressor         : C:\Program Files (x86)\Kodeki za Glasbo\flac v1.3.1\win64\flac.exe
Additional command line options : -8 -V -T "ARTIST=%artist%" -T "TITLE=%title%" -T "ALBUM=%albumtitle%" -T "DATE=%year%" -T "TRACKNUMBER=%tracknr%" -T "TOTALTRACKS=%numtracks%" -T "GENRE=%genre%" -T "ALBUMARTIST=%albumartist%" -T "ALBUM ARTIST=%albumartist%" -T "COMMENT=EAC Secure Mode, Test & Copy, AccurateRip, FLAC -8" %source%
TOC of the extracted CD
     Track |   Start  |  Length  | Start sector | End sector
    ---------------------------------------------------------
        1  |  0:00.00 |  4:12.03 |         0    |    18902
        2  |  4:12.03 |  4:00.44 |     18903    |    36946
        3  |  8:12.47 |  3:58.16 |     36947    |    54812
        4  | 12:10.63 |  3:11.02 |     54813    |    69139
        5  | 15:21.65 |  3:21.20 |     69140    |    84234
        6  | 18:43.10 |  3:45.61 |     84235    |   101170
        7  | 22:28.71 |  4:18.44 |    101171    |   120564
        8  | 26:47.40 |  3:39.69 |    120565    |   137058
        9  | 30:27.34 |  4:11.31 |    137059    |   155914
       10  | 34:38.65 |  4:05.58 |    155915    |   174347
       11  | 38:44.48 |  3:30.05 |    174348    |   190102
       12  | 42:14.53 |  4:48.21 |    190103    |   211723
       13  | 47:02.74 |  3:56.19 |    211724    |   229442
       14  | 50:59.18 |  4:50.31 |    229443    |   251223
       15  | 55:49.49 |  3:35.73 |    251224    |   267421
       16  | 59:25.47 |  4:29.56 |    267422    |   287652
       17  | 63:55.28 |  3:07.06 |    287653    |   301683
       18  | 67:02.34 |  3:53.21 |    301684    |   319179
Track  1
     Filename K:\3. my rip in preparation\3 - in treatment\1\CD2\01 - Run-D.M.C. vs. Jason Nevis - It's Lake That.wav
     Pre-gap length  0:00:02.00
     Peak level 98.8 %
     Extraction speed 5.0 X
     Track quality 100.0 %
     Test CRC 951DC766
     Copy CRC 951DC766
     Accurately ripped (confidence 1)  [5F61571D]  (AR v2)
     Copy OK
Track  2
     Filename K:\3. my rip in preparation\3 - in treatment\1\CD2\02 - Tatyana Ali - Boy You Knock Me Out.wav
     Pre-gap length  0:00:01.77
     Peak level 98.8 %
     Extraction speed 5.4 X
     Track quality 100.0 %
     Test CRC 2DA06F9C
     Copy CRC 2DA06F9C
     Accurately ripped (confidence 1)  [63D734E7]  (AR v2)
     Copy OK
Track  3
     Filename K:\3. my rip in preparation\3 - in treatment\1\CD2\03 - DJ Jazzy Jeff & The Fresh Prince - Sommertime.wav
     Pre-gap length  0:00:01.77
     Peak level 98.9 %
     Extraction speed 5.8 X
     Track quality 100.0 %
     Test CRC C62E6583
     Copy CRC C62E6583
     Accurately ripped (confidence 1)  [02A6DDE8]  (AR v2)
     Copy OK
Track  4
     Filename K:\3. my rip in preparation\3 - in treatment\1\CD2\04 - Des'ree - Life.wav
     Pre-gap length  0:00:01.77
     Peak level 97.3 %
     Extraction speed 5.9 X
     Track quality 100.0 %
     Test CRC 7CD71104
     Copy CRC 7CD71104
     Accurately ripped (confidence 1)  [85DAF057]  (AR v2)
     Copy OK
Track  5
     Filename K:\3. my rip in preparation\3 - in treatment\1\CD2\05 - R. Kelly & Public Announcement - She's Got That Vibe.wav
     Pre-gap length  0:00:01.77
     Peak level 99.7 %
     Extraction speed 6.3 X
     Track quality 100.0 %
     Test CRC BBAFB730
     Copy CRC BBAFB730
     Accurately ripped (confidence 1)  [F277D599]  (AR v2)
     Copy OK
Track  6
     Filename K:\3. my rip in preparation\3 - in treatment\1\CD2\06 - Olive - You're Not Alone.wav
     Pre-gap length  0:00:01.77
     Peak level 98.6 %
     Extraction speed 6.7 X
     Track quality 100.0 %
     Test CRC 18727033
     Copy CRC 18727033
     Accurately ripped (confidence 1)  [10075511]  (AR v2)
     Copy OK
Track  7
     Filename K:\3. my rip in preparation\3 - in treatment\1\CD2\07 - Lisa Stansfield - Change.wav
     Pre-gap length  0:00:01.77
     Peak level 99.7 %
     Extraction speed 7.1 X
     Track quality 100.0 %
     Test CRC 33125EC3
     Copy CRC 33125EC3
     Accurately ripped (confidence 1)  [F06F6156]  (AR v2)
     Copy OK
Track  8
     Filename K:\3. my rip in preparation\3 - in treatment\1\CD2\08 - Usher - You Make Me Wanna....wav
     Pre-gap length  0:00:01.77
     Peak level 88.6 %
     Extraction speed 7.3 X
     Track quality 100.0 %
     Test CRC 3752B7F6
     Copy CRC 3752B7F6
     Accurately ripped (confidence 1)  [1F1D76E5]  (AR v2)
     Copy OK
Track  9
     Filename K:\3. my rip in preparation\3 - in treatment\1\CD2\09 - Monica - Angel of Mine.wav
     Pre-gap length  0:00:01.77
     Peak level 99.7 %
     Extraction speed 7.6 X
     Track quality 100.0 %
     Test CRC 5531517C
     Copy CRC 5531517C
     Accurately ripped (confidence 1)  [5828EDC3]  (AR v2)
     Copy OK
Track 10
     Filename K:\3. my rip in preparation\3 - in treatment\1\CD2\10 - Natalia Imbruglia - Torn.wav
     Pre-gap length  0:00:01.77
     Peak level 87.7 %
     Extraction speed 7.8 X
     Track quality 100.0 %
     Test CRC 02CE37A3
     Copy CRC 02CE37A3
     Accurately ripped (confidence 1)  [0B935C7C]  (AR v2)
     Copy OK
Track 11
     Filename K:\3. my rip in preparation\3 - in treatment\1\CD2\11 - Michael Bolton - Steel Bars.wav
     Pre-gap length  0:00:01.77
     Peak level 99.0 %
     Extraction speed 7.8 X
     Track quality 100.0 %
     Test CRC 2858B6FA
     Copy CRC 2858B6FA
     Accurately ripped (confidence 1)  [6BACEE1A]  (AR v2)
     Copy OK
Track 12
     Filename K:\3. my rip in preparation\3 - in treatment\1\CD2\12 - Celin Dion - Think Twice.wav
     Pre-gap length  0:00:01.77
     Peak level 98.8 %
     Extraction speed 8.3 X
     Track quality 100.0 %
     Test CRC DCDB8EE0
     Copy CRC DCDB8EE0
     Accurately ripped (confidence 1)  [3CA9A91C]  (AR v2)
     Copy OK
Track 13
     Filename K:\3. my rip in preparation\3 - in treatment\1\CD2\13 - 3T - I Need You.wav
     Pre-gap length  0:00:01.77
     Peak level 99.7 %
     Extraction speed 8.4 X
     Track quality 100.0 %
     Test CRC 5D23E9B1
     Copy CRC 5D23E9B1
     Accurately ripped (confidence 1)  [17DA304B]  (AR v2)
     Copy OK
Track 14
     Filename K:\3. my rip in preparation\3 - in treatment\1\CD2\14 - Gloria Estefan - Here We Are.wav
     Pre-gap length  0:00:01.77
     Peak level 99.7 %
     Extraction speed 8.9 X
     Track quality 100.0 %
     Test CRC 05B4D62D
     Copy CRC 05B4D62D
     Accurately ripped (confidence 1)  [51D5A944]  (AR v2)
     Copy OK
Track 15
     Filename K:\3. my rip in preparation\3 - in treatment\1\CD2\15 - Another Level - Bomb Diggy.wav
     Pre-gap length  0:00:01.77
     Peak level 98.8 %
     Extraction speed 8.7 X
     Track quality 100.0 %
     Test CRC 7A357F5A
     Copy CRC 7A357F5A
     Accurately ripped (confidence 1)  [6212E23B]  (AR v2)
     Copy OK
Track 16
     Filename K:\3. my rip in preparation\3 - in treatment\1\CD2\16 - TLC - Creep.wav
     Pre-gap length  0:00:01.77
     Peak level 98.8 %
     Extraction speed 9.2 X
     Track quality 100.0 %
     Test CRC F7A57408
     Copy CRC F7A57408
     Accurately ripped (confidence 1)  [B36F7E54]  (AR v2)
     Copy OK
Track 17
     Filename K:\3. my rip in preparation\3 - in treatment\1\CD2\17 - Mary Mary - Shackles (Praise You).wav
     Pre-gap length  0:00:01.77
     Peak level 98.8 %
     Extraction speed 8.9 X
     Track quality 100.0 %
     Test CRC DB0D579F
     Copy CRC DB0D579F
     Accurately ripped (confidence 1)  [6A065640]  (AR v2)
     Copy OK
Track 18
     Filename K:\3. my rip in preparation\3 - in treatment\1\CD2\18 - TQ - Westside.wav
     Pre-gap length  0:00:01.77
     Peak level 98.8 %
     Extraction speed 9.3 X
     Track quality 100.0 %
     Test CRC 5B0FF311
     Copy CRC 5B0FF311
     Accurately ripped (confidence 1)  [8629BB9D]  (AR v2)
     Copy OK
All tracks accurately ripped
No errors occurred
End of status report
---- CUETools DB Plugin V2.1.6
[CTDB TOCID: Fl4mgrgR2qusMvDQIEh7zMU5GLg-] found
Submit result: Fl4mgrgR2qusMvDQIEh7zMU5GLg- has been confirmed
Track | CTDB Status
  1   | (5/5) Accurately ripped
  2   | (5/5) Accurately ripped
  3   | (5/5) Accurately ripped
  4   | (5/5) Accurately ripped
  5   | (5/5) Accurately ripped
  6   | (5/5) Accurately ripped
  7   | (5/5) Accurately ripped
  8   | (5/5) Accurately ripped
  9   | (5/5) Accurately ripped
10   | (5/5) Accurately ripped
11   | (5/5) Accurately ripped
12   | (5/5) Accurately ripped
13   | (5/5) Accurately ripped
14   | (5/5) Accurately ripped
15   | (5/5) Accurately ripped
16   | (5/5) Accurately ripped
17   | (5/5) Accurately ripped
18   | (5/5) Accurately ripped

CD 3

Exact Audio Copy V1.1 from 23. June 2015
EAC extraction logfile from 2. December 2015, 10:22
Various Artists / Ultimate 90s: 4CDs of the Greatest Muisc from the 1990s (Disc 3)
Used drive  : ASUS    BW-12D1S-U   Adapter: 1  ID: 1
Read mode               : Secure
Utilize accurate stream : Yes
Defeat audio cache      : Yes
Make use of C2 pointers : No
Read offset correction                      : 667
Overread into Lead-In and Lead-Out          : No
Fill up missing offset samples with silence : Yes
Delete leading and trailing silent blocks   : No
Null samples used in CRC calculations       : Yes
Used interface                              : Native Win32 interface for Win NT & 2000
Gap handling                                : Appended to previous track
Used output format              : User Defined Encoder
Selected bitrate                : 1024 kBit/s
Quality                         : High
Add ID3 tag                     : No
Command line compressor         : C:\Program Files (x86)\Kodeki za Glasbo\flac v1.3.1\win64\flac.exe
Additional command line options : -8 -V -T "ARTIST=%artist%" -T "TITLE=%title%" -T "ALBUM=%albumtitle%" -T "DATE=%year%" -T "TRACKNUMBER=%tracknr%" -T "TOTALTRACKS=%numtracks%" -T "GENRE=%genre%" -T "ALBUMARTIST=%albumartist%" -T "ALBUM ARTIST=%albumartist%" -T "COMMENT=EAC Secure Mode, Test & Copy, AccurateRip, FLAC -8" %source%
TOC of the extracted CD
     Track |   Start  |  Length  | Start sector | End sector
    ---------------------------------------------------------
        1  |  0:00.00 |  3:07.55 |         0    |    14079
        2  |  3:07.55 |  3:32.16 |     14080    |    29995
        3  |  6:39.71 |  3:40.38 |     29996    |    46533
        4  | 10:20.34 |  3:38.67 |     46534    |    62950
        5  | 13:59.26 |  4:17.24 |     62951    |    82249
        6  | 18:16.50 |  2:56.19 |     82250    |    95468
        7  | 21:12.69 |  4:27.03 |     95469    |   115496
        8  | 25:39.72 |  3:53.59 |    115497    |   133030
        9  | 29:33.56 |  4:00.73 |    133031    |   151103
       10  | 33:34.54 |  4:16.45 |    151104    |   170348
       11  | 37:51.24 |  3:42.12 |    170349    |   187010
       12  | 41:33.36 |  4:09.73 |    187011    |   205758
       13  | 45:43.34 |  4:05.57 |    205759    |   224190
       14  | 49:49.16 |  3:36.64 |    224191    |   240454
       15  | 53:26.05 |  3:29.17 |    240455    |   256146
       16  | 56:55.22 |  4:13.33 |    256147    |   275154
       17  | 61:08.55 |  3:36.47 |    275155    |   291401
Track  1
     Filename K:\3. my rip in preparation\3 - in treatment\1\CD3\01 - The Boo Radleys - Wake Up Bo!.wav
     Pre-gap length  0:00:02.00
     Peak level 86.9 %
     Extraction speed 1.6 X
     Track quality 100.0 %
     Test CRC 16CF81C8
     Copy CRC 16CF81C8
     Accurately ripped (confidence 1)  [080F07DA]  (AR v2)
     Copy OK
Track  2
     Filename K:\3. my rip in preparation\3 - in treatment\1\CD3\02 - Republica - Drop Dead Gorgeous.wav
     Pre-gap length  0:00:01.77
     Peak level 98.6 %
     Extraction speed 1.8 X
     Track quality 100.0 %
     Test CRC 78E38E48
     Copy CRC 78E38E48
     Accurately ripped (confidence 1)  [ED149C8E]  (AR v2)
     Copy OK
Track  3
     Filename K:\3. my rip in preparation\3 - in treatment\1\CD3\03 - Lightning Seeds - Change.wav
     Pre-gap length  0:00:01.77
     Peak level 99.7 %
     Extraction speed 2.0 X
     Track quality 100.0 %
     Test CRC 69B315A0
     Copy CRC 69B315A0
     Accurately ripped (confidence 1)  [2B8A06AC]  (AR v2)
     Copy OK
Track  4
     Filename K:\3. my rip in preparation\3 - in treatment\1\CD3\04 - Reef - Place Your Hands.wav
     Pre-gap length  0:00:01.77
     Peak level 99.7 %
     Extraction speed 2.1 X
     Track quality 100.0 %
     Test CRC 681A8D94
     Copy CRC 681A8D94
     Accurately ripped (confidence 1)  [F2E8E6DD]  (AR v2)
     Copy OK
Track  5
     Filename K:\3. my rip in preparation\3 - in treatment\1\CD3\05 - Spin Doctors - Twp Princes.wav
     Pre-gap length  0:00:01.77
     Peak level 98.8 %
     Extraction speed 2.0 X
     Track quality 99.9 %
     Test CRC DFC928F3
     Copy CRC DFC928F3
     Accurately ripped (confidence 1)  [7AD27946]  (AR v2)
     Copy OK
Track  6
     Filename K:\3. my rip in preparation\3 - in treatment\1\CD3\06 - Kula Shaker - Hush.wav
     Pre-gap length  0:00:01.77
     Peak level 98.9 %
     Extraction speed 1.9 X
     Track quality 99.9 %
     Test CRC 5BC883F7
     Copy CRC 5BC883F7
     Accurately ripped (confidence 1)  [B5AB931C]  (AR v2)
     Copy OK
Track  7
     Filename K:\3. my rip in preparation\3 - in treatment\1\CD3\07 - Soul Asylum - Runaway Train.wav
     Pre-gap length  0:00:01.77
     Peak level 98.8 %
     Extraction speed 2.5 X
     Track quality 100.0 %
     Test CRC FC26E5EE
     Copy CRC FC26E5EE
     Accurately ripped (confidence 1)  [0866B211]  (AR v2)
     Copy OK
Track  8
     Filename K:\3. my rip in preparation\3 - in treatment\1\CD3\08 - Crash Test Dummies - Mmm Mmm Mmm Mmm.wav
     Pre-gap length  0:00:01.77
     Peak level 98.8 %
     Extraction speed 2.6 X
     Track quality 100.0 %
     Test CRC 92A1E601
     Copy CRC 92A1E601
     Accurately ripped (confidence 1)  [6C22A29D]  (AR v2)
     Copy OK
Track  9
     Filename K:\3. my rip in preparation\3 - in treatment\1\CD3\09 - Len - Steal My Sunshine.wav
     Pre-gap length  0:00:01.77
     Peak level 99.7 %
     Extraction speed 2.7 X
     Track quality 100.0 %
     Test CRC 76D8E740
     Copy CRC 76D8E740
     Accurately ripped (confidence 1)  [A64BAC40]  (AR v2)
     Copy OK
Track 10
     Filename K:\3. my rip in preparation\3 - in treatment\1\CD3\10 - Fugees - Fu-Gee-La.wav
     Pre-gap length  0:00:01.77
     Peak level 98.5 %
     Extraction speed 2.6 X
     Track quality 99.9 %
     Test CRC E4E8CA66
     Copy CRC E4E8CA66
     Accurately ripped (confidence 1)  [413B2C29]  (AR v2)
     Copy OK
Track 11
     Filename K:\3. my rip in preparation\3 - in treatment\1\CD3\11 - Finley Quaye - Sunday Shining.wav
     Pre-gap length  0:00:01.77
     Peak level 99.7 %
     Extraction speed 2.9 X
     Track quality 100.0 %
     Test CRC 2052CCAE
     Copy CRC 2052CCAE
     Accurately ripped (confidence 1)  [BB6CB2A1]  (AR v2)
     Copy OK
Track 12
     Filename K:\3. my rip in preparation\3 - in treatment\1\CD3\12 - Ini Kamoze - Here Comes the Hotstepper.wav
     Pre-gap length  0:00:01.77
     Peak level 99.2 %
     Extraction speed 2.7 X
     Track quality 99.9 %
     Test CRC 3541A7DA
     Copy CRC 3541A7DA
     Accurately ripped (confidence 1)  [9ACD601F]  (AR v2)
     Copy OK
Track 13
     Filename K:\3. my rip in preparation\3 - in treatment\1\CD3\13 - Diana King - Shy Guy.wav
     Pre-gap length  0:00:01.77
     Peak level 99.7 %
     Extraction speed 3.2 X
     Track quality 100.0 %
     Test CRC 0809597D
     Copy CRC 0809597D
     Accurately ripped (confidence 1)  [9339CC77]  (AR v2)
     Copy OK
Track 14
     Filename K:\3. my rip in preparation\3 - in treatment\1\CD3\14 - Shabba Ranks feat. Chevelle Franklin - Mr. Loverman.wav
     Pre-gap length  0:00:01.77
     Peak level 98.8 %
     Extraction speed 3.2 X
     Track quality 100.0 %
     Test CRC D29E7697
     Copy CRC D29E7697
     Accurately ripped (confidence 1)  [BBDA56B2]  (AR v2)
     Copy OK
Track 15
     Filename K:\3. my rip in preparation\3 - in treatment\1\CD3\15 - Cypress Hill - Insane in the Brain.wav
     Pre-gap length  0:00:01.77
     Peak level 99.6 %
     Extraction speed 3.2 X
     Track quality 100.0 %
     Test CRC 2BE0AB03
     Copy CRC 2BE0AB03
     Accurately ripped (confidence 1)  [BD8464D0]  (AR v2)
     Copy OK
Track 16
     Filename K:\3. my rip in preparation\3 - in treatment\1\CD3\16 - I Tribe Called Quest - Can I Kick It.wav
     Pre-gap length  0:00:01.77
     Peak level 98.2 %
     Extraction speed 3.4 X
     Track quality 100.0 %
     Test CRC F2FBDEB8
     Copy CRC F2FBDEB8
     Accurately ripped (confidence 1)  [4A2DA8E1]  (AR v2)
     Copy OK
Track 17
     Filename K:\3. my rip in preparation\3 - in treatment\1\CD3\17 - Crazy Town - Butterfly.wav
     Pre-gap length  0:00:01.77
     Peak level 98.6 %
     Extraction speed 3.4 X
     Track quality 100.0 %
     Test CRC BCEAE36E
     Copy CRC BCEAE36E
     Accurately ripped (confidence 1)  [5B6A7281]  (AR v2)
     Copy OK
All tracks accurately ripped
No errors occurred
End of status report
---- CUETools DB Plugin V2.1.6
[CTDB TOCID: jHhxoWMkIWkJVvDzmM7j1Db8Kgg-] found
Submit result: jHhxoWMkIWkJVvDzmM7j1Db8Kgg- has been confirmed
Track | CTDB Status
  1   | (2/2) Accurately ripped
  2   | (2/2) Accurately ripped
  3   | (2/2) Accurately ripped
  4   | (2/2) Accurately ripped
  5   | (2/2) Accurately ripped
  6   | (2/2) Accurately ripped
  7   | (2/2) Accurately ripped
  8   | (2/2) Accurately ripped
  9   | (2/2) Accurately ripped
10   | (2/2) Accurately ripped
11   | (2/2) Accurately ripped
12   | (2/2) Accurately ripped
13   | (2/2) Accurately ripped
14   | (2/2) Accurately ripped
15   | (2/2) Accurately ripped
16   | (2/2) Accurately ripped
17   | (2/2) Accurately ripped

CD 4

Exact Audio Copy V1.1 from 23. June 2015
EAC extraction logfile from 2. December 2015, 11:15
Various Artists / Ultimate 90s: 4CDs of the Greatest Muisc from the 1990s (Disc 4)
Used drive  : ASUS    BW-12D1S-U   Adapter: 1  ID: 1
Read mode               : Secure
Utilize accurate stream : Yes
Defeat audio cache      : Yes
Make use of C2 pointers : No
Read offset correction                      : 667
Overread into Lead-In and Lead-Out          : No
Fill up missing offset samples with silence : Yes
Delete leading and trailing silent blocks   : No
Null samples used in CRC calculations       : Yes
Used interface                              : Native Win32 interface for Win NT & 2000
Gap handling                                : Appended to previous track
Used output format              : User Defined Encoder
Selected bitrate                : 1024 kBit/s
Quality                         : High
Add ID3 tag                     : No
Command line compressor         : C:\Program Files (x86)\Kodeki za Glasbo\flac v1.3.1\win64\flac.exe
Additional command line options : -8 -V -T "ARTIST=%artist%" -T "TITLE=%title%" -T "ALBUM=%albumtitle%" -T "DATE=%year%" -T "TRACKNUMBER=%tracknr%" -T "TOTALTRACKS=%numtracks%" -T "GENRE=%genre%" -T "ALBUMARTIST=%albumartist%" -T "ALBUM ARTIST=%albumartist%" -T "COMMENT=EAC Secure Mode, Test & Copy, AccurateRip, FLAC -8" %source%
TOC of the extracted CD
     Track |   Start  |  Length  | Start sector | End sector
    ---------------------------------------------------------
        1  |  0:00.00 |  3:35.15 |         0    |    16139
        2  |  3:35.15 |  3:33.52 |     16140    |    32166
        3  |  7:08.67 |  3:33.35 |     32167    |    48176
        4  | 10:42.27 |  3:12.34 |     48177    |    62610
        5  | 13:54.61 |  2:53.19 |     62611    |    75604
        6  | 16:48.05 |  3:42.37 |     75605    |    92291
        7  | 20:30.42 |  3:21.30 |     92292    |   107396
        8  | 23:51.72 |  3:53.24 |    107397    |   124895
        9  | 27:45.21 |  3:40.06 |    124896    |   141401
       10  | 31:25.27 |  3:40.02 |    141402    |   157903
       11  | 35:05.29 |  2:53.61 |    157904    |   170939
       12  | 37:59.15 |  4:28.16 |    170940    |   191055
       13  | 42:27.31 |  4:27.14 |    191056    |   211094
       14  | 46:54.45 |  3:29.27 |    211095    |   226796
       15  | 50:23.72 |  5:24.15 |    226797    |   251111
       16  | 55:48.12 |  4:10.38 |    251112    |   269899
       17  | 59:58.50 |  3:46.00 |    269900    |   286849
       18  | 63:44.50 |  4:17.00 |    286850    |   306124
Track  1
     Filename K:\3. my rip in preparation\3 - in treatment\1\CD4\01 - Faithless - Insomnia.wav
     Pre-gap length  0:00:02.00
     Peak level 98.7 %
     Extraction speed 4.9 X
     Track quality 100.0 %
     Test CRC D3242F8F
     Copy CRC D3242F8F
     Accurately ripped (confidence 1)  [C5C32FA9]  (AR v2)
     Copy OK
Track  2
     Filename K:\3. my rip in preparation\3 - in treatment\1\CD4\02 - Republica - Stop the Rock.wav
     Pre-gap length  0:00:01.77
     Peak level 98.8 %
     Extraction speed 5.0 X
     Track quality 100.0 %
     Test CRC C6636CD3
     Copy CRC C6636CD3
     Accurately ripped (confidence 1)  [63411FFF]  (AR v2)
     Copy OK
Track  3
     Filename K:\3. my rip in preparation\3 - in treatment\1\CD4\03 - Scatman John - Scatman (Ski-Ba-Bop-Ba-Dop-Bop).wav
     Pre-gap length  0:00:01.77
     Peak level 98.8 %
     Extraction speed 4.9 X
     Track quality 99.9 %
     Test CRC 96BD7ADD
     Copy CRC 96BD7ADD
     Accurately ripped (confidence 1)  [07F6CBED]  (AR v2)
     Copy OK
Track  4
     Filename K:\3. my rip in preparation\3 - in treatment\1\CD4\04 - Rednex - Cotton Eye Joe.wav
     Pre-gap length  0:00:01.77
     Peak level 98.8 %
     Extraction speed 5.9 X
     Track quality 100.0 %
     Test CRC 37647D6F
     Copy CRC 37647D6F
     Accurately ripped (confidence 1)  [8FC49E34]  (AR v2)
     Copy OK
Track  5
     Filename K:\3. my rip in preparation\3 - in treatment\1\CD4\05 - B'Witched - C'est la vie.wav
     Pre-gap length  0:00:01.77
     Peak level 98.6 %
     Extraction speed 5.1 X
     Track quality 99.9 %
     Test CRC 2B678AA3
     Copy CRC 2B678AA3
     Accurately ripped (confidence 1)  [DAEF9280]  (AR v2)
     Copy OK
Track  6
     Filename K:\3. my rip in preparation\3 - in treatment\1\CD4\06 - Betty Boo - Doin' the Do.wav
     Pre-gap length  0:00:01.77
     Peak level 99.7 %
     Extraction speed 6.5 X
     Track quality 100.0 %
     Test CRC A70291AD
     Copy CRC A70291AD
     Accurately ripped (confidence 1)  [043CC9C1]  (AR v2)
     Copy OK
Track  7
     Filename K:\3. my rip in preparation\3 - in treatment\1\CD4\07 - NSYNC - I Want You Back.wav
     Pre-gap length  0:00:01.77
     Peak level 92.0 %
     Extraction speed 6.6 X
     Track quality 100.0 %
     Test CRC ABF4B436
     Copy CRC ABF4B436
     Accurately ripped (confidence 1)  [95373629]  (AR v2)
     Copy OK
Track  8
     Filename K:\3. my rip in preparation\3 - in treatment\1\CD4\08 - Los Del Rio - Macarena (Bayside Boys remix).wav
     Pre-gap length  0:00:01.77
     Peak level 94.3 %
     Extraction speed 7.0 X
     Track quality 100.0 %
     Test CRC 18D93B49
     Copy CRC 18D93B49
     Accurately ripped (confidence 1)  [E17F2812]  (AR v2)
     Copy OK
Track  9
     Filename K:\3. my rip in preparation\3 - in treatment\1\CD4\09 - Lou Bega - Mambo No.5 (a Little Bit of...).wav
     Pre-gap length  0:00:01.77
     Peak level 99.7 %
     Extraction speed 6.4 X
     Track quality 99.9 %
     Test CRC 8A1BA70F
     Copy CRC 8A1BA70F
     Accurately ripped (confidence 1)  [C817708B]  (AR v2)
     Copy OK
Track 10
     Filename K:\3. my rip in preparation\3 - in treatment\1\CD4\10 - Gipsy Kings - Volare (Nel blu dipinto di blu).wav
     Pre-gap length  0:00:01.77
     Peak level 98.8 %
     Extraction speed 7.5 X
     Track quality 100.0 %
     Test CRC 0CA85148
     Copy CRC 0CA85148
     Accurately ripped (confidence 1)  [87D29CF3]  (AR v2)
     Copy OK
Track 11
     Filename K:\3. my rip in preparation\3 - in treatment\1\CD4\11 - Meja - All 'Bout the Money.wav
     Pre-gap length  0:00:01.77
     Peak level 98.7 %
     Extraction speed 7.4 X
     Track quality 100.0 %
     Test CRC 1CB94E78
     Copy CRC 1CB94E78
     Accurately ripped (confidence 1)  [1C0DF9CE]  (AR v2)
     Copy OK
Track 12
     Filename K:\3. my rip in preparation\3 - in treatment\1\CD4\12 - New Kids on the Block - Step by Step.wav
     Pre-gap length  0:00:01.77
     Peak level 99.7 %
     Extraction speed 7.3 X
     Track quality 99.9 %
     Test CRC DB8807D0
     Copy CRC DB8807D0
     Accurately ripped (confidence 1)  [FE53FF19]  (AR v2)
     Copy OK
Track 13
     Filename K:\3. my rip in preparation\3 - in treatment\1\CD4\13 - Curtis Stigers - O Wonder Why.wav
     Pre-gap length  0:00:01.77
     Peak level 88.1 %
     Extraction speed 8.3 X
     Track quality 100.0 %
     Test CRC E2F0B41A
     Copy CRC E2F0B41A
     Accurately ripped (confidence 1)  [479E7E26]  (AR v2)
     Copy OK
Track 14
     Filename K:\3. my rip in preparation\3 - in treatment\1\CD4\14 - Wyclef Jean - Gone Till November.wav
     Pre-gap length  0:00:01.77
     Peak level 98.8 %
     Extraction speed 8.2 X
     Track quality 100.0 %
     Test CRC 241D5649
     Copy CRC 241D5649
     Accurately ripped (confidence 1)  [553F0C8B]  (AR v2)
     Copy OK
Track 15
     Filename K:\3. my rip in preparation\3 - in treatment\1\CD4\15 - Sophie B. Hawkins - Damn I Wish I Was Your Lover.wav
     Pre-gap length  0:00:01.77
     Peak level 98.8 %
     Extraction speed 9.0 X
     Track quality 100.0 %
     Test CRC 0A21D86B
     Copy CRC 0A21D86B
     Accurately ripped (confidence 1)  [54E4E6CD]  (AR v2)
     Copy OK
Track 16
     Filename K:\3. my rip in preparation\3 - in treatment\1\CD4\16 - Groove Armada - At the River.wav
     Pre-gap length  0:00:01.77
     Peak level 98.8 %
     Extraction speed 8.9 X
     Track quality 100.0 %
     Test CRC 8F1E98AA
     Copy CRC 8F1E98AA
     Accurately ripped (confidence 1)  [03317D74]  (AR v2)
     Copy OK
Track 17
     Filename K:\3. my rip in preparation\3 - in treatment\1\CD4\17 - Tal Bacham - She's So High.wav
     Pre-gap length  0:00:01.77
     Peak level 98.8 %
     Extraction speed 9.0 X
     Track quality 100.0 %
     Test CRC FEDBFD81
     Copy CRC FEDBFD81
     Accurately ripped (confidence 1)  [43849214]  (AR v2)
     Copy OK
Track 18
     Filename K:\3. my rip in preparation\3 - in treatment\1\CD4\18 - Jeff Buckley - Hallelujah.wav
     Pre-gap length  0:00:01.77
     Peak level 98.8 %
     Extraction speed 8.2 X
     Track quality 99.9 %
     Test CRC C12330A8
     Copy CRC C12330A8
     Accurately ripped (confidence 1)  [A9155DDF]  (AR v2)
     Copy OK
All tracks accurately ripped
No errors occurred
End of status report
---- CUETools DB Plugin V2.1.6
[CTDB TOCID: 1dFpQP44beNz7iJh6kVghPuQrAA-] found
Submit result: 1dFpQP44beNz7iJh6kVghPuQrAA- has been confirmed
Track | CTDB Status
  1   | (3/3) Accurately ripped
  2   | (3/3) Accurately ripped
  3   | (3/3) Accurately ripped
  4   | (3/3) Accurately ripped
  5   | (3/3) Accurately ripped
  6   | (3/3) Accurately ripped
  7   | (3/3) Accurately ripped
  8   | (3/3) Accurately ripped
  9   | (3/3) Accurately ripped
10   | (3/3) Accurately ripped
11   | (3/3) Accurately ripped
12   | (3/3) Accurately ripped
13   | (3/3) Accurately ripped
14   | (3/3) Accurately ripped
15   | (3/3) Accurately ripped
16   | (3/3) Accurately ripped
17   | (3/3) Accurately ripped
18   | (3/3) Accurately ripped

Индексная карта (non-compilant .cue)

CD 1

REM GENRE Pop
REM DATE 2015
REM DISCID EB10B012
REM COMMENT "ExactAudioCopy v1.1"
CATALOG 0888750855923
PERFORMER "Various Artists"
TITLE "Ultimate 90s: 4CDs of the Greatest Muisc from the 1990s (Disc 1)"
FILE "01 - Backstreet Boys - Everybody (Backstreet's Back).wav" WAVE
  TRACK 01 AUDIO
    TITLE "Everybody (Backstreet's Back)"
    PERFORMER "Backstreet Boys"
    ISRC USJI19710083
    INDEX 01 00:00:00
  TRACK 02 AUDIO
    TITLE "...Baby One More Time"
    PERFORMER "Britney Spears"
    INDEX 00 03:45:26
FILE "02 - Britney Spears - ...Baby One More Time.wav" WAVE
    INDEX 01 00:00:00
  TRACK 03 AUDIO
    TITLE "Shake Your Bon-Bon"
    PERFORMER "Ricky Martin"
    ISRC NLB639920062
    INDEX 00 03:30:16
FILE "03 - Ricky Martin - Shake Your Bon-Bon.wav" WAVE
    INDEX 01 00:00:00
  TRACK 04 AUDIO
    TITLE "It's My Life"
    PERFORMER "Dr. Alban"
    INDEX 00 03:09:47
FILE "04 - Dr. Alban - It's My Life.wav" WAVE
    INDEX 01 00:00:00
  TRACK 05 AUDIO
    TITLE "Another Night"
    PERFORMER "Real McCoy"
    ISRC DEC739400815
    INDEX 00 03:59:31
FILE "05 - Real McCoy - Another Night.wav" WAVE
    INDEX 01 00:00:00
  TRACK 06 AUDIO
    TITLE "Genie in a Bottle"
    PERFORMER "Christina Aguilera"
    ISRC USRC19900032
    INDEX 00 03:57:05
FILE "06 - Christina Aguilera - Genie in a Bottle.wav" WAVE
    INDEX 01 00:00:00
  TRACK 07 AUDIO
    TITLE "Gonna Make You Sweat (Everybody Dance Now)"
    PERFORMER "C & C Music Factory feat. Freedom Williams"
    ISRC USSM19000553
    INDEX 00 03:36:34
FILE "07 - C & C Music Factory feat. Freedom Williams - Gonna Make You Sweat (Everybody Dance Now).wav" WAVE
    INDEX 01 00:00:00
  TRACK 08 AUDIO
    TITLE "A Deeper Love"
    PERFORMER "Aretha Franklin"
    INDEX 00 04:03:57
FILE "08 - Aretha Franklin - A Deeper Love.wav" WAVE
    INDEX 01 00:00:00
  TRACK 09 AUDIO
    TITLE "Can't Get Enough of Your Love"
    PERFORMER "Taylor Dayne"
    ISRC USAR19300010
    INDEX 00 04:34:43
FILE "09 - Taylor Dayne - Can't Get Enough of Your Love.wav" WAVE
    INDEX 01 00:00:00
  TRACK 10 AUDIO
    TITLE "I'm Every Woman"
    PERFORMER "Whitney Houston"
    ISRC USAR19200003
    INDEX 00 04:24:59
FILE "10 - Whitney Houston - I'm Every Woman.wav" WAVE
    INDEX 01 00:00:00
  TRACK 11 AUDIO
    TITLE "Everybody Get Up"
    PERFORMER "Five"
    INDEX 00 04:45:43
FILE "11 - Five - Everybody Get Up.wav" WAVE
    INDEX 01 00:00:00
  TRACK 12 AUDIO
    TITLE "Waiting for Tonight"
    PERFORMER "Jennifer Lopez"
    ISRC USSM19900596
    INDEX 00 03:03:45
FILE "12 - Jennifer Lopez - Waiting for Tonight.wav" WAVE
    INDEX 01 00:00:00
  TRACK 13 AUDIO
    TITLE "Blue Angels"
    PERFORMER "Pras"
    ISRC USSM19802762
    INDEX 00 04:04:10
FILE "13 - Pras - Blue Angels.wav" WAVE
    INDEX 01 00:00:00
  TRACK 14 AUDIO
    TITLE "Tragedy"
    PERFORMER "Steps"
    ISRC GBAHK9800107
    INDEX 00 04:13:62
FILE "14 - Steps - Tragedy.wav" WAVE
    INDEX 01 00:00:00
  TRACK 15 AUDIO
    TITLE "I'm Outta Lova"
    PERFORMER "Anastacia"
    INDEX 00 04:29:56
FILE "15 - Anastacia - I'm Outta Lova.wav" WAVE
    INDEX 01 00:00:00
  TRACK 16 AUDIO
    TITLE "I've Got a Little Something for You"
    PERFORMER "MN8"
    ISRC GBBBN9500001
    INDEX 00 04:02:42
FILE "16 - MN8 - I've Got a Little Something for You.wav" WAVE
    INDEX 01 00:00:00
  TRACK 17 AUDIO
    TITLE "Where Love Lives"
    PERFORMER "Alison Limerick"
    ISRC GBARK9000004
    INDEX 00 03:39:45
FILE "17 - Alison Limerick - Where Love Lives.wav" WAVE
    INDEX 01 00:00:00
  TRACK 18 AUDIO
    TITLE "Moving On Up"
    PERFORMER "M Pople"
    ISRC GBARL9300289
    INDEX 00 03:47:68
FILE "18 - M Pople - Moving On Up.wav" WAVE
    INDEX 01 00:00:00

CD 2

REM GENRE Pop/Dance
REM DATE 2015
REM DISCID EF109F12
REM COMMENT "ExactAudioCopy v1.1"
CATALOG 0888750855923
PERFORMER "Various Artists"
TITLE "Ultimate 90s: 4CDs of the Greatest Muisc from the 1990s (Disc 2)"
FILE "01 - Run-D.M.C. vs. Jason Nevis - It's Lake That.wav" WAVE
  TRACK 01 AUDIO
    TITLE "It's Lake That"
    PERFORMER "Run-D.M.C. vs. Jason Nevis"
    ISRC USAR19700609
    INDEX 01 00:00:00
  TRACK 02 AUDIO
    TITLE "Boy You Knock Me Out"
    PERFORMER "Tatyana Ali"
    ISRC USSM19804196
    INDEX 00 04:10:20
FILE "02 - Tatyana Ali - Boy You Knock Me Out.wav" WAVE
    INDEX 01 00:00:00
  TRACK 03 AUDIO
    TITLE "Sommertime"
    PERFORMER "DJ Jazzy Jeff & The Fresh Prince"
    ISRC USJI10400926
    INDEX 00 03:58:61
FILE "03 - DJ Jazzy Jeff & The Fresh Prince - Sommertime.wav" WAVE
    INDEX 01 00:00:00
  TRACK 04 AUDIO
    TITLE "Life"
    PERFORMER "Des'ree"
    ISRC GBBBL9802021
    INDEX 00 03:56:33
FILE "04 - Des'ree - Life.wav" WAVE
    INDEX 01 00:00:00
  TRACK 05 AUDIO
    TITLE "She's Got That Vibe"
    PERFORMER "R. Kelly & Public Announcement"
    ISRC USJI10300554
    INDEX 00 03:09:19
FILE "05 - R. Kelly & Public Announcement - She's Got That Vibe.wav" WAVE
    INDEX 01 00:00:00
  TRACK 06 AUDIO
    TITLE "You're Not Alone"
    PERFORMER "Olive"
    ISRC GBARL9600174
    INDEX 00 03:19:37
FILE "06 - Olive - You're Not Alone.wav" WAVE
    INDEX 01 00:00:00
  TRACK 07 AUDIO
    TITLE "Change"
    PERFORMER "Lisa Stansfield"
    ISRC GBARK0600036
    INDEX 00 03:44:03
FILE "07 - Lisa Stansfield - Change.wav" WAVE
    INDEX 01 00:00:00
  TRACK 08 AUDIO
    TITLE "You Make Me Wanna..."
    PERFORMER "Usher"
    INDEX 00 04:16:61
FILE "08 - Usher - You Make Me Wanna....wav" WAVE
    INDEX 01 00:00:00
  TRACK 09 AUDIO
    TITLE "Angel of Mine"
    PERFORMER "Monica"
    ISRC USAR19800077
    INDEX 00 03:38:11
FILE "09 - Monica - Angel of Mine.wav" WAVE
    INDEX 01 00:00:00
  TRACK 10 AUDIO
    TITLE "Torn"
    PERFORMER "Natalia Imbruglia"
    ISRC GBARL9700412
    INDEX 00 04:09:48
FILE "10 - Natalia Imbruglia - Torn.wav" WAVE
    INDEX 01 00:00:00
  TRACK 11 AUDIO
    TITLE "Steel Bars"
    PERFORMER "Michael Bolton"
    ISRC USSM19100044
    INDEX 00 04:04:00
FILE "11 - Michael Bolton - Steel Bars.wav" WAVE
    INDEX 01 00:00:00
  TRACK 12 AUDIO
    TITLE "Think Twice"
    PERFORMER "Celin Dion"
    ISRC CAC229800142
    INDEX 00 03:28:22
FILE "12 - Celin Dion - Think Twice.wav" WAVE
    INDEX 01 00:00:00
  TRACK 13 AUDIO
    TITLE "I Need You"
    PERFORMER "3T"
    ISRC USSM19501654
    INDEX 00 04:46:38
FILE "13 - 3T - I Need You.wav" WAVE
    INDEX 01 00:00:00
  TRACK 14 AUDIO
    TITLE "Here We Are"
    PERFORMER "Gloria Estefan"
    ISRC USSM19926825
    INDEX 00 03:54:36
FILE "14 - Gloria Estefan - Here We Are.wav" WAVE
    INDEX 01 00:00:00
  TRACK 15 AUDIO
    TITLE "Bomb Diggy"
    PERFORMER "Another Level"
    ISRC GBCHT9900027
    INDEX 00 04:48:48
FILE "15 - Another Level - Bomb Diggy.wav" WAVE
    INDEX 01 00:00:00
  TRACK 16 AUDIO
    TITLE "Creep"
    PERFORMER "TLC"
    ISRC USLF29400135
    INDEX 00 03:34:15
FILE "16 - TLC - Creep.wav" WAVE
    INDEX 01 00:00:00
  TRACK 17 AUDIO
    TITLE "Shackles (Praise You)"
    PERFORMER "Mary Mary"
    INDEX 00 04:27:73
FILE "17 - Mary Mary - Shackles (Praise You).wav" WAVE
    INDEX 01 00:00:00
  TRACK 18 AUDIO
    TITLE "Westside"
    PERFORMER "TQ"
    ISRC USSM19704605
    INDEX 00 03:05:23
FILE "18 - TQ - Westside.wav" WAVE
    INDEX 01 00:00:00

CD 3

REM GENRE Pop/Dance
REM DATE 2015
REM DISCID ED0F2D11
REM COMMENT "ExactAudioCopy v1.1"
CATALOG 0888750855923
PERFORMER "Various Artists"
TITLE "Ultimate 90s: 4CDs of the Greatest Muisc from the 1990s (Disc 3)"
FILE "01 - The Boo Radleys - Wake Up Bo!.wav" WAVE
  TRACK 01 AUDIO
    TITLE "Wake Up Bo!"
    PERFORMER "The Boo Radleys"
    ISRC GBBQY0500011
    INDEX 01 00:00:00
  TRACK 02 AUDIO
    TITLE "Drop Dead Gorgeous"
    PERFORMER "Republica"
    ISRC GBARL9600218
    INDEX 00 03:05:72
FILE "02 - Republica - Drop Dead Gorgeous.wav" WAVE
    INDEX 01 00:00:00
  TRACK 03 AUDIO
    TITLE "Change"
    PERFORMER "Lightning Seeds"
    ISRC GBBBM9502001
    INDEX 00 03:30:33
FILE "03 - Lightning Seeds - Change.wav" WAVE
    INDEX 01 00:00:00
  TRACK 04 AUDIO
    TITLE "Place Your Hands"
    PERFORMER "Reef"
    ISRC GBBBL9600127
    INDEX 00 03:38:55
FILE "04 - Reef - Place Your Hands.wav" WAVE
    INDEX 01 00:00:00
  TRACK 05 AUDIO
    TITLE "Twp Princes"
    PERFORMER "Spin Doctors"
    ISRC USSM19000350
    INDEX 00 03:37:09
FILE "05 - Spin Doctors - Twp Princes.wav" WAVE
    INDEX 01 00:00:00
  TRACK 06 AUDIO
    TITLE "Hush"
    PERFORMER "Kula Shaker"
    ISRC GBBBN9601025
    INDEX 00 04:15:41
FILE "06 - Kula Shaker - Hush.wav" WAVE
    INDEX 01 00:00:00
  TRACK 07 AUDIO
    TITLE "Runaway Train"
    PERFORMER "Soul Asylum"
    ISRC USSM19200612
    INDEX 00 02:54:36
FILE "07 - Soul Asylum - Runaway Train.wav" WAVE
    INDEX 01 00:00:00
  TRACK 08 AUDIO
    TITLE "Mmm Mmm Mmm Mmm"
    PERFORMER "Crash Test Dummies"
    ISRC CAA359300084
    INDEX 00 04:25:20
FILE "08 - Crash Test Dummies - Mmm Mmm Mmm Mmm.wav" WAVE
    INDEX 01 00:00:00
  TRACK 09 AUDIO
    TITLE "Steal My Sunshine"
    PERFORMER "Len"
    ISRC USSM19900189
    INDEX 00 03:52:01
FILE "09 - Len - Steal My Sunshine.wav" WAVE
    INDEX 01 00:00:00
  TRACK 10 AUDIO
    TITLE "Fu-Gee-La"
    PERFORMER "Fugees"
    ISRC USSM19501946
    INDEX 00 03:59:15
FILE "10 - Fugees - Fu-Gee-La.wav" WAVE
    INDEX 01 00:00:00
  TRACK 11 AUDIO
    TITLE "Sunday Shining"
    PERFORMER "Finley Quaye"
    ISRC GBBBM9601001
    INDEX 00 04:14:62
FILE "11 - Finley Quaye - Sunday Shining.wav" WAVE
    INDEX 01 00:00:00
  TRACK 12 AUDIO
    TITLE "Here Comes the Hotstepper"
    PERFORMER "Ini Kamoze"
    ISRC USSM19802296
    INDEX 00 03:40:29
FILE "12 - Ini Kamoze - Here Comes the Hotstepper.wav" WAVE
    INDEX 01 00:00:00
  TRACK 13 AUDIO
    TITLE "Shy Guy"
    PERFORMER "Diana King"
    ISRC USSM19805699
    INDEX 00 04:08:15
FILE "13 - Diana King - Shy Guy.wav" WAVE
    INDEX 01 00:00:00
  TRACK 14 AUDIO
    TITLE "Mr. Loverman"
    PERFORMER "Shabba Ranks feat. Chevelle Franklin"
    ISRC USSM19909449
    INDEX 00 04:03:74
FILE "14 - Shabba Ranks feat. Chevelle Franklin - Mr. Loverman.wav" WAVE
    INDEX 01 00:00:00
  TRACK 15 AUDIO
    TITLE "Insane in the Brain"
    PERFORMER "Cypress Hill"
    ISRC USSM19303133
    INDEX 00 03:35:06
FILE "15 - Cypress Hill - Insane in the Brain.wav" WAVE
    INDEX 01 00:00:00
  TRACK 16 AUDIO
    TITLE "Can I Kick It"
    PERFORMER "I Tribe Called Quest"
    ISRC USJI10300400
    INDEX 00 03:27:34
FILE "16 - I Tribe Called Quest - Can I Kick It.wav" WAVE
    INDEX 01 00:00:00
  TRACK 17 AUDIO
    TITLE "Butterfly"
    PERFORMER "Crazy Town"
    ISRC USSM19911593
    INDEX 00 04:11:50
FILE "17 - Crazy Town - Butterfly.wav" WAVE
    INDEX 01 00:00:00

CD 4

REM GENRE Pop/Dance
REM DATE 2015
REM DISCID E00FF112
REM COMMENT "ExactAudioCopy v1.1"
CATALOG 0888750855923
PERFORMER "Various Artists"
TITLE "Ultimate 90s: 4CDs of the Greatest Muisc from the 1990s (Disc 4)"
FILE "01 - Faithless - Insomnia.wav" WAVE
  TRACK 01 AUDIO
    TITLE "Insomnia"
    PERFORMER "Faithless"
    ISRC GBBXH9600001
    INDEX 01 00:00:00
  TRACK 02 AUDIO
    TITLE "Stop the Rock"
    PERFORMER "Republica"
    ISRC GBBBM9902148
    INDEX 00 03:33:32
FILE "02 - Republica - Stop the Rock.wav" WAVE
    INDEX 01 00:00:00
  TRACK 03 AUDIO
    TITLE "Scatman (Ski-Ba-Bop-Ba-Dop-Bop)"
    PERFORMER "Scatman John"
    ISRC DEC769400262
    INDEX 00 03:31:69
FILE "03 - Scatman John - Scatman (Ski-Ba-Bop-Ba-Dop-Bop).wav" WAVE
    INDEX 01 00:00:00
  TRACK 04 AUDIO
    TITLE "Cotton Eye Joe"
    PERFORMER "Rednex"
    ISRC GBAHK9400110
    INDEX 00 03:31:52
FILE "04 - Rednex - Cotton Eye Joe.wav" WAVE
    INDEX 01 00:00:00
  TRACK 05 AUDIO
    TITLE "C'est la vie"
    PERFORMER "B'Witched"
    ISRC GBBBM9800202
    INDEX 00 03:10:51
FILE "05 - B'Witched - C'est la vie.wav" WAVE
    INDEX 01 00:00:00
  TRACK 06 AUDIO
    TITLE "Doin' the Do"
    PERFORMER "Betty Boo"
    ISRC GBARL9000009
    INDEX 00 02:51:36
FILE "06 - Betty Boo - Doin' the Do.wav" WAVE
    INDEX 01 00:00:00
  TRACK 07 AUDIO
    TITLE "I Want You Back"
    PERFORMER "NSYNC"
    ISRC DEA819600477
    INDEX 00 03:40:54
FILE "07 - NSYNC - I Want You Back.wav" WAVE
    INDEX 01 00:00:00
  TRACK 08 AUDIO
    TITLE "Macarena (Bayside Boys remix)"
    PERFORMER "Los Del Rio"
    ISRC ES5109500537
    INDEX 00 03:19:47
FILE "08 - Los Del Rio - Macarena (Bayside Boys remix).wav" WAVE
    INDEX 01 00:00:00
  TRACK 09 AUDIO
    TITLE "Mambo No.5 (a Little Bit of...)"
    PERFORMER "Lou Bega"
    ISRC DEH259900010
    INDEX 00 03:51:41
FILE "09 - Lou Bega - Mambo No.5 (a Little Bit of...).wav" WAVE
    INDEX 01 00:00:00
  TRACK 10 AUDIO
    TITLE "Volare (Nel blu dipinto di blu)"
    PERFORMER "Gipsy Kings"
    ISRC GBAAW0202208
    INDEX 00 03:38:23
FILE "10 - Gipsy Kings - Volare (Nel blu dipinto di blu).wav" WAVE
    INDEX 01 00:00:00
  TRACK 11 AUDIO
    TITLE "All 'Bout the Money"
    PERFORMER "Meja"
    ISRC SEBGA9712040
    INDEX 00 03:38:19
FILE "11 - Meja - All 'Bout the Money.wav" WAVE
    INDEX 01 00:00:00
  TRACK 12 AUDIO
    TITLE "Step by Step"
    PERFORMER "New Kids on the Block"
    ISRC USSM19000466
    INDEX 00 02:52:03
FILE "12 - New Kids on the Block - Step by Step.wav" WAVE
    INDEX 01 00:00:00
  TRACK 13 AUDIO
    TITLE "O Wonder Why"
    PERFORMER "Curtis Stigers"
    ISRC USAR19100185
    INDEX 00 04:26:33
FILE "13 - Curtis Stigers - O Wonder Why.wav" WAVE
    INDEX 01 00:00:00
  TRACK 14 AUDIO
    TITLE "Gone Till November"
    PERFORMER "Wyclef Jean"
    ISRC USSM19700807
    INDEX 00 04:25:31
FILE "14 - Wyclef Jean - Gone Till November.wav" WAVE
    INDEX 01 00:00:00
  TRACK 15 AUDIO
    TITLE "Damn I Wish I Was Your Lover"
    PERFORMER "Sophie B. Hawkins"
    ISRC USSM10019593
    INDEX 00 03:27:44
FILE "15 - Sophie B. Hawkins - Damn I Wish I Was Your Lover.wav" WAVE
    INDEX 01 00:00:00
  TRACK 16 AUDIO
    TITLE "At the River"
    PERFORMER "Groove Armada"
    ISRC GBAHK0500017
    INDEX 00 05:22:32
FILE "16 - Groove Armada - At the River.wav" WAVE
    INDEX 01 00:00:00
  TRACK 17 AUDIO
    TITLE "She's So High"
    PERFORMER "Tal Bacham"
    ISRC USSM19802720
    INDEX 00 04:08:55
FILE "17 - Tal Bacham - She's So High.wav" WAVE
    INDEX 01 00:00:00
  TRACK 18 AUDIO
    TITLE "Hallelujah"
    PERFORMER "Jeff Buckley"
    ISRC USSM10800937
    INDEX 00 03:44:17
FILE "18 - Jeff Buckley - Hallelujah.wav" WAVE
    INDEX 01 00:00:00
--
[Профиль] [ЛС]
Показать сообщения:    

Текущее время: Сегодня 02:24

Часовой пояс: GMT



Вы не можете начинать темы
Вы не можете отвечать на сообщения
Вы не можете редактировать свои сообщения
Вы не можете удалять свои сообщения
Вы не можете голосовать в опросах
Вы не можете прикреплять файлы к сообщениям
Вы не можете скачивать файлы