(Pop, Disco, Rock) VA - Ultimate... 70s (Of The Great Music From The 1970s) (4CD) - 2015 [FLAC, tracks +.cue, lossless]

 
Автор Сообщение

sergej644 ®

Пол:

Стаж: 4 года 11 месяцев

Сообщений: 6046

Откуда: Soviet Union



Награды: Нет

Торрент-статистика

Создавать темы 31-Янв-2016 18:32

[Цитировать]

-VA - Ultimate... 70s (4CD)--
Год издания: 2015
Страна: n/a
Жанр: Pop, Disco, Rock
Продолжительность: 04:25:07-Лейбл издания: Sony Music
Тип альбома: Compilation
Страна-выпуска диска: EU
Номер по каталогу: 88875085552-Формат: FLAC
Битрейт аудио: Lossless
Тип рипа: tracks +.cue
Наличие сканов в содержимом раздачи: да
-

Трэклист

Disc 1 / 01:05:58


01. Sweet - Blockbusters (03:15)
02. Electric Light Orchestra - Mr. Blue Sky (05:06)
03. Billy Joel - My Life (04:45)
04. Billy Ocean - Love Really Hurts Without You (03:01)
05. Baccara - Yes Sir, I Can Boogie (04:33)
06. The Jacksons - Blame It on the Boogie (03:36)
07. Odyssey - Native New Yorker (03:29)
08. Christie - Yellow River (02:48)
09. Dolly Parton - Jolene (02:42)
10. Tammy Wynette - Stand by Your Man (02:40)
11. Elvis Presley - The Wonder of You (02:37)
12. Eric Carmen - All by Myself (04:53)
13. Argent - Hold Your Head Up (06:19)
14. Booston - More Than a Feeling (03:31)
15. Rich Girl - Daryl Hall & John Oates (02:26)
16. Dr. Hook & The Medicine Show - Sylvia's Mother (03:51)
17. Sad Cafe - Every Day Hurts (04:05)
18. Bob Dylan - Knockin' on a Heaven's Door (02:31)

Disc 2 / 01:09:07


01. Tina Charles - I Love to Love (03:06)
02. Dan Hartman - Instant Replay (05:20)
03. Andrea True Connection - More, More, More (03:06)
04. Heatwave - Boogie Nights (03:38)
05. The Hues Corporation - Rock the Boat (03:09)
06. Cheryl Lynn - Got to Be Real (03:46)
07. Harold Melvin & The Blue Notes - The Love I Lost (03:34)
08. The Three Degrees - When Will I See You Again (03:01)
09. MFSB - TSOP (The Sound of Philadelphia) (03:46)
10. The O'Jays - Love Train (03:00)
11. The Emotions - Best of My Love (03:42)
12. Earth, Wind & Fire - September (03:35)
13. Melba Moore - This Is It (03:31)
14. Wild Cherry - Play That Funky Music (03:05)
15. Sly & The Family Stone - Family Affair (03:07)
16. The Isley Brothers - Summer Breeze (03:09)
17. Gladys Knight & The Pips - Midnight Train to Georgia (04:39)
18. Billy Paul - Me & Mrs. Jones (04:42)
19. Bill Withers - Lean on Me (04:19)

Disc 3 / 01:04:40


01. Terry Jacks - Seasons in the Sun (03:28)
02. Johnny Nash - I Can See Clearly Now (02:43)
03. Boz Scaggs - Lido Shuffle (03:43)
04. Mott the Hoople - Roll Away the Stone (03:15)
05. LaBelle - Lady Marmalade (03:57)
06. Middle of the Road - Chirpy Chirpy Cheep Cheep (02:58)
07. John Denver - Leaving on a Jet Plane (03:39)
08. Dawn - Tie a Yellow Ribbon Round the Old Oak Tree (03:27)
09. Bay City Rollers - Bye Bye Baby (02:46)
10. Boney M. - Rivers of Babylon (04:01)
11. Eruption - One Way Ticket (03:35)
12. Sailor - Girls, Girls, Girls (03:05)
13. Linda Lewis - It's in His Kiss (03:21)
14. Barry Manilow - Mandy (02:53)
15. The Alan Parsons Project - I Wouldn't Want to Be Like You (03:23)
16. Lou Reed - Walk on the Wild Side (04:15)
17. Melanie - Ruby Tuesday (04:36)
18. The Walker Brothers - No Regrets (05:43)

Disc 4 / 01:05:24


01. Art Garfunkel - I Only Have Eyes for You (03:39)
02. Billy Swan - I Can Help (03:59)
03. Sutherland Brothers & Quiver - Arms of Mary (02:38)
04. Albert Hammond - It Never Rains in Southern California (03:53)
05. Kansas - Dust in the Wind (03:27)
06. The Mash - Suicide Is Painless (from the 20th Century-Fox Film 'MASH') (02:56)
07. Andy Williams - Where Do I Begin (Theme From 'Love Story') (03:12)
08. Lynn Anderson - Rose Garden (02:57)
09. The Pointer Sisters - Fire (03:26)
10. Evelyn 'Champagne' King - Shame (03:00)
11. Brick - Dazz (05:38)
12. Jackie DeShannon - Bette Davis Eyes (02:48)
13. Meat Loaf - Paradise by the Dashboard Light (05:32)
14. The Edgar Winter Group - Frankenstein (03:28)
15. Santana - Oye como va (04:17)
16. Cheap Trick - I Want You to Want Me (03:14)
17. Smokie - It's Your Life (03:35)
18. Harry Nilsson - Coconut (03:53)
-

Лог создания рипа

CD 1

Exact Audio Copy V1.1 from 23. June 2015
EAC extraction logfile from 1. December 2015, 12:42
Various Artists / Ultimate 70s: 4CDs of the Great Music from the 1970s (Disc 1)
Used drive  : ASUS    BW-12D1S-U   Adapter: 1  ID: 1
Read mode               : Secure
Utilize accurate stream : Yes
Defeat audio cache      : Yes
Make use of C2 pointers : No
Read offset correction                      : 667
Overread into Lead-In and Lead-Out          : No
Fill up missing offset samples with silence : Yes
Delete leading and trailing silent blocks   : No
Null samples used in CRC calculations       : Yes
Used interface                              : Native Win32 interface for Win NT & 2000
Gap handling                                : Appended to previous track
Used output format              : User Defined Encoder
Selected bitrate                : 1024 kBit/s
Quality                         : High
Add ID3 tag                     : No
Command line compressor         : C:\Program Files (x86)\Kodeki za Glasbo\flac v1.3.1\win64\flac.exe
Additional command line options : -8 -V -T "ARTIST=%artist%" -T "TITLE=%title%" -T "ALBUM=%albumtitle%" -T "DATE=%year%" -T "TRACKNUMBER=%tracknr%" -T "TOTALTRACKS=%numtracks%" -T "GENRE=%genre%" -T "ALBUMARTIST=%albumartist%" -T "ALBUM ARTIST=%albumartist%" -T "COMMENT=EAC Secure Mode, Test & Copy, AccurateRip, FLAC -8" %source%
TOC of the extracted CD
     Track |   Start  |  Length  | Start sector | End sector
    ---------------------------------------------------------
        1  |  0:00.00 |  3:14.03 |         0    |    14552
        2  |  3:14.03 |  5:05.30 |     14553    |    37457
        3  |  8:19.33 |  4:44.52 |     37458    |    58809
        4  | 13:04.10 |  3:00.54 |     58810    |    72363
        5  | 16:04.64 |  4:32.38 |     72364    |    92801
        6  | 20:37.27 |  3:35.26 |     92802    |   108952
        7  | 24:12.53 |  3:28.14 |    108953    |   124566
        8  | 27:40.67 |  2:47.41 |    124567    |   137132
        9  | 30:28.33 |  2:41.35 |    137133    |   149242
       10  | 33:09.68 |  2:39.13 |    149243    |   161180
       11  | 35:49.06 |  2:36.15 |    161181    |   172895
       12  | 38:25.21 |  4:52.03 |    172896    |   194798
       13  | 43:17.24 |  6:18.40 |    194799    |   223188
       14  | 49:35.64 |  3:30.07 |    223189    |   238945
       15  | 53:05.71 |  2:25.48 |    238946    |   249868
       16  | 55:31.44 |  3:50.47 |    249869    |   267165
       17  | 59:22.16 |  4:04.20 |    267166    |   285485
       18  | 63:26.36 |  2:30.71 |    285486    |   296806
Track  1
     Filename K:\3. my rip in preparation\3 - in treatment\VA - Ultimate 70s, 4CDs of the Great Music from the 1970s (2015) [FLAC] {4CD, Sony Music 88875085552}\CD1\01 - Sweet - Blockbusters.wav
     Pre-gap length  0:00:02.00
     Peak level 98.4 %
     Extraction speed 4.6 X
     Track quality 100.0 %
     Test CRC 9660369C
     Copy CRC 9660369C
     Accurately ripped (confidence 1)  [3FE1D3B9]  (AR v2)
     Copy OK
Track  2
     Filename K:\3. my rip in preparation\3 - in treatment\VA - Ultimate 70s, 4CDs of the Great Music from the 1970s (2015) [FLAC] {4CD, Sony Music 88875085552}\CD1\02 - Electric Light Orchestra - Mr. Blue Sky.wav
     Pre-gap length  0:00:01.77
     Peak level 98.6 %
     Extraction speed 5.4 X
     Track quality 100.0 %
     Test CRC B4F5C1E3
     Copy CRC B4F5C1E3
     Accurately ripped (confidence 1)  [209206CA]  (AR v2)
     Copy OK
Track  3
     Filename K:\3. my rip in preparation\3 - in treatment\VA - Ultimate 70s, 4CDs of the Great Music from the 1970s (2015) [FLAC] {4CD, Sony Music 88875085552}\CD1\03 - Billy Joel - My Life.wav
     Pre-gap length  0:00:01.77
     Peak level 99.7 %
     Extraction speed 5.9 X
     Track quality 100.0 %
     Test CRC 305E3DB4
     Copy CRC 305E3DB4
     Accurately ripped (confidence 1)  [5AE0D208]  (AR v2)
     Copy OK
Track  4
     Filename K:\3. my rip in preparation\3 - in treatment\VA - Ultimate 70s, 4CDs of the Great Music from the 1970s (2015) [FLAC] {4CD, Sony Music 88875085552}\CD1\04 - Billy Ocean - Love Really Hurts Without You.wav
     Pre-gap length  0:00:01.77
     Peak level 69.5 %
     Extraction speed 5.8 X
     Track quality 100.0 %
     Test CRC A94B760E
     Copy CRC A94B760E
     Accurately ripped (confidence 1)  [99202214]  (AR v2)
     Copy OK
Track  5
     Filename K:\3. my rip in preparation\3 - in treatment\VA - Ultimate 70s, 4CDs of the Great Music from the 1970s (2015) [FLAC] {4CD, Sony Music 88875085552}\CD1\05 - Baccara - Yes Sir, I Can Boogie.wav
     Pre-gap length  0:00:01.77
     Peak level 87.8 %
     Extraction speed 6.5 X
     Track quality 100.0 %
     Test CRC D6522204
     Copy CRC D6522204
     Accurately ripped (confidence 1)  [134E95F8]  (AR v2)
     Copy OK
Track  6
     Filename K:\3. my rip in preparation\3 - in treatment\VA - Ultimate 70s, 4CDs of the Great Music from the 1970s (2015) [FLAC] {4CD, Sony Music 88875085552}\CD1\06 - The Jacksons - Blame It on the Boogie.wav
     Pre-gap length  0:00:01.77
     Peak level 98.8 %
     Extraction speed 6.6 X
     Track quality 100.0 %
     Test CRC 6F01762E
     Copy CRC 6F01762E
     Accurately ripped (confidence 1)  [0581982C]  (AR v2)
     Copy OK
Track  7
     Filename K:\3. my rip in preparation\3 - in treatment\VA - Ultimate 70s, 4CDs of the Great Music from the 1970s (2015) [FLAC] {4CD, Sony Music 88875085552}\CD1\07 - Odyssey - Native New Yorker.wav
     Pre-gap length  0:00:01.77
     Peak level 99.7 %
     Extraction speed 6.8 X
     Track quality 100.0 %
     Test CRC 4A551822
     Copy CRC 4A551822
     Accurately ripped (confidence 1)  [AA448970]  (AR v2)
     Copy OK
Track  8
     Filename K:\3. my rip in preparation\3 - in treatment\VA - Ultimate 70s, 4CDs of the Great Music from the 1970s (2015) [FLAC] {4CD, Sony Music 88875085552}\CD1\08 - Christie - Yellow River.wav
     Pre-gap length  0:00:01.77
     Peak level 98.5 %
     Extraction speed 6.8 X
     Track quality 100.0 %
     Test CRC 02C84096
     Copy CRC 02C84096
     Accurately ripped (confidence 1)  [7E17F556]  (AR v2)
     Copy OK
Track  9
     Filename K:\3. my rip in preparation\3 - in treatment\VA - Ultimate 70s, 4CDs of the Great Music from the 1970s (2015) [FLAC] {4CD, Sony Music 88875085552}\CD1\09 - Dolly Parton - Jolene.wav
     Pre-gap length  0:00:01.77
     Peak level 98.6 %
     Extraction speed 6.9 X
     Track quality 100.0 %
     Test CRC 2944BD40
     Copy CRC 2944BD40
     Accurately ripped (confidence 1)  [7F6D741D]  (AR v2)
     Copy OK
Track 10
     Filename K:\3. my rip in preparation\3 - in treatment\VA - Ultimate 70s, 4CDs of the Great Music from the 1970s (2015) [FLAC] {4CD, Sony Music 88875085552}\CD1\10 - Tammy Wynette - Stand by Your Man.wav
     Pre-gap length  0:00:01.77
     Peak level 93.4 %
     Extraction speed 7.1 X
     Track quality 100.0 %
     Test CRC 06F3B47B
     Copy CRC 06F3B47B
     Accurately ripped (confidence 1)  [C9F9B419]  (AR v2)
     Copy OK
Track 11
     Filename K:\3. my rip in preparation\3 - in treatment\VA - Ultimate 70s, 4CDs of the Great Music from the 1970s (2015) [FLAC] {4CD, Sony Music 88875085552}\CD1\11 - Elvis Presley - The Wonder of You.wav
     Pre-gap length  0:00:01.77
     Peak level 91.8 %
     Extraction speed 7.2 X
     Track quality 100.0 %
     Test CRC DF13F1BC
     Copy CRC DF13F1BC
     Accurately ripped (confidence 1)  [817DD401]  (AR v2)
     Copy OK
Track 12
     Filename K:\3. my rip in preparation\3 - in treatment\VA - Ultimate 70s, 4CDs of the Great Music from the 1970s (2015) [FLAC] {4CD, Sony Music 88875085552}\CD1\12 - Eric Carmen - All by Myself.wav
     Pre-gap length  0:00:01.77
     Peak level 87.6 %
     Extraction speed 8.0 X
     Track quality 100.0 %
     Test CRC 96652D4F
     Copy CRC 96652D4F
     Accurately ripped (confidence 1)  [173E438A]  (AR v2)
     Copy OK
Track 13
     Filename K:\3. my rip in preparation\3 - in treatment\VA - Ultimate 70s, 4CDs of the Great Music from the 1970s (2015) [FLAC] {4CD, Sony Music 88875085552}\CD1\13 - Argent - Hold Your Head Up.wav
     Pre-gap length  0:00:01.77
     Peak level 99.7 %
     Extraction speed 8.6 X
     Track quality 100.0 %
     Test CRC 2DEE311D
     Copy CRC 2DEE311D
     Accurately ripped (confidence 1)  [05B74E3D]  (AR v2)
     Copy OK
Track 14
     Filename K:\3. my rip in preparation\3 - in treatment\VA - Ultimate 70s, 4CDs of the Great Music from the 1970s (2015) [FLAC] {4CD, Sony Music 88875085552}\CD1\14 - Booston - More Than a Feeling.wav
     Pre-gap length  0:00:01.77
     Peak level 98.7 %
     Extraction speed 8.2 X
     Track quality 100.0 %
     Test CRC F3F55C24
     Copy CRC F3F55C24
     Accurately ripped (confidence 1)  [8037E0CF]  (AR v2)
     Copy OK
Track 15
     Filename K:\3. my rip in preparation\3 - in treatment\VA - Ultimate 70s, 4CDs of the Great Music from the 1970s (2015) [FLAC] {4CD, Sony Music 88875085552}\CD1\15 - Rich Girl - Daryl Hall & John Oates.wav
     Pre-gap length  0:00:01.77
     Peak level 98.8 %
     Extraction speed 7.9 X
     Track quality 100.0 %
     Test CRC BACB88B5
     Copy CRC BACB88B5
     Accurately ripped (confidence 1)  [B5F37094]  (AR v2)
     Copy OK
Track 16
     Filename K:\3. my rip in preparation\3 - in treatment\VA - Ultimate 70s, 4CDs of the Great Music from the 1970s (2015) [FLAC] {4CD, Sony Music 88875085552}\CD1\16 - Dr. Hook & The Medicine Show - Sylvia's Mother.wav
     Pre-gap length  0:00:01.77
     Peak level 98.5 %
     Extraction speed 8.6 X
     Track quality 100.0 %
     Test CRC B1BE5C23
     Copy CRC B1BE5C23
     Accurately ripped (confidence 1)  [C32BFD65]  (AR v2)
     Copy OK
Track 17
     Filename K:\3. my rip in preparation\3 - in treatment\VA - Ultimate 70s, 4CDs of the Great Music from the 1970s (2015) [FLAC] {4CD, Sony Music 88875085552}\CD1\17 - Sad Cafe - Every Day Hurts.wav
     Pre-gap length  0:00:01.77
     Peak level 98.5 %
     Extraction speed 8.9 X
     Track quality 100.0 %
     Test CRC 58C5E645
     Copy CRC 58C5E645
     Accurately ripped (confidence 1)  [31269278]  (AR v2)
     Copy OK
Track 18
     Filename K:\3. my rip in preparation\3 - in treatment\VA - Ultimate 70s, 4CDs of the Great Music from the 1970s (2015) [FLAC] {4CD, Sony Music 88875085552}\CD1\18 - Bob Dylan - Knockin' on a Heaven's Door.wav
     Pre-gap length  0:00:01.77
     Peak level 99.7 %
     Extraction speed 8.4 X
     Track quality 100.0 %
     Test CRC 66FC3EEF
     Copy CRC 66FC3EEF
     Accurately ripped (confidence 1)  [269FFACD]  (AR v2)
     Copy OK
All tracks accurately ripped
No errors occurred
End of status report
---- CUETools DB Plugin V2.1.6
[CTDB TOCID: wOyZ0YC0MUecTn72RyattGb8fJU-] found
Submit result: wOyZ0YC0MUecTn72RyattGb8fJU- has been confirmed
Track | CTDB Status
  1   | (7/7) Accurately ripped
  2   | (7/7) Accurately ripped
  3   | (7/7) Accurately ripped
  4   | (7/7) Accurately ripped
  5   | (7/7) Accurately ripped
  6   | (7/7) Accurately ripped
  7   | (7/7) Accurately ripped
  8   | (7/7) Accurately ripped
  9   | (7/7) Accurately ripped
10   | (7/7) Accurately ripped
11   | (7/7) Accurately ripped
12   | (7/7) Accurately ripped
13   | (7/7) Accurately ripped
14   | (7/7) Accurately ripped
15   | (7/7) Accurately ripped
16   | (7/7) Accurately ripped
17   | (7/7) Accurately ripped
18   | (7/7) Accurately ripped

CD 2

Exact Audio Copy V1.1 from 23. June 2015
EAC extraction logfile from 20. December 2015, 16:19
Various Artists / Ultimate 70s: 4CDs of the Great Music from the 1970s (Disc 2)
Used drive  : ASUS    BW-12D1S-U   Adapter: 1  ID: 1
Read mode               : Secure
Utilize accurate stream : Yes
Defeat audio cache      : Yes
Make use of C2 pointers : No
Read offset correction                      : 667
Overread into Lead-In and Lead-Out          : No
Fill up missing offset samples with silence : Yes
Delete leading and trailing silent blocks   : No
Null samples used in CRC calculations       : Yes
Used interface                              : Native Win32 interface for Win NT & 2000
Gap handling                                : Appended to previous track
Used output format              : User Defined Encoder
Selected bitrate                : 1024 kBit/s
Quality                         : High
Add ID3 tag                     : No
Command line compressor         : C:\Program Files (x86)\Music Codec\flac1.3.1\win64\flac.exe
Additional command line options : -8 -V -T "ARTIST=%artist%" -T "TITLE=%title%" -T "ALBUM=%albumtitle%" -T "DATE=%year%" -T "TRACKNUMBER=%tracknr%" -T "TOTALTRACKS=%numtracks%" -T "GENRE=%genre%" -T "ALBUMARTIST=%albumartist%" -T "ALBUM ARTIST=%albumartist%" -T "COMMENT=EAC Secure Mode, Test & Copy, AccurateRip, FLAC -8" %source%
TOC of the extracted CD
     Track |   Start  |  Length  | Start sector | End sector
    ---------------------------------------------------------
        1  |  0:00.00 |  3:05.46 |         0    |    13920
        2  |  3:05.46 |  5:19.31 |     13921    |    37876
        3  |  8:25.02 |  3:05.12 |     37877    |    51763
        4  | 11:30.14 |  3:37.28 |     51764    |    68066
        5  | 15:07.42 |  3:08.31 |     68067    |    82197
        6  | 18:15.73 |  3:45.61 |     82198    |    99133
        7  | 22:01.59 |  3:34.00 |     99134    |   115183
        8  | 25:35.59 |  3:00.19 |    115184    |   128702
        9  | 28:36.03 |  3:45.54 |    128703    |   145631
       10  | 32:21.57 |  2:59.11 |    145632    |   159067
       11  | 35:20.68 |  3:41.56 |    159068    |   175698
       12  | 39:02.49 |  3:34.19 |    175699    |   191767
       13  | 42:36.68 |  3:30.65 |    191768    |   207582
       14  | 46:07.58 |  3:04.60 |    207583    |   221442
       15  | 49:12.43 |  3:06.34 |    221443    |   235426
       16  | 52:19.02 |  3:08.02 |    235427    |   249528
       17  | 55:27.04 |  4:38.54 |    249529    |   270432
       18  | 60:05.58 |  4:41.49 |    270433    |   291556
       19  | 64:47.32 |  4:18.46 |    291557    |   310952
Track  1
     Filename H:\3. my rip in preparation\1 - finished xbtmusic\knjiznica domzale\CD2\01 - Tina Charles - I Love to Love.wav
     Pre-gap length  0:00:02.00
     Peak level 98.5 %
     Extraction speed 4.1 X
     Track quality 99.9 %
     Test CRC 15D33DD7
     Copy CRC 15D33DD7
     Accurately ripped (confidence 1)  [ACD52A93]  (AR v2)
     Copy OK
Track  2
     Filename H:\3. my rip in preparation\1 - finished xbtmusic\knjiznica domzale\CD2\02 - Dan Hartman - Instant Replay.wav
     Pre-gap length  0:00:01.77
     Peak level 98.7 %
     Extraction speed 5.5 X
     Track quality 100.0 %
     Test CRC 418A57B8
     Copy CRC 418A57B8
     Accurately ripped (confidence 1)  [3A988F48]  (AR v2)
     Copy OK
Track  3
     Filename H:\3. my rip in preparation\1 - finished xbtmusic\knjiznica domzale\CD2\03 - Andrea True Connection - More, More, More.wav
     Pre-gap length  0:00:01.77
     Peak level 98.7 %
     Extraction speed 5.6 X
     Track quality 100.0 %
     Test CRC 42C2913D
     Copy CRC 42C2913D
     Accurately ripped (confidence 1)  [09B5072B]  (AR v2)
     Copy OK
Track  4
     Filename H:\3. my rip in preparation\1 - finished xbtmusic\knjiznica domzale\CD2\04 - Heatwave - Boogie Nights.wav
     Pre-gap length  0:00:01.77
     Peak level 98.5 %
     Extraction speed 6.0 X
     Track quality 100.0 %
     Test CRC 1AF9A8B9
     Copy CRC 1AF9A8B9
     Accurately ripped (confidence 1)  [0A1841E2]  (AR v2)
     Copy OK
Track  5
     Filename H:\3. my rip in preparation\1 - finished xbtmusic\knjiznica domzale\CD2\05 - The Hues Corporation - Rock the Boat.wav
     Pre-gap length  0:00:01.77
     Peak level 97.7 %
     Extraction speed 6.1 X
     Track quality 100.0 %
     Test CRC 27DFC3A6
     Copy CRC 27DFC3A6
     Accurately ripped (confidence 1)  [9A6D95CA]  (AR v2)
     Copy OK
Track  6
     Filename H:\3. my rip in preparation\1 - finished xbtmusic\knjiznica domzale\CD2\06 - Cheryl Lynn - Got to Be Real.wav
     Pre-gap length  0:00:01.77
     Peak level 87.8 %
     Extraction speed 6.6 X
     Track quality 100.0 %
     Test CRC 534E12E0
     Copy CRC 534E12E0
     Accurately ripped (confidence 1)  [BFA93041]  (AR v2)
     Copy OK
Track  7
     Filename H:\3. my rip in preparation\1 - finished xbtmusic\knjiznica domzale\CD2\07 - Harold Melvin & The Blue Notes - The Love I Lost.wav
     Pre-gap length  0:00:01.77
     Peak level 99.7 %
     Extraction speed 6.8 X
     Track quality 100.0 %
     Test CRC B0CF77A4
     Copy CRC B0CF77A4
     Accurately ripped (confidence 1)  [21878B8E]  (AR v2)
     Copy OK
Track  8
     Filename H:\3. my rip in preparation\1 - finished xbtmusic\knjiznica domzale\CD2\08 - The Three Degrees - When Will I See You Again.wav
     Pre-gap length  0:00:01.77
     Peak level 98.5 %
     Extraction speed 5.9 X
     Track quality 99.9 %
     Test CRC 582D5EC1
     Copy CRC 582D5EC1
     Accurately ripped (confidence 1)  [8C17AE3F]  (AR v2)
     Copy OK
Track  9
     Filename H:\3. my rip in preparation\1 - finished xbtmusic\knjiznica domzale\CD2\09 - MFSB - TSOP (The Sound of Philadelphia).wav
     Pre-gap length  0:00:01.77
     Peak level 98.7 %
     Extraction speed 7.4 X
     Track quality 100.0 %
     Test CRC 9B5C7423
     Copy CRC 9B5C7423
     Accurately ripped (confidence 1)  [12E6F63F]  (AR v2)
     Copy OK
Track 10
     Filename H:\3. my rip in preparation\1 - finished xbtmusic\knjiznica domzale\CD2\10 - The O'Jays - Love Train.wav
     Pre-gap length  0:00:01.77
     Peak level 98.1 %
     Extraction speed 7.4 X
     Track quality 100.0 %
     Test CRC A9C1AFB1
     Copy CRC A9C1AFB1
     Accurately ripped (confidence 1)  [C7C7006D]  (AR v2)
     Copy OK
Track 11
     Filename H:\3. my rip in preparation\1 - finished xbtmusic\knjiznica domzale\CD2\11 - The Emotions - Best of My Love.wav
     Pre-gap length  0:00:01.77
     Peak level 98.6 %
     Extraction speed 6.8 X
     Track quality 99.9 %
     Test CRC 437B2504
     Copy CRC 437B2504
     Accurately ripped (confidence 1)  [0DEAA3AB]  (AR v2)
     Copy OK
Track 12
     Filename H:\3. my rip in preparation\1 - finished xbtmusic\knjiznica domzale\CD2\12 - Earth, Wind & Fire - September.wav
     Pre-gap length  0:00:01.77
     Peak level 98.9 %
     Extraction speed 7.8 X
     Track quality 100.0 %
     Test CRC 027F3234
     Copy CRC 027F3234
     Accurately ripped (confidence 1)  [274DBD5A]  (AR v2)
     Copy OK
Track 13
     Filename H:\3. my rip in preparation\1 - finished xbtmusic\knjiznica domzale\CD2\13 - Melba Moore - This Is It.wav
     Pre-gap length  0:00:01.77
     Peak level 98.6 %
     Extraction speed 8.0 X
     Track quality 100.0 %
     Test CRC F58307C3
     Copy CRC F58307C3
     Accurately ripped (confidence 1)  [7B86E1BC]  (AR v2)
     Copy OK
Track 14
     Filename H:\3. my rip in preparation\1 - finished xbtmusic\knjiznica domzale\CD2\14 - Wild Cherry - Play That Funky Music.wav
     Pre-gap length  0:00:01.77
     Peak level 98.5 %
     Extraction speed 8.0 X
     Track quality 100.0 %
     Test CRC D29808B9
     Copy CRC D29808B9
     Accurately ripped (confidence 1)  [D92A9013]  (AR v2)
     Copy OK
Track 15
     Filename H:\3. my rip in preparation\1 - finished xbtmusic\knjiznica domzale\CD2\15 - Sly & The Family Stone - Family Affair.wav
     Pre-gap length  0:00:01.77
     Peak level 98.4 %
     Extraction speed 8.1 X
     Track quality 100.0 %
     Test CRC 77C00972
     Copy CRC 77C00972
     Accurately ripped (confidence 1)  [B28AA7EE]  (AR v2)
     Copy OK
Track 16
     Filename H:\3. my rip in preparation\1 - finished xbtmusic\knjiznica domzale\CD2\16 - The Isley Brothers - Summer Breeze.wav
     Pre-gap length  0:00:01.77
     Peak level 99.7 %
     Extraction speed 8.3 X
     Track quality 100.0 %
     Test CRC 256E5F49
     Copy CRC 256E5F49
     Accurately ripped (confidence 1)  [868AD311]  (AR v2)
     Copy OK
Track 17
     Filename H:\3. my rip in preparation\1 - finished xbtmusic\knjiznica domzale\CD2\17 - Gladys Knight & The Pips - Midnight Train to Georgia.wav
     Pre-gap length  0:00:01.77
     Peak level 99.7 %
     Extraction speed 9.0 X
     Track quality 100.0 %
     Test CRC 35974464
     Copy CRC 35974464
     Accurately ripped (confidence 1)  [26A56C8F]  (AR v2)
     Copy OK
Track 18
     Filename H:\3. my rip in preparation\1 - finished xbtmusic\knjiznica domzale\CD2\18 - Billy Paul - Me & Mrs. Jones.wav
     Pre-gap length  0:00:01.77
     Peak level 94.1 %
     Extraction speed 9.2 X
     Track quality 100.0 %
     Test CRC 091B2950
     Copy CRC 091B2950
     Accurately ripped (confidence 1)  [9A389D54]  (AR v2)
     Copy OK
Track 19
     Filename H:\3. my rip in preparation\1 - finished xbtmusic\knjiznica domzale\CD2\19 - Bill Withers - Lean on Me.wav
     Pre-gap length  0:00:01.77
     Peak level 99.7 %
     Extraction speed 9.3 X
     Track quality 100.0 %
     Test CRC 6A6316BC
     Copy CRC 6A6316BC
     Accurately ripped (confidence 1)  [A41D6999]  (AR v2)
     Copy OK
All tracks accurately ripped
No errors occurred
End of status report
---- CUETools DB Plugin V2.1.6
[CTDB TOCID: 8iJ.pihUkSxuAjzJNJ7sNYZjccA-] found
Submit result: already submitted
Track | CTDB Status
  1   | (9/9) Accurately ripped
  2   | (9/9) Accurately ripped
  3   | (9/9) Accurately ripped
  4   | (9/9) Accurately ripped
  5   | (9/9) Accurately ripped
  6   | (9/9) Accurately ripped
  7   | (9/9) Accurately ripped
  8   | (9/9) Accurately ripped
  9   | (9/9) Accurately ripped
10   | (9/9) Accurately ripped
11   | (9/9) Accurately ripped
12   | (9/9) Accurately ripped
13   | (9/9) Accurately ripped
14   | (9/9) Accurately ripped
15   | (9/9) Accurately ripped
16   | (9/9) Accurately ripped
17   | (9/9) Accurately ripped
18   | (9/9) Accurately ripped
19   | (9/9) Accurately ripped

CD 3

Exact Audio Copy V1.1 from 23. June 2015
EAC extraction logfile from 20. December 2015, 23:02
Various Artists / Ultimate 70s: 4CDs of the Great Music from the 1970s (Disc 3)
Used drive  : ASUS    BW-12D1S-U   Adapter: 1  ID: 1
Read mode               : Secure
Utilize accurate stream : Yes
Defeat audio cache      : Yes
Make use of C2 pointers : No
Read offset correction                      : 667
Overread into Lead-In and Lead-Out          : No
Fill up missing offset samples with silence : Yes
Delete leading and trailing silent blocks   : No
Null samples used in CRC calculations       : Yes
Used interface                              : Native Win32 interface for Win NT & 2000
Gap handling                                : Appended to previous track
Used output format              : User Defined Encoder
Selected bitrate                : 1024 kBit/s
Quality                         : High
Add ID3 tag                     : No
Command line compressor         : C:\Program Files (x86)\Music Codec\flac1.3.1\win64\flac.exe
Additional command line options : -8 -V -T "ARTIST=%artist%" -T "TITLE=%title%" -T "ALBUM=%albumtitle%" -T "DATE=%year%" -T "TRACKNUMBER=%tracknr%" -T "TOTALTRACKS=%numtracks%" -T "GENRE=%genre%" -T "ALBUMARTIST=%albumartist%" -T "ALBUM ARTIST=%albumartist%" -T "COMMENT=EAC Secure Mode, Test & Copy, AccurateRip, FLAC -8" %source%
TOC of the extracted CD
     Track |   Start  |  Length  | Start sector | End sector
    ---------------------------------------------------------
        1  |  0:00.00 |  3:27.64 |         0    |    15588
        2  |  3:27.64 |  2:42.66 |     15589    |    27804
        3  |  6:10.55 |  3:42.18 |     27805    |    44472
        4  |  9:52.73 |  3:14.41 |     44473    |    59063
        5  | 13:07.39 |  3:56.01 |     59064    |    76764
        6  | 17:03.40 |  2:57.14 |     76765    |    90053
        7  | 20:00.54 |  3:38.59 |     90054    |   106462
        8  | 23:39.38 |  3:26.45 |    106463    |   121957
        9  | 27:06.08 |  2:45.27 |    121958    |   134359
       10  | 29:51.35 |  4:00.49 |    134360    |   152408
       11  | 33:52.09 |  3:34.05 |    152409    |   168463
       12  | 37:26.14 |  3:04.39 |    168464    |   182302
       13  | 40:30.53 |  3:20.58 |    182303    |   197360
       14  | 43:51.36 |  2:52.40 |    197361    |   210300
       15  | 46:44.01 |  3:22.40 |    210301    |   225490
       16  | 50:06.41 |  4:14.17 |    225491    |   244557
       17  | 54:20.58 |  4:35.70 |    244558    |   265252
       18  | 58:56.53 |  5:42.63 |    265253    |   290965
Track  1
     Filename H:\3. my rip in preparation\1 - finished xbtmusic\knjiznica domzale\CD3\01 - Terry Jacks - Seasons in the Sun.wav
     Pre-gap length  0:00:02.00
     Peak level 99.7 %
     Extraction speed 4.6 X
     Track quality 100.0 %
     Test CRC 719A9C82
     Copy CRC 719A9C82
     Accurately ripped (confidence 1)  [61A14A24]  (AR v2)
     Copy OK
Track  2
     Filename H:\3. my rip in preparation\1 - finished xbtmusic\knjiznica domzale\CD3\02 - Johnny Nash - I Can See Clearly Now.wav
     Pre-gap length  0:00:01.77
     Peak level 99.7 %
     Extraction speed 4.8 X
     Track quality 100.0 %
     Test CRC ADD112BA
     Copy CRC ADD112BA
     Accurately ripped (confidence 1)  [C36B2D2D]  (AR v2)
     Copy OK
Track  3
     Filename H:\3. my rip in preparation\1 - finished xbtmusic\knjiznica domzale\CD3\03 - Boz Scaggs - Lido Shuffle.wav
     Pre-gap length  0:00:01.77
     Peak level 99.7 %
     Extraction speed 5.4 X
     Track quality 100.0 %
     Test CRC 37DAF55E
     Copy CRC 37DAF55E
     Accurately ripped (confidence 1)  [8AA1D9D8]  (AR v2)
     Copy OK
Track  4
     Filename H:\3. my rip in preparation\1 - finished xbtmusic\knjiznica domzale\CD3\04 - Mott the Hoople - Roll Away the Stone.wav
     Pre-gap length  0:00:01.77
     Peak level 98.7 %
     Extraction speed 4.9 X
     Track quality 99.9 %
     Test CRC 6769B4AD
     Copy CRC 6769B4AD
     Accurately ripped (confidence 1)  [DB4AE0EE]  (AR v2)
     Copy OK
Track  5
     Filename H:\3. my rip in preparation\1 - finished xbtmusic\knjiznica domzale\CD3\05 - LaBelle - Lady Marmalade.wav
     Pre-gap length  0:00:01.77
     Peak level 96.2 %
     Extraction speed 5.4 X
     Track quality 99.9 %
     Test CRC D6987482
     Copy CRC D6987482
     Accurately ripped (confidence 1)  [5C23011A]  (AR v2)
     Copy OK
Track  6
     Filename H:\3. my rip in preparation\1 - finished xbtmusic\knjiznica domzale\CD3\06 - Middle of the Road - Chirpy Chirpy Cheep Cheep.wav
     Pre-gap length  0:00:01.77
     Peak level 98.6 %
     Extraction speed 6.1 X
     Track quality 100.0 %
     Test CRC DB62F261
     Copy CRC DB62F261
     Accurately ripped (confidence 1)  [3E398A87]  (AR v2)
     Copy OK
Track  7
     Filename H:\3. my rip in preparation\1 - finished xbtmusic\knjiznica domzale\CD3\07 - John Denver - Leaving on a Jet Plane.wav
     Pre-gap length  0:00:01.77
     Peak level 99.7 %
     Extraction speed 5.8 X
     Track quality 99.9 %
     Test CRC 046AFC3B
     Copy CRC 046AFC3B
     Accurately ripped (confidence 1)  [750B4E33]  (AR v2)
     Copy OK
Track  8
     Filename H:\3. my rip in preparation\1 - finished xbtmusic\knjiznica domzale\CD3\08 - Dawn - Tie a Yellow Ribbon Round the Old Oak Tree.wav
     Pre-gap length  0:00:01.77
     Peak level 99.7 %
     Extraction speed 6.8 X
     Track quality 100.0 %
     Test CRC 8F1A3C83
     Copy CRC 8F1A3C83
     Accurately ripped (confidence 1)  [EA66098A]  (AR v2)
     Copy OK
Track  9
     Filename H:\3. my rip in preparation\1 - finished xbtmusic\knjiznica domzale\CD3\09 - Bay City Rollers - Bye Bye Baby.wav
     Pre-gap length  0:00:01.77
     Peak level 88.0 %
     Extraction speed 5.8 X
     Track quality 99.9 %
     Test CRC D0AD9DA6
     Copy CRC D0AD9DA6
     Accurately ripped (confidence 1)  [8E079F28]  (AR v2)
     Copy OK
Track 10
     Filename H:\3. my rip in preparation\1 - finished xbtmusic\knjiznica domzale\CD3\10 - Boney M. - Rivers of Babylon.wav
     Pre-gap length  0:00:01.77
     Peak level 98.6 %
     Extraction speed 6.5 X
     Track quality 99.9 %
     Test CRC 8859C6EE
     Copy CRC 8859C6EE
     Accurately ripped (confidence 1)  [EE9AF26C]  (AR v2)
     Copy OK
Track 11
     Filename H:\3. my rip in preparation\1 - finished xbtmusic\knjiznica domzale\CD3\11 - Eruption - One Way Ticket.wav
     Pre-gap length  0:00:01.77
     Peak level 98.6 %
     Extraction speed 7.5 X
     Track quality 100.0 %
     Test CRC B3EE7A9F
     Copy CRC B3EE7A9F
     Accurately ripped (confidence 1)  [DFB175BC]  (AR v2)
     Copy OK
Track 12
     Filename H:\3. my rip in preparation\1 - finished xbtmusic\knjiznica domzale\CD3\12 - Sailor - Girls, Girls, Girls.wav
     Pre-gap length  0:00:01.77
     Peak level 98.5 %
     Extraction speed 7.4 X
     Track quality 100.0 %
     Test CRC AD3D16F4
     Copy CRC AD3D16F4
     Accurately ripped (confidence 1)  [53732F48]  (AR v2)
     Copy OK
Track 13
     Filename H:\3. my rip in preparation\1 - finished xbtmusic\knjiznica domzale\CD3\13 - Linda Lewis - It's in His Kiss.wav
     Pre-gap length  0:00:01.77
     Peak level 98.7 %
     Extraction speed 7.7 X
     Track quality 100.0 %
     Test CRC 81A0F5F7
     Copy CRC 81A0F5F7
     Accurately ripped (confidence 1)  [B3BDBCCE]  (AR v2)
     Copy OK
Track 14
     Filename H:\3. my rip in preparation\1 - finished xbtmusic\knjiznica domzale\CD3\14 - Barry Manilow - Mandy.wav
     Pre-gap length  0:00:01.77
     Peak level 98.6 %
     Extraction speed 7.8 X
     Track quality 100.0 %
     Test CRC 665B9505
     Copy CRC 665B9505
     Accurately ripped (confidence 1)  [E681B12D]  (AR v2)
     Copy OK
Track 15
     Filename H:\3. my rip in preparation\1 - finished xbtmusic\knjiznica domzale\CD3\15 - The Alan Parsons Project - I Wouldn't Want to Be Like You.wav
     Pre-gap length  0:00:01.77
     Peak level 98.9 %
     Extraction speed 7.0 X
     Track quality 99.9 %
     Test CRC EFC823F8
     Copy CRC EFC823F8
     Accurately ripped (confidence 1)  [A4300F1C]  (AR v2)
     Copy OK
Track 16
     Filename H:\3. my rip in preparation\1 - finished xbtmusic\knjiznica domzale\CD3\16 - Lou Reed - Walk on the Wild Side.wav
     Pre-gap length  0:00:01.77
     Peak level 99.7 %
     Extraction speed 8.5 X
     Track quality 100.0 %
     Test CRC CAF1A1C2
     Copy CRC CAF1A1C2
     Accurately ripped (confidence 1)  [3F821504]  (AR v2)
     Copy OK
Track 17
     Filename H:\3. my rip in preparation\1 - finished xbtmusic\knjiznica domzale\CD3\17 - Melanie - Ruby Tuesday.wav
     Pre-gap length  0:00:01.77
     Peak level 88.9 %
     Extraction speed 8.8 X
     Track quality 100.0 %
     Test CRC 5EA0F0E1
     Copy CRC 5EA0F0E1
     Accurately ripped (confidence 1)  [72550A48]  (AR v2)
     Copy OK
Track 18
     Filename H:\3. my rip in preparation\1 - finished xbtmusic\knjiznica domzale\CD3\18 - The Walker Brothers - No Regrets.wav
     Pre-gap length  0:00:01.77
     Peak level 99.7 %
     Extraction speed 9.3 X
     Track quality 100.0 %
     Test CRC ADA04EAB
     Copy CRC ADA04EAB
     Accurately ripped (confidence 1)  [59D0BC42]  (AR v2)
     Copy OK
All tracks accurately ripped
No errors occurred
End of status report
---- CUETools DB Plugin V2.1.6
[CTDB TOCID: jZvc6tjybAn1mVCDCuM2PtAP7vk-] found
Submit result: already submitted
Track | CTDB Status
  1   | (8/8) Accurately ripped
  2   | (8/8) Accurately ripped
  3   | (8/8) Accurately ripped
  4   | (8/8) Accurately ripped
  5   | (8/8) Accurately ripped
  6   | (8/8) Accurately ripped
  7   | (8/8) Accurately ripped
  8   | (8/8) Accurately ripped
  9   | (8/8) Accurately ripped
10   | (8/8) Accurately ripped
11   | (8/8) Accurately ripped
12   | (8/8) Accurately ripped
13   | (8/8) Accurately ripped
14   | (8/8) Accurately ripped
15   | (8/8) Accurately ripped
16   | (8/8) Accurately ripped
17   | (8/8) Accurately ripped
18   | (8/8) Accurately ripped

CD 4

Exact Audio Copy V1.1 from 23. June 2015
EAC extraction logfile from 1. December 2015, 15:05
Various Artists / Ultimate 70s: 4CDs of the Great Music from the 1970s (Disc 4)
Used drive  : ASUS    BW-12D1S-U   Adapter: 1  ID: 1
Read mode               : Secure
Utilize accurate stream : Yes
Defeat audio cache      : Yes
Make use of C2 pointers : No
Read offset correction                      : 667
Overread into Lead-In and Lead-Out          : No
Fill up missing offset samples with silence : Yes
Delete leading and trailing silent blocks   : No
Null samples used in CRC calculations       : Yes
Used interface                              : Native Win32 interface for Win NT & 2000
Gap handling                                : Appended to previous track
Used output format              : User Defined Encoder
Selected bitrate                : 1024 kBit/s
Quality                         : High
Add ID3 tag                     : No
Command line compressor         : C:\Program Files (x86)\Kodeki za Glasbo\flac v1.3.1\win64\flac.exe
Additional command line options : -8 -V -T "ARTIST=%artist%" -T "TITLE=%title%" -T "ALBUM=%albumtitle%" -T "DATE=%year%" -T "TRACKNUMBER=%tracknr%" -T "TOTALTRACKS=%numtracks%" -T "GENRE=%genre%" -T "ALBUMARTIST=%albumartist%" -T "ALBUM ARTIST=%albumartist%" -T "COMMENT=EAC Secure Mode, Test & Copy, AccurateRip, FLAC -8" %source%
TOC of the extracted CD
     Track |   Start  |  Length  | Start sector | End sector
    ---------------------------------------------------------
        1  |  0:00.00 |  3:38.64 |         0    |    16413
        2  |  3:38.64 |  3:58.54 |     16414    |    34317
        3  |  7:37.43 |  2:37.18 |     34318    |    46110
        4  | 10:14.61 |  3:52.35 |     46111    |    63545
        5  | 14:07.21 |  3:26.49 |     63546    |    79044
        6  | 17:33.70 |  2:55.60 |     79045    |    92229
        7  | 20:29.55 |  3:11.22 |     92230    |   106576
        8  | 23:41.02 |  2:56.43 |    106577    |   119819
        9  | 26:37.45 |  3:25.70 |    119820    |   135264
       10  | 30:03.40 |  2:59.28 |    135265    |   148717
       11  | 33:02.68 |  5:37.37 |    148718    |   174029
       12  | 38:40.30 |  2:47.03 |    174030    |   186557
       13  | 41:27.33 |  5:31.04 |    186558    |   211386
       14  | 46:58.37 |  3:27.23 |    211387    |   226934
       15  | 50:25.60 |  4:16.65 |    226935    |   246199
       16  | 54:42.50 |  3:13.28 |    246200    |   260702
       17  | 57:56.03 |  3:34.36 |    260703    |   276788
       18  | 61:30.39 |  3:52.54 |    276789    |   294242
Track  1
     Filename K:\3. my rip in preparation\3 - in treatment\VA - Ultimate 70s, 4CDs of the Great Music from the 1970s (2015) [FLAC] {4CD, Sony Music 88875085552}\CD4\01 - Art Garfunkel - I Only Have Eyes for You.wav
     Pre-gap length  0:00:02.00
     Peak level 99.7 %
     Extraction speed 4.7 X
     Track quality 100.0 %
     Test CRC 74C263E0
     Copy CRC 74C263E0
     Accurately ripped (confidence 1)  [2263A9BB]  (AR v2)
     Copy OK
Track  2
     Filename K:\3. my rip in preparation\3 - in treatment\VA - Ultimate 70s, 4CDs of the Great Music from the 1970s (2015) [FLAC] {4CD, Sony Music 88875085552}\CD4\02 - Billy Swan - I Can Help.wav
     Pre-gap length  0:00:01.77
     Peak level 99.1 %
     Extraction speed 4.6 X
     Track quality 99.9 %
     Test CRC 40A17EA1
     Copy CRC 40A17EA1
     Accurately ripped (confidence 1)  [75E1F639]  (AR v2)
     Copy OK
Track  3
     Filename K:\3. my rip in preparation\3 - in treatment\VA - Ultimate 70s, 4CDs of the Great Music from the 1970s (2015) [FLAC] {4CD, Sony Music 88875085552}\CD4\03 - Sutherland Brothers & Quiver - Arms of Mary.wav
     Pre-gap length  0:00:01.77
     Peak level 98.8 %
     Extraction speed 5.2 X
     Track quality 100.0 %
     Test CRC 0630A0A6
     Copy CRC 0630A0A6
     Accurately ripped (confidence 1)  [C3D08CC6]  (AR v2)
     Copy OK
Track  4
     Filename K:\3. my rip in preparation\3 - in treatment\VA - Ultimate 70s, 4CDs of the Great Music from the 1970s (2015) [FLAC] {4CD, Sony Music 88875085552}\CD4\04 - Albert Hammond - It Never Rains in Southern California.wav
     Pre-gap length  0:00:01.77
     Peak level 99.7 %
     Extraction speed 5.8 X
     Track quality 100.0 %
     Test CRC AF335176
     Copy CRC AF335176
     Accurately ripped (confidence 1)  [C8870747]  (AR v2)
     Copy OK
Track  5
     Filename K:\3. my rip in preparation\3 - in treatment\VA - Ultimate 70s, 4CDs of the Great Music from the 1970s (2015) [FLAC] {4CD, Sony Music 88875085552}\CD4\05 - Kansas - Dust in the Wind.wav
     Pre-gap length  0:00:01.77
     Peak level 99.7 %
     Extraction speed 6.0 X
     Track quality 100.0 %
     Test CRC 733B9CA0
     Copy CRC 733B9CA0
     Accurately ripped (confidence 1)  [79CAF677]  (AR v2)
     Copy OK
Track  6
     Filename K:\3. my rip in preparation\3 - in treatment\VA - Ultimate 70s, 4CDs of the Great Music from the 1970s (2015) [FLAC] {4CD, Sony Music 88875085552}\CD4\06 - The Mash - Suicide Is Painless (from the 20th Century-Fox Film 'MASH').wav
     Pre-gap length  0:00:01.77
     Peak level 99.7 %
     Extraction speed 6.1 X
     Track quality 100.0 %
     Test CRC 9389D392
     Copy CRC 9389D392
     Accurately ripped (confidence 1)  [6915619B]  (AR v2)
     Copy OK
Track  7
     Filename K:\3. my rip in preparation\3 - in treatment\VA - Ultimate 70s, 4CDs of the Great Music from the 1970s (2015) [FLAC] {4CD, Sony Music 88875085552}\CD4\07 - Andy Williams - Where Do I Begin (Theme From 'Love Story').wav
     Pre-gap length  0:00:01.77
     Peak level 99.7 %
     Extraction speed 6.5 X
     Track quality 100.0 %
     Test CRC 2BCE9991
     Copy CRC 2BCE9991
     Accurately ripped (confidence 1)  [943EB9DA]  (AR v2)
     Copy OK
Track  8
     Filename K:\3. my rip in preparation\3 - in treatment\VA - Ultimate 70s, 4CDs of the Great Music from the 1970s (2015) [FLAC] {4CD, Sony Music 88875085552}\CD4\08 - Lynn Anderson - Rose Garden.wav
     Pre-gap length  0:00:01.77
     Peak level 99.7 %
     Extraction speed 6.6 X
     Track quality 100.0 %
     Test CRC D91033CA
     Copy CRC D91033CA
     Accurately ripped (confidence 1)  [C22F715E]  (AR v2)
     Copy OK
Track  9
     Filename K:\3. my rip in preparation\3 - in treatment\VA - Ultimate 70s, 4CDs of the Great Music from the 1970s (2015) [FLAC] {4CD, Sony Music 88875085552}\CD4\09 - The Pointer Sisters - Fire.wav
     Pre-gap length  0:00:01.77
     Peak level 99.7 %
     Extraction speed 7.0 X
     Track quality 100.0 %
     Test CRC 0176B3CB
     Copy CRC 0176B3CB
     Accurately ripped (confidence 1)  [7E3DEC1E]  (AR v2)
     Copy OK
Track 10
     Filename K:\3. my rip in preparation\3 - in treatment\VA - Ultimate 70s, 4CDs of the Great Music from the 1970s (2015) [FLAC] {4CD, Sony Music 88875085552}\CD4\10 - Evelyn 'Champagne' King - Shame.wav
     Pre-gap length  0:00:01.77
     Peak level 87.8 %
     Extraction speed 7.1 X
     Track quality 100.0 %
     Test CRC 19E76CC5
     Copy CRC 19E76CC5
     Accurately ripped (confidence 1)  [06B67F72]  (AR v2)
     Copy OK
Track 11
     Filename K:\3. my rip in preparation\3 - in treatment\VA - Ultimate 70s, 4CDs of the Great Music from the 1970s (2015) [FLAC] {4CD, Sony Music 88875085552}\CD4\11 - Brick - Dazz.wav
     Pre-gap length  0:00:01.77
     Peak level 99.0 %
     Extraction speed 7.9 X
     Track quality 100.0 %
     Test CRC EF5ACDAF
     Copy CRC EF5ACDAF
     Accurately ripped (confidence 1)  [3384FC24]  (AR v2)
     Copy OK
Track 12
     Filename K:\3. my rip in preparation\3 - in treatment\VA - Ultimate 70s, 4CDs of the Great Music from the 1970s (2015) [FLAC] {4CD, Sony Music 88875085552}\CD4\12 - Jackie DeShannon - Bette Davis Eyes.wav
     Pre-gap length  0:00:01.77
     Peak level 98.8 %
     Extraction speed 7.4 X
     Track quality 100.0 %
     Test CRC 9EEA6427
     Copy CRC 9EEA6427
     Accurately ripped (confidence 1)  [B4616F3C]  (AR v2)
     Copy OK
Track 13
     Filename K:\3. my rip in preparation\3 - in treatment\VA - Ultimate 70s, 4CDs of the Great Music from the 1970s (2015) [FLAC] {4CD, Sony Music 88875085552}\CD4\13 - Meat Loaf - Paradise by the Dashboard Light.wav
     Pre-gap length  0:00:01.77
     Peak level 98.5 %
     Extraction speed 8.3 X
     Track quality 100.0 %
     Test CRC 03A8349B
     Copy CRC 03A8349B
     Accurately ripped (confidence 1)  [0DE21853]  (AR v2)
     Copy OK
Track 14
     Filename K:\3. my rip in preparation\3 - in treatment\VA - Ultimate 70s, 4CDs of the Great Music from the 1970s (2015) [FLAC] {4CD, Sony Music 88875085552}\CD4\14 - The Edgar Winter Group - Frankenstein.wav
     Pre-gap length  0:00:01.77
     Peak level 99.1 %
     Extraction speed 8.0 X
     Track quality 100.0 %
     Test CRC EA292019
     Copy CRC EA292019
     Accurately ripped (confidence 1)  [B7F88F80]  (AR v2)
     Copy OK
Track 15
     Filename K:\3. my rip in preparation\3 - in treatment\VA - Ultimate 70s, 4CDs of the Great Music from the 1970s (2015) [FLAC] {4CD, Sony Music 88875085552}\CD4\15 - Santana - Oye como va.wav
     Pre-gap length  0:00:01.77
     Peak level 99.7 %
     Extraction speed 8.5 X
     Track quality 100.0 %
     Test CRC AB026082
     Copy CRC AB026082
     Accurately ripped (confidence 1)  [398470F8]  (AR v2)
     Copy OK
Track 16
     Filename K:\3. my rip in preparation\3 - in treatment\VA - Ultimate 70s, 4CDs of the Great Music from the 1970s (2015) [FLAC] {4CD, Sony Music 88875085552}\CD4\16 - Cheap Trick - I Want You to Want Me.wav
     Pre-gap length  0:00:01.77
     Peak level 99.7 %
     Extraction speed 8.3 X
     Track quality 100.0 %
     Test CRC E1DE5D02
     Copy CRC E1DE5D02
     Accurately ripped (confidence 1)  [4FA9ECF9]  (AR v2)
     Copy OK
Track 17
     Filename K:\3. my rip in preparation\3 - in treatment\VA - Ultimate 70s, 4CDs of the Great Music from the 1970s (2015) [FLAC] {4CD, Sony Music 88875085552}\CD4\17 - Smokie - It's Your Life.wav
     Pre-gap length  0:00:01.77
     Peak level 98.8 %
     Extraction speed 7.4 X
     Track quality 99.9 %
     Test CRC BC4C7689
     Copy CRC BC4C7689
     Accurately ripped (confidence 1)  [0B35D215]  (AR v2)
     Copy OK
Track 18
     Filename K:\3. my rip in preparation\3 - in treatment\VA - Ultimate 70s, 4CDs of the Great Music from the 1970s (2015) [FLAC] {4CD, Sony Music 88875085552}\CD4\18 - Harry Nilsson - Coconut.wav
     Pre-gap length  0:00:01.77
     Peak level 99.7 %
     Extraction speed 8.9 X
     Track quality 100.0 %
     Test CRC 752384FD
     Copy CRC 752384FD
     Accurately ripped (confidence 1)  [DA8A79C2]  (AR v2)
     Copy OK
All tracks accurately ripped
No errors occurred
End of status report
---- CUETools DB Plugin V2.1.6
[CTDB TOCID: aewOFLyap8uA2T1.nml5tqRI8_o-] found
Submit result: aewOFLyap8uA2T1.nml5tqRI8_o- has been confirmed
Track | CTDB Status
  1   | (8/8) Accurately ripped
  2   | (8/8) Accurately ripped
  3   | (8/8) Accurately ripped
  4   | (8/8) Accurately ripped
  5   | (8/8) Accurately ripped
  6   | (8/8) Accurately ripped
  7   | (8/8) Accurately ripped
  8   | (8/8) Accurately ripped
  9   | (8/8) Accurately ripped
10   | (8/8) Accurately ripped
11   | (8/8) Accurately ripped
12   | (8/8) Accurately ripped
13   | (8/8) Accurately ripped
14   | (8/8) Accurately ripped
15   | (8/8) Accurately ripped
16   | (8/8) Accurately ripped
17   | (8/8) Accurately ripped
18   | (8/8) Accurately ripped

Индексная карта (non-compilant .cue)

CD 1

REM GENRE Pop/Rock
REM DATE 2015
REM DISCID 1A0F7512
REM COMMENT "ExactAudioCopy v1.1"
CATALOG 0888750855527
PERFORMER "Various Artists"
TITLE "Ultimate 70s: 4CDs of the Great Music from the 1970s (Disc 1)"
FILE "01 - Sweet - Blockbusters.wav" WAVE
  TRACK 01 AUDIO
    TITLE "Blockbusters"
    PERFORMER "Sweet"
    ISRC GBARL7300002
    INDEX 01 00:00:00
  TRACK 02 AUDIO
    TITLE "Mr. Blue Sky"
    PERFORMER "Electric Light Orchestra"
    ISRC USSM17200399
    INDEX 00 03:12:20
FILE "02 - Electric Light Orchestra - Mr. Blue Sky.wav" WAVE
    INDEX 01 00:00:00
  TRACK 03 AUDIO
    TITLE "My Life"
    PERFORMER "Billy Joel"
    INDEX 00 05:03:47
FILE "03 - Billy Joel - My Life.wav" WAVE
    INDEX 01 00:00:00
  TRACK 04 AUDIO
    TITLE "Love Really Hurts Without You"
    PERFORMER "Billy Ocean"
    INDEX 00 04:42:69
FILE "04 - Billy Ocean - Love Really Hurts Without You.wav" WAVE
    INDEX 01 00:00:00
  TRACK 05 AUDIO
    TITLE "Yes Sir, I Can Boogie"
    PERFORMER "Baccara"
    ISRC DEC767700023
    INDEX 00 02:58:71
FILE "05 - Baccara - Yes Sir, I Can Boogie.wav" WAVE
    INDEX 01 00:00:00
  TRACK 06 AUDIO
    TITLE "Blame It on the Boogie"
    PERFORMER "The Jacksons"
    ISRC USSM17800445
    INDEX 00 04:30:55
FILE "06 - The Jacksons - Blame It on the Boogie.wav" WAVE
    INDEX 01 00:00:00
  TRACK 07 AUDIO
    TITLE "Native New Yorker"
    PERFORMER "Odyssey"
    INDEX 00 03:33:43
FILE "07 - Odyssey - Native New Yorker.wav" WAVE
    INDEX 01 00:00:00
  TRACK 08 AUDIO
    TITLE "Yellow River"
    PERFORMER "Christie"
    ISRC GBBBN7000002
    INDEX 00 03:26:31
FILE "08 - Christie - Yellow River.wav" WAVE
    INDEX 01 00:00:00
  TRACK 09 AUDIO
    TITLE "Jolene"
    PERFORMER "Dolly Parton"
    ISRC USRN19600096
    INDEX 00 02:45:58
FILE "09 - Dolly Parton - Jolene.wav" WAVE
    INDEX 01 00:00:00
  TRACK 10 AUDIO
    TITLE "Stand by Your Man"
    PERFORMER "Tammy Wynette"
    ISRC USSM16800465
    INDEX 00 02:39:52
FILE "10 - Tammy Wynette - Stand by Your Man.wav" WAVE
    INDEX 01 00:00:00
  TRACK 11 AUDIO
    TITLE "The Wonder of You"
    PERFORMER "Elvis Presley"
    ISRC USRC19708197
    INDEX 00 02:37:30
FILE "11 - Elvis Presley - The Wonder of You.wav" WAVE
    INDEX 01 00:00:00
  TRACK 12 AUDIO
    TITLE "All by Myself"
    PERFORMER "Eric Carmen"
    ISRC USAR17500003
    INDEX 00 02:34:32
FILE "12 - Eric Carmen - All by Myself.wav" WAVE
    INDEX 01 00:00:00
  TRACK 13 AUDIO
    TITLE "Hold Your Head Up"
    PERFORMER "Argent"
    ISRC USSM19917500
    INDEX 00 04:50:20
FILE "13 - Argent - Hold Your Head Up.wav" WAVE
    INDEX 01 00:00:00
  TRACK 14 AUDIO
    TITLE "More Than a Feeling"
    PERFORMER "Booston"
    ISRC USSM17600639
    INDEX 00 06:16:57
FILE "14 - Booston - More Than a Feeling.wav" WAVE
    INDEX 01 00:00:00
  TRACK 15 AUDIO
    TITLE "Daryl Hall & John Oates"
    PERFORMER "Rich Girl"
    INDEX 00 03:28:24
FILE "15 - Rich Girl - Daryl Hall & John Oates.wav" WAVE
    INDEX 01 00:00:00
  TRACK 16 AUDIO
    TITLE "Sylvia's Mother"
    PERFORMER "Dr. Hook & The Medicine Show"
    ISRC USSM17100385
    INDEX 00 02:23:65
FILE "16 - Dr. Hook & The Medicine Show - Sylvia's Mother.wav" WAVE
    INDEX 01 00:00:00
  TRACK 17 AUDIO
    TITLE "Every Day Hurts"
    PERFORMER "Sad Cafe"
    INDEX 00 03:48:64
FILE "17 - Sad Cafe - Every Day Hurts.wav" WAVE
    INDEX 01 00:00:00
  TRACK 18 AUDIO
    TITLE "Knockin' on a Heaven's Door"
    PERFORMER "Bob Dylan"
    ISRC USSM17300459
    INDEX 00 04:02:37
FILE "18 - Bob Dylan - Knockin' on a Heaven's Door.wav" WAVE
    INDEX 01 00:00:00

CD 2

REM DATE 2015
REM DISCID 28103213
REM COMMENT "ExactAudioCopy v1.1"
CATALOG 0888750855527
PERFORMER "Various Artists"
TITLE "Ultimate 70s: 4CDs of the Great Music from the 1970s (Disc 2)"
FILE "01 - Tina Charles - I Love to Love.wav" WAVE
  TRACK 01 AUDIO
    TITLE "I Love to Love"
    PERFORMER "Tina Charles"
    ISRC GBBBN7500001
    INDEX 01 00:00:00
  TRACK 02 AUDIO
    TITLE "Instant Replay"
    PERFORMER "Dan Hartman"
    ISRC USSM19801504
    INDEX 00 03:03:63
FILE "02 - Dan Hartman - Instant Replay.wav" WAVE
    INDEX 01 00:00:00
  TRACK 03 AUDIO
    TITLE "More, More, More"
    PERFORMER "Andrea True Connection"
    ISRC USBR17500026
    INDEX 00 05:17:48
FILE "03 - Andrea True Connection - More, More, More.wav" WAVE
    INDEX 01 00:00:00
  TRACK 04 AUDIO
    TITLE "Boogie Nights"
    PERFORMER "Heatwave"
    ISRC GBBBM7602015
    INDEX 00 03:03:29
FILE "04 - Heatwave - Boogie Nights.wav" WAVE
    INDEX 01 00:00:00
  TRACK 05 AUDIO
    TITLE "Rock the Boat"
    PERFORMER "The Hues Corporation"
    ISRC USRC19900635
    INDEX 00 03:35:45
FILE "05 - The Hues Corporation - Rock the Boat.wav" WAVE
    INDEX 01 00:00:00
  TRACK 06 AUDIO
    TITLE "Got to Be Real"
    PERFORMER "Cheryl Lynn"
    ISRC USSM19800905
    INDEX 00 03:06:48
FILE "06 - Cheryl Lynn - Got to Be Real.wav" WAVE
    INDEX 01 00:00:00
  TRACK 07 AUDIO
    TITLE "The Love I Lost"
    PERFORMER "Harold Melvin & The Blue Notes"
    ISRC USSM17301104
    INDEX 00 03:44:03
FILE "07 - Harold Melvin & The Blue Notes - The Love I Lost.wav" WAVE
    INDEX 01 00:00:00
  TRACK 08 AUDIO
    TITLE "When Will I See You Again"
    PERFORMER "The Three Degrees"
    ISRC USSM17301375
    INDEX 00 03:32:17
FILE "08 - The Three Degrees - When Will I See You Again.wav" WAVE
    INDEX 01 00:00:00
  TRACK 09 AUDIO
    TITLE "TSOP (The Sound of Philadelphia)"
    PERFORMER "MFSB"
    ISRC USSM19912523
    INDEX 00 02:58:36
FILE "09 - MFSB - TSOP (The Sound of Philadelphia).wav" WAVE
    INDEX 01 00:00:00
  TRACK 10 AUDIO
    TITLE "Love Train"
    PERFORMER "The O'Jays"
    ISRC USSM17200190
    INDEX 00 03:43:71
FILE "10 - The O'Jays - Love Train.wav" WAVE
    INDEX 01 00:00:00
  TRACK 11 AUDIO
    TITLE "Best of My Love"
    PERFORMER "The Emotions"
    ISRC USSM17700026
    INDEX 00 02:57:28
FILE "11 - The Emotions - Best of My Love.wav" WAVE
    INDEX 01 00:00:00
  TRACK 12 AUDIO
    TITLE "September"
    PERFORMER "Earth, Wind & Fire"
    ISRC USSM17801188
    INDEX 00 03:39:73
FILE "12 - Earth, Wind & Fire - September.wav" WAVE
    INDEX 01 00:00:00
  TRACK 13 AUDIO
    TITLE "This Is It"
    PERFORMER "Melba Moore"
    ISRC USBR17600002
    INDEX 00 03:32:36
FILE "13 - Melba Moore - This Is It.wav" WAVE
    INDEX 01 00:00:00
  TRACK 14 AUDIO
    TITLE "Play That Funky Music"
    PERFORMER "Wild Cherry"
    ISRC USSM17600775
    INDEX 00 03:29:07
FILE "14 - Wild Cherry - Play That Funky Music.wav" WAVE
    INDEX 01 00:00:00
  TRACK 15 AUDIO
    TITLE "Family Affair"
    PERFORMER "Sly & The Family Stone"
    ISRC USSM17100398
    INDEX 00 03:03:02
FILE "15 - Sly & The Family Stone - Family Affair.wav" WAVE
    INDEX 01 00:00:00
  TRACK 16 AUDIO
    TITLE "Summer Breeze"
    PERFORMER "The Isley Brothers"
    ISRC USSM19700960
    INDEX 00 03:04:51
FILE "16 - The Isley Brothers - Summer Breeze.wav" WAVE
    INDEX 01 00:00:00
  TRACK 17 AUDIO
    TITLE "Midnight Train to Georgia"
    PERFORMER "Gladys Knight & The Pips"
    ISRC USBR17300001
    INDEX 00 03:06:19
FILE "17 - Gladys Knight & The Pips - Midnight Train to Georgia.wav" WAVE
    INDEX 01 00:00:00
  TRACK 18 AUDIO
    TITLE "Me & Mrs. Jones"
    PERFORMER "Billy Paul"
    ISRC USSM17200020
    INDEX 00 04:36:71
FILE "18 - Billy Paul - Me & Mrs. Jones.wav" WAVE
    INDEX 01 00:00:00
  TRACK 19 AUDIO
    TITLE "Lean on Me"
    PERFORMER "Bill Withers"
    ISRC USSM19909971
    INDEX 00 04:39:66
FILE "19 - Bill Withers - Lean on Me.wav" WAVE
    INDEX 01 00:00:00

CD 3

REM GENRE Pop
REM DATE 2015
REM DISCID EA0F2712
REM COMMENT "ExactAudioCopy v1.1"
CATALOG 0888750855527
PERFORMER "Various Artists"
TITLE "Ultimate 70s: 4CDs of the Great Music from the 1970s (Disc 3)"
FILE "01 - Terry Jacks - Seasons in the Sun.wav" WAVE
  TRACK 01 AUDIO
    TITLE "Seasons in the Sun"
    PERFORMER "Terry Jacks"
    ISRC USAR17400171
    INDEX 01 00:00:00
  TRACK 02 AUDIO
    TITLE "I Can See Clearly Now"
    PERFORMER "Johnny Nash"
    INDEX 00 03:26:06
FILE "02 - Johnny Nash - I Can See Clearly Now.wav" WAVE
    INDEX 01 00:00:00
  TRACK 03 AUDIO
    TITLE "Lido Shuffle"
    PERFORMER "Boz Scaggs"
    ISRC USSM17500265
    INDEX 00 02:41:08
FILE "03 - Boz Scaggs - Lido Shuffle.wav" WAVE
    INDEX 01 00:00:00
  TRACK 04 AUDIO
    TITLE "Roll Away the Stone"
    PERFORMER "Mott the Hoople"
    ISRC USSM10100099
    INDEX 00 03:40:35
FILE "04 - Mott the Hoople - Roll Away the Stone.wav" WAVE
    INDEX 01 00:00:00
  TRACK 05 AUDIO
    TITLE "Lady Marmalade"
    PERFORMER "LaBelle"
    ISRC USSM19600441
    INDEX 00 03:12:58
FILE "05 - LaBelle - Lady Marmalade.wav" WAVE
    INDEX 01 00:00:00
  TRACK 06 AUDIO
    TITLE "Chirpy Chirpy Cheep Cheep"
    PERFORMER "Middle of the Road"
    ISRC ITB007000563
    INDEX 00 03:54:18
FILE "06 - Middle of the Road - Chirpy Chirpy Cheep Cheep.wav" WAVE
    INDEX 01 00:00:00
  TRACK 07 AUDIO
    TITLE "Leaving on a Jet Plane"
    PERFORMER "John Denver"
    ISRC USRC16903066
    INDEX 00 02:55:31
FILE "07 - John Denver - Leaving on a Jet Plane.wav" WAVE
    INDEX 01 00:00:00
  TRACK 08 AUDIO
    TITLE "Tie a Yellow Ribbon Round the Old Oak Tree"
    PERFORMER "Dawn"
    INDEX 00 03:37:01
FILE "08 - Dawn - Tie a Yellow Ribbon Round the Old Oak Tree.wav" WAVE
    INDEX 01 00:00:00
  TRACK 09 AUDIO
    TITLE "Bye Bye Baby"
    PERFORMER "Bay City Rollers"
    INDEX 00 03:24:62
FILE "09 - Bay City Rollers - Bye Bye Baby.wav" WAVE
    INDEX 01 00:00:00
  TRACK 10 AUDIO
    TITLE "Rivers of Babylon"
    PERFORMER "Boney M."
    ISRC DED167800003
    INDEX 00 02:43:44
FILE "10 - Boney M. - Rivers of Babylon.wav" WAVE
    INDEX 01 00:00:00
  TRACK 11 AUDIO
    TITLE "One Way Ticket"
    PERFORMER "Eruption"
    ISRC DEC737900008
    INDEX 00 03:58:66
FILE "11 - Eruption - One Way Ticket.wav" WAVE
    INDEX 01 00:00:00
  TRACK 12 AUDIO
    TITLE "Girls, Girls, Girls"
    PERFORMER "Sailor"
    ISRC DEC769100082
    INDEX 00 03:32:22
FILE "12 - Sailor - Girls, Girls, Girls.wav" WAVE
    INDEX 01 00:00:00
  TRACK 13 AUDIO
    TITLE "It's in His Kiss"
    PERFORMER "Linda Lewis"
    ISRC GBARK7500016
    INDEX 00 03:02:56
FILE "13 - Linda Lewis - It's in His Kiss.wav" WAVE
    INDEX 01 00:00:00
  TRACK 14 AUDIO
    TITLE "Mandy"
    PERFORMER "Barry Manilow"
    INDEX 00 03:19:00
FILE "14 - Barry Manilow - Mandy.wav" WAVE
    INDEX 01 00:00:00
  TRACK 15 AUDIO
    TITLE "I Wouldn't Want to Be Like You"
    PERFORMER "The Alan Parsons Project"
    ISRC USAR19700003
    INDEX 00 02:50:57
FILE "15 - The Alan Parsons Project - I Wouldn't Want to Be Like You.wav" WAVE
    INDEX 01 00:00:00
  TRACK 16 AUDIO
    TITLE "Walk on the Wild Side"
    PERFORMER "Lou Reed"
    ISRC USRC19205582
    INDEX 00 03:20:57
FILE "16 - Lou Reed - Walk on the Wild Side.wav" WAVE
    INDEX 01 00:00:00
  TRACK 17 AUDIO
    TITLE "Ruby Tuesday"
    PERFORMER "Melanie"
    ISRC USBR17000004
    INDEX 00 04:12:34
FILE "17 - Melanie - Ruby Tuesday.wav" WAVE
    INDEX 01 00:00:00
  TRACK 18 AUDIO
    TITLE "No Regrets"
    PERFORMER "The Walker Brothers"
    ISRC GBBBN7600003
    INDEX 00 04:34:12
FILE "18 - The Walker Brothers - No Regrets.wav" WAVE
    INDEX 01 00:00:00

CD 4

REM GENRE Pop/Rock
REM DATE 2015
REM DISCID 060F5312
REM COMMENT "ExactAudioCopy v1.1"
CATALOG 0888750855527
PERFORMER "Various Artists"
TITLE "Ultimate 70s: 4CDs of the Great Music from the 1970s (Disc 4)"
FILE "01 - Art Garfunkel - I Only Have Eyes for You.wav" WAVE
  TRACK 01 AUDIO
    TITLE "I Only Have Eyes for You"
    PERFORMER "Art Garfunkel"
    ISRC USSM19916081
    INDEX 01 00:00:00
  TRACK 02 AUDIO
    TITLE "I Can Help"
    PERFORMER "Billy Swan"
    ISRC USSM17400106
    INDEX 00 03:37:06
FILE "02 - Billy Swan - I Can Help.wav" WAVE
    INDEX 01 00:00:00
  TRACK 03 AUDIO
    TITLE "Arms of Mary"
    PERFORMER "Sutherland Brothers & Quiver"
    ISRC GBBBN7600002
    INDEX 00 03:56:71
FILE "03 - Sutherland Brothers & Quiver - Arms of Mary.wav" WAVE
    INDEX 01 00:00:00
  TRACK 04 AUDIO
    TITLE "It Never Rains in Southern California"
    PERFORMER "Albert Hammond"
    ISRC USSM10015584
    INDEX 00 02:35:35
FILE "04 - Albert Hammond - It Never Rains in Southern California.wav" WAVE
    INDEX 01 00:00:00
  TRACK 05 AUDIO
    TITLE "Dust in the Wind"
    PERFORMER "Kansas"
    ISRC USSM17700294
    INDEX 00 03:50:52
FILE "05 - Kansas - Dust in the Wind.wav" WAVE
    INDEX 01 00:00:00
  TRACK 06 AUDIO
    TITLE "Suicide Is Painless (from the 20th Century-Fox Film 'MASH')"
    PERFORMER "The Mash"
    ISRC USSM17000741
    INDEX 00 03:24:66
FILE "06 - The Mash - Suicide Is Painless (from the 20th Century-Fox Film 'MASH').wav" WAVE
    INDEX 01 00:00:00
  TRACK 07 AUDIO
    TITLE "Where Do I Begin (Theme From 'Love Story')"
    PERFORMER "Andy Williams"
    ISRC USSM19912772
    INDEX 00 02:54:02
FILE "07 - Andy Williams - Where Do I Begin (Theme From 'Love Story').wav" WAVE
    INDEX 01 00:00:00
  TRACK 08 AUDIO
    TITLE "Rose Garden"
    PERFORMER "Lynn Anderson"
    ISRC USSM17000287
    INDEX 00 03:09:39
FILE "08 - Lynn Anderson - Rose Garden.wav" WAVE
    INDEX 01 00:00:00
  TRACK 09 AUDIO
    TITLE "Fire"
    PERFORMER "The Pointer Sisters"
    ISRC USRC19901765
    INDEX 00 02:54:60
FILE "09 - The Pointer Sisters - Fire.wav" WAVE
    INDEX 01 00:00:00
  TRACK 10 AUDIO
    TITLE "Shame"
    PERFORMER "Evelyn 'Champagne' King"
    INDEX 00 03:24:12
FILE "10 - Evelyn 'Champagne' King - Shame.wav" WAVE
    INDEX 01 00:00:00
  TRACK 11 AUDIO
    TITLE "Dazz"
    PERFORMER "Brick"
    ISRC USSM17600017
    INDEX 00 02:57:45
FILE "11 - Brick - Dazz.wav" WAVE
    INDEX 01 00:00:00
  TRACK 12 AUDIO
    TITLE "Bette Davis Eyes"
    PERFORMER "Jackie DeShannon"
    ISRC USSM10114706
    INDEX 00 05:35:54
FILE "12 - Jackie DeShannon - Bette Davis Eyes.wav" WAVE
    INDEX 01 00:00:00
  TRACK 13 AUDIO
    TITLE "Paradise by the Dashboard Light"
    PERFORMER "Meat Loaf"
    ISRC USSM17700946
    INDEX 00 02:45:20
FILE "13 - Meat Loaf - Paradise by the Dashboard Light.wav" WAVE
    INDEX 01 00:00:00
  TRACK 14 AUDIO
    TITLE "Frankenstein"
    PERFORMER "The Edgar Winter Group"
    ISRC USSM17200446
    INDEX 00 05:29:21
FILE "14 - The Edgar Winter Group - Frankenstein.wav" WAVE
    INDEX 01 00:00:00
  TRACK 15 AUDIO
    TITLE "Oye como va"
    PERFORMER "Santana"
    ISRC USSM17000812
    INDEX 00 03:25:40
FILE "15 - Santana - Oye como va.wav" WAVE
    INDEX 01 00:00:00
  TRACK 16 AUDIO
    TITLE "I Want You to Want Me"
    PERFORMER "Cheap Trick"
    INDEX 00 04:15:07
FILE "16 - Cheap Trick - I Want You to Want Me.wav" WAVE
    INDEX 01 00:00:00
  TRACK 17 AUDIO
    TITLE "It's Your Life"
    PERFORMER "Smokie"
    ISRC DEA817700018
    INDEX 00 03:11:45
FILE "17 - Smokie - It's Your Life.wav" WAVE
    INDEX 01 00:00:00
  TRACK 18 AUDIO
    TITLE "Coconut"
    PERFORMER "Harry Nilsson"
    ISRC USRC17101021
    INDEX 00 03:32:53
FILE "18 - Harry Nilsson - Coconut.wav" WAVE
    INDEX 01 00:00:00
--
[Профиль] [ЛС]
Показать сообщения:    

Текущее время: Сегодня 23:28

Часовой пояс: GMT



Вы не можете начинать темы
Вы не можете отвечать на сообщения
Вы не можете редактировать свои сообщения
Вы не можете удалять свои сообщения
Вы не можете голосовать в опросах
Вы не можете прикреплять файлы к сообщениям
Вы не можете скачивать файлы