(Trance, Progressive Trance)VA - Trance Essentials 2014 vol. 1 (2014) [FLAC|Lossless]

 
Автор Сообщение

sergej644 ®

Пол:

Стаж: 4 года 11 месяцев

Сообщений: 6035

Откуда: Soviet Union



Награды: Нет

Торрент-статистика

Создавать темы 03-Дек-2014 18:51

[Цитировать]

-VA - Trance Essentials 2014 vol. 1 (2014)-


Год: 2014
Жанр: Trance, Progressive Trance
Продолжительность: 02:34:55
Лейбл: Open Gate Records
Каталог №: ПРЗ CD08913
Тип рипа: image+.cue
Сканы: Комплект
Кодек: FLAC
Битрейт: Lossless
Трек лист:

CD1:



Трек лист:
01. Dash Berlin & Rigby - Earth Meets Water (Club Mix) (2:57)
02. Kyau & Albert - This Love (LTN Remix) (3:12)
03. Giuseppe Ottaviani feat. Shannon Hurley - I Am Your Shadow (Heatbeat Remix) (3:11)
04. Tenishia - Benedictus (Tenishia Other Mix) (3:26)
05. Airbase - Escape (Daniel van Sand Remix) (3:34)
06. Arty - Flashback (2:57)
07. David Gravell - Timebomb (3:58)
08. Shogun - Erhu (2:44)
09. Ilan Bluestone - Big Ben (3:11)
10. Rex Mundi - Back Pain (4:21)
11. Andy Moor - Fade To Light (Ecomix) (4:00)
12. Aruna - Start A Fire (Johan Malmgren Remix) (2:54)
13. Richard Durand - Morning Light (3:22)
14. Faruk Sabanci - Rise & Fall (3:27)
15. Three Drives - Sunset On Ibiza (Atkinson 10000 Remix) (3:17)
16. Gareth Emery feat. Bo Bruce - U (Bryan Kearney Remix) (4:06)
17. Armin van Buuren & Andrew Rayel - Eiforya (Talla 2XLC 140 Remix) (3:04)
18. Paul Oakenfold - Cafe Del Mar (2:36)
19. Hazem Beltagui feat. Rebecca Louise Burch - Lost Again (Ian Standerwick Remix) (3:25)
20. Wach - Carthage (3:46)
21. Ram - Kingdom Of Dreams (3:40)
22. Max Graham - The Evil ID (Mark Sherry Remix) (3:37)
23. Jurgen Vries - The Theme (3:04)
Продолжительность: 01:17:49

Отчёт ЕАС:

Exact Audio Copy V1.0 beta 3 from 29. August 2011
EAC extraction logfile from 11. November 2014, 22:27
Various Artists / Trance Essentials 2014 Volume 1 (CD1)
Used drive  : Optiarc DVD RW AD-7203A   Adapter: 0  ID: 0
Read mode               : Secure
Utilize accurate stream : Yes
Defeat audio cache      : Yes
Make use of C2 pointers : No
Read offset correction                      : 48
Overread into Lead-In and Lead-Out          : No
Fill up missing offset samples with silence : Yes
Delete leading and trailing silent blocks   : No
Null samples used in CRC calculations       : Yes
Used interface                              : Native Win32 interface for Win NT & 2000
Used output format : Internal WAV Routines
Sample format      : 44.100 Hz; 16 Bit; Stereo
TOC of the extracted CD
     Track |   Start  |  Length  | Start sector | End sector
    ---------------------------------------------------------
        1  |  0:00.00 |  2:57.28 |         0    |    13302
        2  |  2:57.28 |  3:12.01 |     13303    |    27703
        3  |  6:09.29 |  3:11.74 |     27704    |    42102
        4  |  9:21.28 |  3:26.57 |     42103    |    57609
        5  | 12:48.10 |  3:34.13 |     57610    |    73672
        6  | 16:22.23 |  2:57.17 |     73673    |    86964
        7  | 19:19.40 |  3:58.07 |     86965    |   104821
        8  | 23:17.47 |  2:44.28 |    104822    |   117149
        9  | 26:02.00 |  3:11.74 |    117150    |   131548
       10  | 29:13.74 |  4:21.66 |    131549    |   151189
       11  | 33:35.65 |  4:00.04 |    151190    |   169193
       12  | 37:35.69 |  2:54.42 |    169194    |   182285
       13  | 40:30.36 |  3:22.29 |    182286    |   197464
       14  | 43:52.65 |  3:27.57 |    197465    |   213046
       15  | 47:20.47 |  3:17.42 |    213047    |   227863
       16  | 50:38.14 |  4:06.68 |    227864    |   246381
       17  | 54:45.07 |  3:04.30 |    246382    |   260211
       18  | 57:49.37 |  2:36.37 |    260212    |   271948
       19  | 60:25.74 |  3:25.17 |    271949    |   287340
       20  | 63:51.16 |  3:46.07 |    287341    |   304297
       21  | 67:37.23 |  3:40.43 |    304298    |   320840
       22  | 71:17.66 |  3:37.06 |    320841    |   337121
       23  | 74:54.72 |  3:04.30 |    337122    |   350951
Range status and errors
Selected range
     Filename D:\Rip-flacmusic.org\VA - Trance Essentials 2014 Volume 1 (2014)\CD 1\Various Artists - Trance Essentials 2014 Volume 1 (CD1).wav
     Peak level 96.6 %
     Extraction speed 2.8 X
     Range quality 100.0 %
     Test CRC 0A4506C9
     Copy CRC 0A4506C9
     Copy OK
No errors occurred
AccurateRip summary
Track  1  not present in database
Track  2  not present in database
Track  3  not present in database
Track  4  not present in database
Track  5  not present in database
Track  6  not present in database
Track  7  not present in database
Track  8  not present in database
Track  9  not present in database
Track 10  not present in database
Track 11  not present in database
Track 12  not present in database
Track 13  not present in database
Track 14  not present in database
Track 15  not present in database
Track 16  not present in database
Track 17  not present in database
Track 18  not present in database
Track 19  not present in database
Track 20  not present in database
Track 21  not present in database
Track 22  not present in database
Track 23  not present in database
None of the tracks are present in the AccurateRip database
End of status report
==== Log checksum 1AE191B05C6ADDEDC1FA7382DBEB6416FFA15F58AD4629E77767BD631DF7838D ====

Отчёт auCDtect Task manager:

-----------------------
DON'T MODIFY THIS FILE
-----------------------
PERFORMER: auCDtect Task Manager, ver. 1.6.0 RC1 build 1.6.0.1
Copyright (c) 2008-2010 y-soft. All rights reserved
http://y-soft.org
ANALYZER: auCDtect: CD records authenticity detector, version 0.8.2
Copyright (c) 2004 Oleg Berngardt. All rights reserved.
Copyright (c) 2004 Alexander Djourik. All rights reserved.
FILE: Various Artists - Trance Essentials 2014 Volume 1 (CD1).flac
  Size: 614348569 Hash: EFBD55C75B152650D127065D6021565C Accuracy: -m0
  Conclusion: CDDA 100%
  Signature: 431B4B6E8A2EF2EBEE0CE15C0EA44D648077A00D

CD2:



Трек лист:
01. Paul van Dyk feat. Second Sun - Crush (Las Salinas Remix) (2:57)
02. Bobina - Refuge (3:52)
03. Gaia - Empire Of Hearts (3:00)
04. Marlo feat. Jano - Haunted (4:51)
05. Bogdan Vix & Renee Stahl - Forever (Mike Danis Remix) (2:57)
06. Protoculture - Music Is More Than Mathematics (3:12)
07. Chris Schweizer & Mark Sixma - The Saga (3:15)
08. Artificial - Stuck In Sa Caleta (4:11)
09. Orjan Nilsen - The Late Anthem (Way Too Late Mix) (2:57)
10. Gareth Emery feat. Krewella - Lights & Thunder (Omnia Remix) (3:32)
11. Paul Oakenfold - Toca Me (Benjani Remix) (1:28)
12. Alexander Popov - Quantum (2:31)
13. Jorn van Deynhoven - New Horizons (A State Of Trance 650 Anthem) (Mark Sixma Remix) (2:01)
14. Alexandre Bergheau - Symptom (4:00)
15. Andrew Rayel feat. Alexandra Badoi - Goodbye (3:24)
16. Dimension & Moonsouls - Another Dimension (4:42)
17. Menno de Jong feat. Noire Lee - Creatures Of The Night (Adam Ellis Remix) (2:46)
18. Aly & Fila feat. Karim Youssef - Laily (Photographer Remix) (3:46)
19. Darren Porter - Terraforming (3:16)
20. Activa - Antimatter (3:19)
21. Alex M.O.R.P.H. feat. Natalie Gioia - My Heaven (2:54)
22. Dart Rayne & Yura Moonlight - Athena (2:46)
23. Arty, Nadia Ali & BT - Must Be The Love (5:10)
Продолжительность: 01:16:47

Отчёт ЕАС:

Exact Audio Copy V1.0 beta 3 from 29. August 2011
EAC extraction logfile from 11. November 2014, 23:35
Various Artists / Trance Essentials 2014 Volume 1 (CD2)
Used drive  : Optiarc DVD RW AD-7203A   Adapter: 0  ID: 0
Read mode               : Secure
Utilize accurate stream : Yes
Defeat audio cache      : Yes
Make use of C2 pointers : No
Read offset correction                      : 48
Overread into Lead-In and Lead-Out          : No
Fill up missing offset samples with silence : Yes
Delete leading and trailing silent blocks   : No
Null samples used in CRC calculations       : Yes
Used interface                              : Native Win32 interface for Win NT & 2000
Used output format : Internal WAV Routines
Sample format      : 44.100 Hz; 16 Bit; Stereo
TOC of the extracted CD
     Track |   Start  |  Length  | Start sector | End sector
    ---------------------------------------------------------
        1  |  0:00.00 |  2:57.36 |         0    |    13310
        2  |  2:57.36 |  3:52.46 |     13311    |    30756
        3  |  6:50.07 |  3:00.68 |     30757    |    44324
        4  |  9:51.00 |  4:51.52 |     44325    |    66201
        5  | 14:42.52 |  2:57.18 |     66202    |    79494
        6  | 17:39.70 |  3:12.00 |     79495    |    93894
        7  | 20:51.70 |  3:15.52 |     93895    |   108571
        8  | 24:07.47 |  4:11.05 |    108572    |   127401
        9  | 28:18.52 |  2:57.18 |    127402    |   140694
       10  | 31:15.70 |  3:32.19 |    140695    |   156613
       11  | 34:48.14 |  1:28.48 |    156614    |   163261
       12  | 36:16.62 |  2:31.32 |    163262    |   174618
       13  | 38:48.19 |  2:01.63 |    174619    |   183756
       14  | 40:50.07 |  4:00.00 |    183757    |   201756
       15  | 44:50.07 |  3:24.14 |    201757    |   217070
       16  | 48:14.21 |  4:42.26 |    217071    |   238246
       17  | 52:56.47 |  2:46.71 |    238247    |   250767
       18  | 55:43.43 |  3:46.05 |    250768    |   267722
       19  | 59:29.48 |  3:16.41 |    267723    |   282463
       20  | 62:46.14 |  3:19.09 |    282464    |   297397
       21  | 66:05.23 |  2:54.42 |    297398    |   310489
       22  | 68:59.65 |  2:46.07 |    310490    |   322946
       23  | 71:45.72 |  5:10.14 |    322947    |   346210
Range status and errors
Selected range
     Filename D:\Rip-flacmusic.org\VA - Trance Essentials 2014 Volume 1 (2014)\CD 2\Various Artists - Trance Essentials 2014 Volume 1 (CD2).wav
     Peak level 100.0 %
     Extraction speed 2.7 X
     Range quality 99.9 %
     Test CRC BFCB904A
     Copy CRC BFCB904A
     Copy OK
No errors occurred
AccurateRip summary
Track  1  not present in database
Track  2  not present in database
Track  3  not present in database
Track  4  not present in database
Track  5  not present in database
Track  6  not present in database
Track  7  not present in database
Track  8  not present in database
Track  9  not present in database
Track 10  not present in database
Track 11  not present in database
Track 12  not present in database
Track 13  not present in database
Track 14  not present in database
Track 15  not present in database
Track 16  not present in database
Track 17  not present in database
Track 18  not present in database
Track 19  not present in database
Track 20  not present in database
Track 21  not present in database
Track 22  not present in database
Track 23  not present in database
None of the tracks are present in the AccurateRip database
End of status report
==== Log checksum 643F1F4B54F2ED0BAFC0C2A15037353BF7CD0AB0CD32D4FE376745FDC4BFB265 ====

Отчёт auCDtect Task manager:

-----------------------
DON'T MODIFY THIS FILE
-----------------------
PERFORMER: auCDtect Task Manager, ver. 1.6.0 RC1 build 1.6.0.1
Copyright (c) 2008-2010 y-soft. All rights reserved
http://y-soft.org
ANALYZER: auCDtect: CD records authenticity detector, version 0.8.2
Copyright (c) 2004 Oleg Berngardt. All rights reserved.
Copyright (c) 2004 Alexander Djourik. All rights reserved.
FILE: Various Artists - Trance Essentials 2014 Volume 1 (CD2).flac
  Size: 615605712 Hash: 937FDD7765568A1C3144DD6FFF54A1D5 Accuracy: -m0
  Conclusion: CDDA 100%
  Signature: F6AFCD7A13D77C2C0A584E9169F6E28FA9ABE8E8
Время раздачи: 24/7
[Профиль] [ЛС]

Создавать темы 13-Авг-2015 11:32 (спустя 8 месяцев 9 дней)

Топик был перенесен из форума Сборники в форум Music from other genres
sergej644
 
Показать сообщения:    

Текущее время: Сегодня 22:37

Часовой пояс: GMT



Вы не можете начинать темы
Вы не можете отвечать на сообщения
Вы не можете редактировать свои сообщения
Вы не можете удалять свои сообщения
Вы не можете голосовать в опросах
Вы не можете прикреплять файлы к сообщениям
Вы не можете скачивать файлы