(Progressive Rock) VA - The Many Faces of Pink Floyd: A Journey Through the Inner World of Pink Floyd (2013), FLAC (image+.cue), lossless

 
Автор Сообщение

sergej644 ®

Пол:

Стаж: 4 года 11 месяцев

Сообщений: 6046

Откуда: Soviet Union



Награды: Нет

Торрент-статистика

Создавать темы 06-Сен-2014 11:01

[Цитировать]

-The Many Faces of Pink Floyd: A Journey Through the Inner World of Pink Floyd
Жанр: Progressive Rock
Страна-производитель диска: Mexico
Год издания: 2013
Издатель (лейбл): Music Brokers
Номер по каталогу: MBB7137
Аудиокодек: FLAC (*.flac)
Тип рипа: image+.cue
Битрейт аудио: lossless
Источник (релизер): собственная оцифровка
Наличие сканов в содержимом раздачи: да
Продолжительность: 03:01:39
Треклист:

CD1: The Dark Side of the Moon Revisited

  • Speak To Me / Breathe - Adrian Belew (King Crimson) & Alan White (Yes)
  • On The Run - Larry Fast (Peter Gabriel) & Alan White (Yes)
  • Time - Robbie Krieger (The Doors) & Garry Green (Gentle Giant)
  • The Great Gig In The Sky - Rick Wakeman (Yes) & Steve Howe (Yes)
  • Money - Edgar Winter, Bill Bruford (King Crimson) & Tony Levin (King Crimson)
  • Us And Them - Dweezuk Zappa & John Wetton (King Crimson)
  • Any Colour You Like - Robben Ford, Steve Porcaro (Toto) & Aynsley Dunbar (Frank Zappa)
  • Brain Damage - Geoff Downes (Asia) & Robbie Krieger (The Doors)
  • Eclipse - Peter Banks (Yes), Tony Kaye (Yes) & John Wetton (Asia)

    Лог создания рипа

    Exact Audio Copy V1.0 beta 3 from 29. August 2011
    Отчёт EAC об извлечении, выполненном 6. ноября 2013, 17:10
    - / The Many Faces Of Pink Floyd
    Дисковод: TSSTcorpCDDVDW SH-224BB   Adapter: 0  ID: 1
    Режим чтения                 : Достоверность
    Использование точного потока : Да
    Отключение кэша аудио        : Да
    Использование указателей C2  : Нет
    Коррекция смещения при чтении                     : 6
    Способность читать области Lead-in и Lead-out     : Нет
    Заполнение пропущенных сэмплов тишиной            : Да
    Удаление блоков с тишиной в начале и конце        : Нет
    При вычислениях CRC использовались нулевые сэмплы : Да
    Интерфейс                                         : Установленный внешний ASPI-интерфейс
    Выходной формат          : Пользовательский кодировщик
    Выбранный битрейт        : 128 kBit/s
    Качество                 : Высокий
    Добавление ID3-тега      : Нет
    Утилита сжатия           : C:\Program Files (x86)\FLAC\flac.exe
    Дополнительные параметры : -V -8 -T "Date=%year%" -T "Genre=%genre%" %source%
    TOC извлечённого CD
         Трек |   Старт  | Длительность | Начальный сектор | Конечный сектор
        ---------------------------------------------------------------------
           1  |  0:00.00 |    5:35.16   |           0      |      25140
           2  |  5:35.16 |    3:17.30   |       25141      |      39945
           3  |  8:52.46 |    6:58.50   |       39946      |      71345
           4  | 15:51.21 |    4:39.20   |       71346      |      92290
           5  | 20:30.41 |    6:22.26   |       92291      |     120966
           6  | 26:52.67 |    7:33.66   |      120967      |     155007
           7  | 34:26.58 |    4:12.21   |      155008      |     173928
           8  | 38:39.04 |    3:27.22   |      173929      |     189475
           9  | 42:06.26 |    1:47.44   |      189476      |     197544
    Характеристики диапазона извлечения и сообщения об ошибках
    Выбранный диапазон
         Имя файла E:\lossless\_test\The Many Faces Of Pink Floyd.wav
         Пиковый уровень 98.8 %
         Скорость извлечения 6.7 X
         Качество диапазона 100.0 %
         CRC копии 183E1D4C
         Копирование... OK
    Ошибок не произошло
    Конец отчёта
    ---- CUETools DB Plugin V2.1.4
    [CTDB TOCID: z3y1eKMk1IY7Xcm59AVH_3OoYoo-] found
    Submit result: z3y1eKMk1IY7Xcm59AVH_3OoYoo- has been confirmed
    Track | CTDB Status
      1   | (16/16) Accurately ripped
      2   | (16/16) Accurately ripped
      3   | (16/16) Accurately ripped
      4   | (16/16) Accurately ripped
      5   | (16/16) Accurately ripped
      6   | (16/16) Accurately ripped
      7   | (16/16) Accurately ripped
      8   | (16/16) Accurately ripped
      9   | (15/16) Accurately ripped
  • CD2: The Wall and Other Classics

  • In The Flesh? - Adrian Belew (King Crimson) & Keith Emerson (Elp)
  • The Thin Ice - Ian Anderson (Jethro Tull)
  • Another Brick In The Wall (Part 1) - Steve Morse (Deep Purple)
  • Another Brick In The Wall (Part 2) - Fee Waybill (The Tubes)
  • Mother - John Wetton (King Crimson/asia)
  • Goodbye Blue Sky - Steve Howe (Yes/asia)
  • Young Lust - Glenn Hughes (Deep Purple) & Elliot Easton (The Cars)
  • Hey You - Tommy Shaw (Styx) & Steve Lukater (Toto)
  • Comfortably Numb - Chris Squire (Yes) & Alan White (Yes/john Lennon)
  • Run Like Hell - Dweezil Zappa & Keith Emerson (Elp)
  • Shine On You, Crazy Diamond - Steve Lukater (Toto)
  • Welcome To The Machine - Derek Sherinian (Dream Theater)
  • Set The Controls To The Heart Of The Sun - Psychic Tv
  • Careful With That Axe, Eugene - Nik Turner (Hawkwind)

    Лог создания рипа

    Exact Audio Copy V1.0 beta 3 from 29. August 2011
    Отчёт EAC об извлечении, выполненном 6. ноября 2013, 17:35
    - / The Many Faces Of Pink Floyd
    Дисковод: TSSTcorpCDDVDW SH-224BB   Adapter: 0  ID: 1
    Режим чтения                 : Достоверность
    Использование точного потока : Да
    Отключение кэша аудио        : Да
    Использование указателей C2  : Нет
    Коррекция смещения при чтении                     : 6
    Способность читать области Lead-in и Lead-out     : Нет
    Заполнение пропущенных сэмплов тишиной            : Да
    Удаление блоков с тишиной в начале и конце        : Нет
    При вычислениях CRC использовались нулевые сэмплы : Да
    Интерфейс                                         : Установленный внешний ASPI-интерфейс
    Выходной формат          : Пользовательский кодировщик
    Выбранный битрейт        : 128 kBit/s
    Качество                 : Высокий
    Добавление ID3-тега      : Нет
    Утилита сжатия           : C:\Program Files (x86)\FLAC\flac.exe
    Дополнительные параметры : -V -8 -T "Date=%year%" -T "Genre=%genre%" %source%
    TOC извлечённого CD
         Трек |   Старт  | Длительность | Начальный сектор | Конечный сектор
        ---------------------------------------------------------------------
           1  |  0:00.00 |    3:04.00   |           0      |      13799
           2  |  3:04.00 |    2:30.00   |       13800      |      25049
           3  |  5:34.00 |    3:18.00   |       25050      |      39899
           4  |  8:52.00 |    3:59.60   |       39900      |      57884
           5  | 12:51.60 |    6:01.00   |       57885      |      84959
           6  | 18:52.60 |    2:41.52   |       84960      |      97086
           7  | 21:34.37 |    4:19.45   |       97087      |     116556
           8  | 25:54.07 |    4:45.45   |      116557      |     137976
           9  | 30:39.52 |    6:52.60   |      137977      |     168936
          10  | 37:32.37 |    5:09.15   |      168937      |     192126
          11  | 42:41.52 |    6:49.00   |      192127      |     222801
          12  | 49:30.52 |    7:50.45   |      222802      |     258096
          13  | 57:21.22 |    8:55.07   |      258097      |     298228
          14  | 66:16.29 |    8:40.07   |      298229      |     337235
    Характеристики диапазона извлечения и сообщения об ошибках
    Выбранный диапазон
         Имя файла E:\lossless\_test\The Many Faces of Pink Floyd CD2.wav
         Пиковый уровень 99.8 %
         Скорость извлечения 8.1 X
         Качество диапазона 100.0 %
         CRC теста CA163491
         CRC копии CA163491
         Копирование... OK
    Ошибок не произошло
    Конец отчёта
    ---- CUETools DB Plugin V2.1.4
    [CTDB TOCID: ch2gIh4x4TuQrecWnlzz0x9aUls-] found
    Submit result: ch2gIh4x4TuQrecWnlzz0x9aUls- has been confirmed
    Track | CTDB Status
      1   | (11/11) Accurately ripped
      2   | (11/11) Accurately ripped
      3   | (11/11) Accurately ripped
      4   | (11/11) Accurately ripped
      5   | (11/11) Accurately ripped
      6   | (11/11) Accurately ripped
      7   | (11/11) Accurately ripped
      8   | (11/11) Accurately ripped
      9   | (11/11) Accurately ripped
    10   | (11/11) Accurately ripped
    11   | (11/11) Accurately ripped
    12   | (11/11) Accurately ripped
    13   | (11/11) Accurately ripped
    14   | (11/11) Accurately ripped
  • CD3: Roots, Versions And Relatives

  • Good Question - Snowy White
  • Celestine - Banco De Gaia Feat Dick Parry
  • Love For Living - Clare Torry
  • See Emily Play - The Chemistry Set
  • Birds Of Paradise - Snowy White
  • Arnold Layne - Ss-20
  • The Music Attracts Me - Clare Torry
  • Who Was It? - Hurricane Smith
  • Oh Babe, What Would You Say? - Hurricane Smith
  • Year Of The Cat - Al Stewart
  • Scream Thy Last Scream - The Green Telescope
  • The Boll Weevil - Pink Anderson
  • Runaway Man Blues - Floyd Council
  • Pink Floyd Interview - Norman "Hurricane" Smith Talks About His Recording Sessions With Pink Floyd

    Лог создания рипа

    Exact Audio Copy V1.0 beta 3 from 29. August 2011
    Отчёт EAC об извлечении, выполненном 6. ноября 2013, 18:20
    - / The Many Faces of Pink Floyd
    Дисковод: TSSTcorpCDDVDW SH-224BB   Adapter: 0  ID: 1
    Режим чтения                 : Достоверность
    Использование точного потока : Да
    Отключение кэша аудио        : Да
    Использование указателей C2  : Нет
    Коррекция смещения при чтении                     : 6
    Способность читать области Lead-in и Lead-out     : Нет
    Заполнение пропущенных сэмплов тишиной            : Да
    Удаление блоков с тишиной в начале и конце        : Нет
    При вычислениях CRC использовались нулевые сэмплы : Да
    Интерфейс                                         : Установленный внешний ASPI-интерфейс
    Выходной формат          : Пользовательский кодировщик
    Выбранный битрейт        : 128 kBit/s
    Качество                 : Высокий
    Добавление ID3-тега      : Нет
    Утилита сжатия           : C:\Program Files (x86)\FLAC\flac.exe
    Дополнительные параметры : -V -8 -T "Date=%year%" -T "Genre=%genre%" %source%
    TOC извлечённого CD
         Трек |   Старт  | Длительность | Начальный сектор | Конечный сектор
        ---------------------------------------------------------------------
           1  |  0:00.00 |    4:14.45   |           0      |      19094
           2  |  4:14.45 |   12:38.37   |       19095      |      75981
           3  | 16:53.07 |    3:17.30   |       75982      |      90786
           4  | 20:10.37 |    3:06.15   |       90787      |     104751
           5  | 23:16.52 |    4:40.30   |      104752      |     125781
           6  | 27:57.07 |    3:05.37   |      125782      |     139693
           7  | 31:02.44 |    2:15.30   |      139694      |     149848
           8  | 33:17.74 |    3:04.22   |      149849      |     163670
           9  | 36:22.21 |    3:24.30   |      163671      |     179000
          10  | 39:46.51 |    7:10.52   |      179001      |     211302
          11  | 46:57.28 |    4:40.30   |      211303      |     232332
          12  | 51:37.58 |    3:05.07   |      232333      |     246214
          13  | 54:42.65 |    2:52.07   |      246215      |     259121
          14  | 57:34.72 |    5:13.52   |      259122      |     282648
    Характеристики диапазона извлечения и сообщения об ошибках
    Выбранный диапазон
         Имя файла E:\lossless\_test\The Many Faces of Pink Floyd CD3.wav
         Пиковый уровень 99.8 %
         Скорость извлечения 3.1 X
         Качество диапазона 100.0 %
         CRC теста AE46676B
         CRC копии AE46676B
         Копирование... OK
    Ошибок не произошло
    Конец отчёта
    ---- CUETools DB Plugin V2.1.4
    [CTDB TOCID: vibAftGzV_6kvL1HQcy6g9BKhh0-] found
    Submit result: vibAftGzV_6kvL1HQcy6g9BKhh0- has been confirmed
    Track | CTDB Status
      1   | (9/9) Accurately ripped
      2   | (9/9) Accurately ripped
      3   | (9/9) Accurately ripped
      4   | (9/9) Accurately ripped
      5   | (9/9) Accurately ripped
      6   | (9/9) Accurately ripped
      7   | (9/9) Accurately ripped
      8   | (9/9) Accurately ripped
      9   | (9/9) Accurately ripped
    10   | (9/9) Accurately ripped
    11   | (9/9) Accurately ripped
    12   | (9/9) Accurately ripped
    13   | (9/9) Accurately ripped
    14   | (9/9) Accurately ripped
  • Доп. информация:

    Об альбоме (сборнике)

    Уникальный сборник лучших композиций Pink Floyd, исполенные самыми выдающимися музыкантами прогрессив, арт и AOR рока. В качестве особенной фишки: интервью с Pink Floyd во время сессий звукозаписи.
    Сборник выпускается в трехдисковом дигипаке.
    на CD 1 записан целиком альбом Dark Side Of The Moon уникальными исполнителями, членами групп King Crimson, Yes, The Doors, Toto, Asia и др.
    CD 2 содержит несколько ключевых треков из the Wall, два из Wish You Were Here и несколько треков из золотой эры психодела, исполеннные звездами прог-рока: Keith Emerson, Rick Wakeman, Ian Anderson, Psychic TV и др.
    CD 3 походит скорее на обзор всего материала, записанного великими музыкантами, которые участвовали в записях оригинальных треков с Pink Floyd: саксафонист Dick Parry (Money, Us And Them), вокалист Clare Torry (The Great Gig In The Sky), гитарист Snowy White (туры Animals и Roger Waters соло), продюсер Norman Smith (The Piper At The Gates Of Dawn) и клавишник Peter Wood (тур The Wall)... и даже песни, записанные блюзменами, которые вдохновили Сида Баррета на название группы: Pink Anderson и Floyd Council.
    [Профиль] [ЛС]
    Показать сообщения:    

    Текущее время: Сегодня 09:11

    Часовой пояс: GMT



    Вы не можете начинать темы
    Вы не можете отвечать на сообщения
    Вы не можете редактировать свои сообщения
    Вы не можете удалять свои сообщения
    Вы не можете голосовать в опросах
    Вы не можете прикреплять файлы к сообщениям
    Вы не можете скачивать файлы