(Hard Rock) V.A. - The Many Faces Of Deep Purple (3CD) - 2014, FLAC (image+.cue), lossless

 
Автор Сообщение

sergej644 ®

Пол:

Стаж: 4 года 11 месяцев

Сообщений: 6046

Откуда: Soviet Union



Награды: Нет

Торрент-статистика

Создавать темы 06-Сен-2014 10:53

[Цитировать]

-V.A. - The Many Faces Of Deep Purple (3CD)
Жанр: Hard Rock
Год издания: 2014
Издатель (лейбл): Music Brokers
Номер по каталогу: MBB7170
Страна: UK
Аудиокодек: FLAC (*.flac)
Тип рипа: image+.cue
Битрейт аудио: lossless
Источник (релизер): kikel (Спасибо)
Наличие сканов: да
Треклист:

СD 1 (55:55)

CD1 Smoke On The Water:
01.Vulture Blood - Warhorse (Nicky Simper)
02.Lazy - Jon Lord Blues Project
03.Red Skies - Energy (Tommy Bolin)
04.Smoke On The Water - Gillan (Ian Gillan)
05.It?s Only Life - Roger Glover
06.Piece Of My Heart - Glenn Hughes
07.River - Quatermass Ii (Don Airey)
08.The Seeker - Joe Lynn Turner & Leslie West
09.Heartbreaker - Steve Morse
10.Bargain - Ian Paice
11.Dancing Madly Backwards (On A Sea Of Air) - Captain Beyond (Rod Evans)
12.Train Kept A Rollin? - Screamin?lord Such & The Savages (Ritchie Blackmore)

Лог

Exact Audio Copy V1.0 beta 3 from 29. August 2011
EAC extraction logfile from 14. March 2014, 19:54
VA / The Many Faces Of Deep Purple
Used drive  : HL-DT-STDVDRAM GU40N   Adapter: 0  ID: 1
Read mode               : Secure
Utilize accurate stream : Yes
Defeat audio cache      : Yes
Make use of C2 pointers : No
Read offset correction                      : 103
Overread into Lead-In and Lead-Out          : No
Fill up missing offset samples with silence : Yes
Delete leading and trailing silent blocks   : No
Null samples used in CRC calculations       : Yes
Used interface                              : Installed external ASPI interface
Used output format              : User Defined Encoder
Selected bitrate                : 128 kBit/s
Quality                         : High
Add ID3 tag                     : No
Command line compressor         : C:\Program Files (x86)\AudioConverter\AudioConverter.exe
Additional command line options :  -V -8 -T "Date=%year%" -T "Genre=%genre%" %source%
TOC of the extracted CD
     Track |   Start  |  Length  | Start sector | End sector
    ---------------------------------------------------------
        1  |  0:00.00 |  5:10.56 |         0    |    23305
        2  |  5:10.56 |  4:47.09 |     23306    |    44839
        3  |  9:57.65 |  3:26.18 |     44840    |    60307
        4  | 13:24.08 |  7:14.28 |     60308    |    92885
        5  | 20:38.36 |  5:05.65 |     92886    |   115825
        6  | 25:44.26 |  4:02.37 |    115826    |   134012
        7  | 29:46.63 |  5:21.65 |    134013    |   158152
        8  | 35:08.53 |  3:23.00 |    158153    |   173377
        9  | 38:31.53 |  4:27.23 |    173378    |   193425
       10  | 42:59.01 |  5:24.64 |    193426    |   217789
       11  | 48:23.65 |  4:42.28 |    217790    |   238967
       12  | 53:06.18 |  2:48.56 |    238968    |   251623
Range status and errors
Selected range
     Filename C:\Users\workutagin\Desktop\Neuer Ordner\VA - The Many Faces Of Deep Purple.wav
     Peak level 100.0 %
     Extraction speed 2.1 X
     Range quality 100.0 %
     Test CRC 9CFD787E
     Copy CRC 9CFD787E
     Copy OK
No errors occurred
AccurateRip summary
Track  1  not present in database
Track  2  not present in database
Track  3  not present in database
Track  4  not present in database
Track  5  not present in database
Track  6  not present in database
Track  7  not present in database
Track  8  not present in database
Track  9  not present in database
Track 10  not present in database
Track 11  not present in database
Track 12  not present in database
None of the tracks are present in the AccurateRip database
End of status report
==== Log checksum 641817D334F017CE9FB0DE9C826E0947BA0824A15F889F522B75331B025A5513 ====
-

СD 2 (1:03:49)

CD2 Child In Time:
01.Child In Time - Gillan (Ian Gillan)
02.Space Truckin? - Ian Paice & William Shatner
03.Fireball - Funky Junction (A.K.A.Thin Lizzy)
04.Jungle Love - Joe Lynn Turner & Steve Morse
05.Just Another Day - Fandango (Nicky Simper)
06.Sad Eyes - Vargas Blues Band Feat. Glenn Hughes
07.Back At The Chicken Shack - Jon Lord Blues Project
08.Back In Time - Warhorse (Nicky Simper)
09.Wild Dogs (Acoustic Version) - Tommy Bolin
10.For The Love Of Money - Ian Paice & Nektar
11.Long Road - Quatermass Ii (Don Airey)
12.Distant Sun - Captain Beyond (Rod Evans)

Лог EAC

Exact Audio Copy V1.0 beta 3 from 29. August 2011
EAC extraction logfile from 14. March 2014, 21:14
Various Artists / The Many Faces Of Deep Purple CD2
Used drive  : HL-DT-STDVDRAM GU40N   Adapter: 0  ID: 1
Read mode               : Secure
Utilize accurate stream : Yes
Defeat audio cache      : Yes
Make use of C2 pointers : No
Read offset correction                      : 103
Overread into Lead-In and Lead-Out          : No
Fill up missing offset samples with silence : Yes
Delete leading and trailing silent blocks   : No
Null samples used in CRC calculations       : Yes
Used interface                              : Installed external ASPI interface
Used output format              : User Defined Encoder
Selected bitrate                : 128 kBit/s
Quality                         : High
Add ID3 tag                     : No
Command line compressor         : C:\Program Files (x86)\AudioConverter\AudioConverter.exe
Additional command line options :  -V -8 -T "Date=%year%" -T "Genre=%genre%" %source%
TOC of the extracted CD
     Track |   Start  |  Length  | Start sector | End sector
    ---------------------------------------------------------
        1  |  0:00.00 |  6:57.09 |         0    |    31283
        2  |  6:57.09 |  4:24.65 |     31284    |    51148
        3  | 11:21.74 |  3:22.28 |     51149    |    66326
        4  | 14:44.27 |  3:26.37 |     66327    |    81813
        5  | 18:10.64 |  3:56.18 |     81814    |    99531
        6  | 22:07.07 |  4:39.00 |     99532    |   120456
        7  | 26:46.07 |  6:10.37 |    120457    |   148243
        8  | 32:56.44 |  7:49.18 |    148244    |   183436
        9  | 40:45.62 |  4:48.20 |    183437    |   205056
       10  | 45:34.07 |  7:40.28 |    205057    |   239584
       11  | 53:14.35 |  5:49.28 |    239585    |   265787
       12  | 59:03.63 |  4:45.46 |    265788    |   287208
Range status and errors
Selected range
     Filename C:\Users\workutagin\Desktop\2\Various Artists - The Many Faces Of Deep Purple CD2.wav
     Peak level 100.0 %
     Extraction speed 2.1 X
     Range quality 100.0 %
     Test CRC 77DEE7CC
     Copy CRC 77DEE7CC
     Copy OK
No errors occurred
AccurateRip summary
Track  1  not present in database
Track  2  not present in database
Track  3  not present in database
Track  4  not present in database
Track  5  not present in database
Track  6  not present in database
Track  7  not present in database
Track  8  not present in database
Track  9  not present in database
Track 10  not present in database
Track 11  not present in database
Track 12  not present in database
None of the tracks are present in the AccurateRip database
End of status report
==== Log checksum 53FEF50F28C098F0BFCD6DE9C0530BBE596C935F7DC9A5C3A094DB01046804CC ====
-

СD 3 (55:56)

CD3 Black Night:
01.Strange Kind Of Woman - Funky Junction (A.K.A.Thin Lizzy)
02.Rocky Road Blues - Fandango (Nicky Simper)
03.Black Night - Vargas, Bogert & Appice Feat. Paul Shortino
04.No Laughing In Heaven - Gillan (Ian Gillan)
05.Pictures Of Home - Jon Lord
06.Space Oddity - William Shatner, Ritchie Blackmore & Candice Night
07.Hoka-hay! - Energy (Tommy Bolin)
08.Speed King - Funky Junction (A.K.A.Thin Lizzy)
09.My Turn - Roger Glover
10.You Keep Me Hangin? On - Vanilla Fudge
11.River Deep, Mountain High - Ike & Tina Turner
12.Deep Purple - Nino Tempo & April Stevens

Лог EAC

[code
Exact Audio Copy V1.0 beta 3 from 29. August 2011
EAC extraction logfile from 14. March 2014, 22:12
Various Artists / The Many Faces Of Deep Purple
Used drive : HL-DT-STDVDRAM GU40N Adapter: 0 ID: 1
Read mode : Secure
Utilize accurate stream : Yes
Defeat audio cache : Yes
Make use of C2 pointers : No
Read offset correction : 103
Overread into Lead-In and Lead-Out : No
Fill up missing offset samples with silence : Yes
Delete leading and trailing silent blocks : No
Null samples used in CRC calculations : Yes
Used interface : Installed external ASPI interface
Used output format : User Defined Encoder
Selected bitrate : 128 kBit/s
Quality : High
Add ID3 tag : No
Command line compressor : C:\Program Files (x86)\AudioConverter\AudioConverter.exe
Additional command line options : -V -8 -T "Date=%year%" -T "Genre=%genre%" %source%
TOC of the extracted CD
Track | Start | Length | Start sector | End sector
---------------------------------------------------------
1 | 0:00.00 | 3:28.18 | 0 | 15617
2 | 3:28.18 | 5:01.46 | 15618 | 38238
3 | 8:29.64 | 4:28.09 | 38239 | 58347
4 | 12:57.73 | 4:03.56 | 58348 | 76628
5 | 17:01.54 | 8:16.37 | 76629 | 113865
6 | 25:18.16 | 4:51.00 | 113866 | 135690
7 | 30:09.16 | 7:01.56 | 135691 | 167321
8 | 37:10.72 | 5:19.28 | 167322 | 191274
9 | 42:30.25 | 3:27.09 | 191275 | 206808
10 | 45:57.34 | 3:45.18 | 206809 | 223701
11 | 49:42.52 | 3:27.55 | 223702 | 239281
12 | 53:10.32 | 2:46.00 | 239282 | 251731
Range status and errors
Selected range
Filename C:\Users\workutagin\Desktop\3\Various Artists - The Many Faces Of Deep Purple.wav
Peak level 100.0 %
Extraction speed 2.1 X
Range quality 100.0 %
Test CRC F334040A
Copy CRC F334040A
Copy OK
No errors occurred
AccurateRip summary
Track 1 not present in database
Track 2 not present in database
Track 3 not present in database
Track 4 not present in database
Track 5 not present in database
Track 6 not present in database
Track 7 not present in database
Track 8 not present in database
Track 9 not present in database
Track 10 not present in database
Track 11 not present in database
Track 12 not present in database
None of the tracks are present in the AccurateRip database
End of status report
==== Log checksum 62592766BF6521E117C0AAAFBC1E22EFAF5218F3CB85F25D20A56B03A61F2DB4 ====
[/code]
---
[Профиль] [ЛС]
Показать сообщения:    

Текущее время: Сегодня 23:31

Часовой пояс: GMT



Вы не можете начинать темы
Вы не можете отвечать на сообщения
Вы не можете редактировать свои сообщения
Вы не можете удалять свои сообщения
Вы не можете голосовать в опросах
Вы не можете прикреплять файлы к сообщениям
Вы не можете скачивать файлы