(Hard Rock) VA - The Many Faces Of AC/DC: The Ultimate Tribute to AC/DC - 2012, WavPack (image+.cue), lossless

 
Автор Сообщение

sergej644 ®

Пол:

Стаж: 4 года 11 месяцев

Сообщений: 6043

Откуда: Soviet Union



Награды: Нет

Торрент-статистика

Создавать темы 06-Сен-2014 11:13

[Цитировать]

--The Many Faces Of AC/DC: The Ultimate Tribute to AC/DC
Жанр: Hard Rock
Год издания: 2012
Издатель (лейбл): Music Brokers
Номер по каталогу: MBB7116
Аудиокодек: WavPack (*.wv)
Тип рипа: image+.cue
Битрейт аудио: lossless
Продолжительность: 02:14:50
Наличие сканов в содержимом раздачи: да

Треклист:

CD 1 - AC/CD`s MUSIC CELEBRATION:

01. Back In Black - Joe Lynn Turner (Rainbow) & Phil Collen (Def Leppard)
02. Highway To Hell - Quiet Riot
03. You Shook Me All Night Long - Jetboy
04. It?s A Long Way To The Top (If You Wanna Rock?n?roll) - Lemmy (Motorhead) & Jake E.Lee (Ozzy Osbourne)
05. Whole Lotta Rosie - Stephen Pearcy (Ratt) & Tracii Guns (L.A.Guns)
06. Shake A Leg - John Corabi (Motley Crue) & Bruce Kulick (Kiss)
07. Shoot To Thrill - Bang Tango Feat Fred Coury (Cinderella)
08. Walk All Over You - Dee Snider (Twisted Sister) & Scott Ian (Anthrax)
09. Sin City - Great White
10. Night Prowler - Dave Meniketti (Y&t)
11. Rocker - The Vibrators
12. Squealer - Genitorturers

CD 2 - BRIAN JOHNSON & GEORDIE -The Singles Sides A & B:

01. Don't Do That
02. Francis was a Rocker
03. All Because of You
04. Ain't it just like a woman
05. Con you do it
06. Red Eyed Lady
07. Electric Lady
08. Geordie Stomp
09. Black Cat Woman
10. She's A Teaser
11. We're all right now
12. Ride on Baby
13. Goodbye Love
14. She's a Lady

CD 3 - BON SCOTT - The Early Years & Roots:

01. Round An Round and Round
02. I Can't Dance With You
03. Sookie Sookie
04. Every Day You Have To Cry
05. Love Makes Sweet Music
06. I Can Hear The Raindrops
07. Why Me?
08. Peculiar Hole In The Sky
09. She Said
10. To Know You Is To Love You
11. Caret Gully
The Roots Of AC/DC:
12. Mannish Boy - Muddy Waters
13. Tribute To Elmore - Jimmy Page & Eric Clapton
14. Steelin? - Jeff Beck All Stars

Лог создания рипа CD 1

Exact Audio Copy V1.0 beta 3 from 29. August 2011
EAC extraction logfile from 30. August 2012, 17:09
THE MANY FACES OF AC/DC / CD 1 - AC/CDs MUSIC CELEBRATION
Used drive  : ATAPI   DVD A  DH20A3H   Adapter: 4  ID: 0
Read mode               : Secure
Utilize accurate stream : Yes
Defeat audio cache      : Yes
Make use of C2 pointers : No
Read offset correction                      : 6
Overread into Lead-In and Lead-Out          : No
Fill up missing offset samples with silence : Yes
Delete leading and trailing silent blocks   : No
Null samples used in CRC calculations       : Yes
Used interface                              : Installed external ASPI interface
Used output format              : User Defined Encoder
Selected bitrate                : 768 kBit/s
Quality                         : High
Add ID3 tag                     : Yes
Command line compressor         : C:\Program Files (x86)\Exact Audio Copy\wavpack-4.60.1\wavpack.exe
Additional command line options : -hm -w "Year=%year%" -w "Genre=%genre%" %source% %dest%
TOC of the extracted CD
     Track |   Start  |  Length  | Start sector | End sector
    ---------------------------------------------------------
        1  |  0:00.00 |  4:31.38 |         0    |    20362
        2  |  4:31.38 |  4:00.52 |     20363    |    38414
        3  |  8:32.15 |  3:39.10 |     38415    |    54849
        4  | 12:11.25 |  5:37.74 |     54850    |    80198
        5  | 17:49.24 |  4:19.09 |     80199    |    99632
        6  | 22:08.33 |  4:21.29 |     99633    |   119236
        7  | 26:29.62 |  5:21.22 |    119237    |   143333
        8  | 31:51.09 |  4:54.27 |    143334    |   165410
        9  | 36:45.36 |  4:54.60 |    165411    |   187520
       10  | 41:40.21 |  5:42.28 |    187521    |   213198
       11  | 47:22.49 |  2:45.14 |    213199    |   225587
       12  | 50:07.63 |  4:40.73 |    225588    |   246660
Range status and errors
Selected range
     Filename G:\Rips\THE MANY FACES OF AC,DC - CD 1 - AC,CDs MUSIC CELEBRATION.wav
     Peak level 100.0 %
     Extraction speed 7.5 X
     Range quality 99.9 %
     Copy CRC 41F9BE3A
     Copy OK
No errors occurred
AccurateRip summary
Track  1  not present in database
Track  2  not present in database
Track  3  not present in database
Track  4  not present in database
Track  5  not present in database
Track  6  not present in database
Track  7  not present in database
Track  8  not present in database
Track  9  not present in database
Track 10  not present in database
Track 11  not present in database
Track 12  not present in database
None of the tracks are present in the AccurateRip database
End of status report

Лог создания рипа CD 2

Exact Audio Copy V1.0 beta 3 from 29. August 2011
EAC extraction logfile from 30. August 2012, 17:22
AC/DC / CD 2 - BRIAN JOHNSON & GEORDIE -The Singles Sides A & B
Used drive  : ATAPI   DVD A  DH20A3H   Adapter: 4  ID: 0
Read mode               : Secure
Utilize accurate stream : Yes
Defeat audio cache      : Yes
Make use of C2 pointers : No
Read offset correction                      : 6
Overread into Lead-In and Lead-Out          : No
Fill up missing offset samples with silence : Yes
Delete leading and trailing silent blocks   : No
Null samples used in CRC calculations       : Yes
Used interface                              : Installed external ASPI interface
Used output format              : User Defined Encoder
Selected bitrate                : 768 kBit/s
Quality                         : High
Add ID3 tag                     : Yes
Command line compressor         : C:\Program Files (x86)\Exact Audio Copy\wavpack-4.60.1\wavpack.exe
Additional command line options : -hm -w "Year=%year%" -w "Genre=%genre%" %source% %dest%
TOC of the extracted CD
     Track |   Start  |  Length  | Start sector | End sector
    ---------------------------------------------------------
        1  |  0:00.00 |  3:08.61 |         0    |    14160
        2  |  3:08.61 |  2:56.26 |     14161    |    27386
        3  |  6:05.12 |  2:47.52 |     27387    |    39963
        4  |  8:52.64 |  3:52.13 |     39964    |    57376
        5  | 12:45.02 |  3:11.34 |     57377    |    71735
        6  | 15:56.36 |  3:07.03 |     71736    |    85763
        7  | 19:03.39 |  2:57.69 |     85764    |    99107
        8  | 22:01.33 |  2:42.40 |     99108    |   111297
        9  | 24:43.73 |  3:16.53 |    111298    |   126050
       10  | 28:00.51 |  3:17.50 |    126051    |   140875
       11  | 31:18.26 |  3:14.39 |    140876    |   155464
       12  | 34:32.65 |  2:39.07 |    155465    |   167396
       13  | 37:11.72 |  3:23.10 |    167397    |   182631
       14  | 40:35.07 |  3:04.12 |    182632    |   196443
Range status and errors
Selected range
     Filename G:\Rips\AC-DC - CD 2 - BRIAN JOHNSON & GEORDIE -The Singles Sides A & B.wav
     Peak level 98.6 %
     Extraction speed 5.7 X
     Range quality 100.0 %
     Copy CRC DCFB606D
     Copy OK
No errors occurred
AccurateRip summary
Track  1  not present in database
Track  2  not present in database
Track  3  not present in database
Track  4  not present in database
Track  5  not present in database
Track  6  not present in database
Track  7  not present in database
Track  8  not present in database
Track  9  not present in database
Track 10  not present in database
Track 11  not present in database
Track 12  not present in database
Track 13  not present in database
Track 14  not present in database
None of the tracks are present in the AccurateRip database
End of status report

Лог создания рипа CD 3

Exact Audio Copy V1.0 beta 3 from 29. August 2011
EAC extraction logfile from 30. August 2012, 17:33
AC/DC / CD 3 - BON SCOTT - The Early Years & Roots
Used drive  : ATAPI   DVD A  DH20A3H   Adapter: 4  ID: 0
Read mode               : Secure
Utilize accurate stream : Yes
Defeat audio cache      : Yes
Make use of C2 pointers : No
Read offset correction                      : 6
Overread into Lead-In and Lead-Out          : No
Fill up missing offset samples with silence : Yes
Delete leading and trailing silent blocks   : No
Null samples used in CRC calculations       : Yes
Used interface                              : Installed external ASPI interface
Used output format              : User Defined Encoder
Selected bitrate                : 768 kBit/s
Quality                         : High
Add ID3 tag                     : Yes
Command line compressor         : C:\Program Files (x86)\Exact Audio Copy\wavpack-4.60.1\wavpack.exe
Additional command line options : -hm -w "Year=%year%" -w "Genre=%genre%" %source% %dest%
TOC of the extracted CD
     Track |   Start  |  Length  | Start sector | End sector
    ---------------------------------------------------------
        1  |  0:00.00 |  2:46.62 |         0    |    12511
        2  |  2:46.62 |  2:51.36 |     12512    |    25372
        3  |  5:38.23 |  2:16.44 |     25373    |    35616
        4  |  7:54.67 |  2:28.55 |     35617    |    46771
        5  | 10:23.47 |  2:15.10 |     46772    |    56906
        6  | 12:38.57 |  1:49.11 |     56907    |    65092
        7  | 14:27.68 |  1:49.32 |     65093    |    73299
        8  | 16:17.25 |  2:46.20 |     73300    |    85769
        9  | 19:03.45 |  2:46.24 |     85770    |    98243
       10  | 21:49.69 |  2:56.37 |     98244    |   111480
       11  | 24:46.31 |  2:54.38 |    111481    |   124568
       12  | 27:40.69 |  3:53.55 |    124569    |   142098
       13  | 31:34.49 |  2:09.32 |    142099    |   151805
       14  | 33:44.06 |  2:39.41 |    151806    |   163771
Range status and errors
Selected range
     Filename G:\Rips\AC,DC - CD 3 - BON SCOTT - The Early Years & Roots.wav
     Peak level 97.0 %
     Extraction speed 5.5 X
     Range quality 100.0 %
     Copy CRC 38D015C9
     Copy OK
No errors occurred
AccurateRip summary
Track  1  not present in database
Track  2  not present in database
Track  3  not present in database
Track  4  not present in database
Track  5  not present in database
Track  6  not present in database
Track  7  not present in database
Track  8  not present in database
Track  9  not present in database
Track 10  not present in database
Track 11  not present in database
Track 12  not present in database
Track 13  not present in database
Track 14  not present in database
None of the tracks are present in the AccurateRip database
End of status report

Содержание индексной карты (.CUE) CD 1

REM GENRE ROCK
REM DATE 2012
REM DISCID 850CD80C
REM COMMENT "ExactAudioCopy v1.0b3"
PERFORMER "THE MANY FACES OF AC/DC"
TITLE "CD 1 - AC/CDs MUSIC CELEBRATION"
FILE "THE MANY FACES OF AC,DC - CD 1 - AC,CDs MUSIC CELEBRATION.wv" WAVE
  TRACK 01 AUDIO
    TITLE "Back In Black - Joe Lynn Turner (Rainbow) & Phil Collen (Def Leppard)"
    PERFORMER "THE MANY FACES OF AC/DC"
    FLAGS DCP
    INDEX 01 00:00:00
  TRACK 02 AUDIO
    TITLE "Highway To Hell - Quiet Riot"
    PERFORMER "THE MANY FACES OF AC/DC"
    FLAGS DCP
    INDEX 01 04:31:38
  TRACK 03 AUDIO
    TITLE "You Shook Me All Night Long - Jetboy "
    PERFORMER "THE MANY FACES OF AC/DC"
    FLAGS DCP
    INDEX 01 08:32:15
  TRACK 04 AUDIO
    TITLE "It.s A Long Way To The Top (If You Wanna Rock.n.roll) - Lemmy (Motorhead) & J..."
    PERFORMER "THE MANY FACES OF AC/DC"
    FLAGS DCP
    INDEX 01 12:11:25
  TRACK 05 AUDIO
    TITLE "Whole Lotta Rosie - Stephen Pearcy (Ratt) & Tracii Guns (L.A.Guns) "
    PERFORMER "THE MANY FACES OF AC/DC"
    FLAGS DCP
    INDEX 01 17:49:24
  TRACK 06 AUDIO
    TITLE "Shake A Leg - John Corabi (Motley Crue) & Bruce Kulick (Kiss)"
    PERFORMER "THE MANY FACES OF AC/DC"
    FLAGS DCP
    INDEX 01 22:08:33
  TRACK 07 AUDIO
    TITLE "Shoot To Thrill - Bang Tango Feat Fred Coury (Cinderella) "
    PERFORMER "THE MANY FACES OF AC/DC"
    FLAGS DCP
    INDEX 01 26:29:62
  TRACK 08 AUDIO
    TITLE "Walk All Over You - Dee Snider (Twisted Sister) & Scott Ian (Anthrax)"
    PERFORMER "THE MANY FACES OF AC/DC"
    FLAGS DCP
    INDEX 01 31:51:09
  TRACK 09 AUDIO
    TITLE "Sin City - Great White "
    PERFORMER "THE MANY FACES OF AC/DC"
    FLAGS DCP
    INDEX 01 36:45:36
  TRACK 10 AUDIO
    TITLE "Night Prowler - Dave Meniketti (Y&t)"
    PERFORMER "THE MANY FACES OF AC/DC"
    FLAGS DCP
    INDEX 01 41:40:21
  TRACK 11 AUDIO
    TITLE "Rocker - The Vibrators"
    PERFORMER "THE MANY FACES OF AC/DC"
    FLAGS DCP
    INDEX 01 47:22:49
  TRACK 12 AUDIO
    TITLE "Squealer - Genitorturers"
    PERFORMER "THE MANY FACES OF AC/DC"
    FLAGS DCP
    INDEX 01 50:07:63

Содержание индексной карты (.CUE) CD 2

REM GENRE Rock
REM DATE 2012
REM DISCID C10A3B0E
REM COMMENT "ExactAudioCopy v1.0b3"
PERFORMER "AC/DC"
TITLE "CD 2 - BRIAN JOHNSON & GEORDIE -The Singles Sides A & B"
FILE "AC-DC - CD 2 - BRIAN JOHNSON & GEORDIE -The Singles Sides A & B.wv" WAVE
  TRACK 01 AUDIO
    TITLE "Don't Do That"
    PERFORMER "AC/DC"
    FLAGS DCP
    INDEX 01 00:00:00
  TRACK 02 AUDIO
    TITLE "Francis was a Rocker"
    PERFORMER "AC/DC"
    FLAGS DCP
    INDEX 01 03:08:61
  TRACK 03 AUDIO
    TITLE "All Because of You"
    PERFORMER "AC/DC"
    FLAGS DCP
    INDEX 01 06:05:12
  TRACK 04 AUDIO
    TITLE "Ain't it just like a woman"
    PERFORMER "AC/DC"
    FLAGS DCP
    INDEX 01 08:52:64
  TRACK 05 AUDIO
    TITLE "Con you do it"
    PERFORMER "AC/DC"
    FLAGS DCP
    INDEX 01 12:45:02
  TRACK 06 AUDIO
    TITLE "Red Eyed Lady"
    PERFORMER "AC/DC"
    FLAGS DCP
    INDEX 01 15:56:36
  TRACK 07 AUDIO
    TITLE "Electric Lady"
    PERFORMER "AC/DC"
    FLAGS DCP
    INDEX 01 19:03:39
  TRACK 08 AUDIO
    TITLE "Geordie Stomp"
    PERFORMER "AC/DC"
    FLAGS DCP
    INDEX 01 22:01:33
  TRACK 09 AUDIO
    TITLE "Black Cat Woman"
    PERFORMER "AC/DC"
    FLAGS DCP
    INDEX 01 24:43:73
  TRACK 10 AUDIO
    TITLE "She's A Teaser"
    PERFORMER "AC/DC"
    FLAGS DCP
    INDEX 01 28:00:51
  TRACK 11 AUDIO
    TITLE "We're all right now"
    PERFORMER "AC/DC"
    FLAGS DCP
    INDEX 01 31:18:26
  TRACK 12 AUDIO
    TITLE "Ride on Baby"
    PERFORMER "AC/DC"
    FLAGS DCP
    INDEX 01 34:32:65
  TRACK 13 AUDIO
    TITLE "Goodbye Love"
    PERFORMER "AC/DC"
    FLAGS DCP
    INDEX 01 37:11:72
  TRACK 14 AUDIO
    TITLE "She's a Lady"
    PERFORMER "AC/DC"
    FLAGS DCP
    INDEX 01 40:35:07

Содержание индексной карты (.CUE) CD 3

REM GENRE Rock
REM DATE 2012
REM DISCID CA08870E
REM COMMENT "ExactAudioCopy v1.0b3"
PERFORMER "AC/DC"
TITLE "CD 3 - BON SCOTT - The Early Years & Roots"
FILE "AC,DC - CD 3 - BON SCOTT - The Early Years & Roots.wv" WAVE
  TRACK 01 AUDIO
    TITLE "Round An Round and Round"
    PERFORMER "AC/DC"
    FLAGS DCP
    INDEX 01 00:00:00
  TRACK 02 AUDIO
    TITLE "I Can't Dance With You"
    PERFORMER "AC/DC"
    FLAGS DCP
    INDEX 01 02:46:62
  TRACK 03 AUDIO
    TITLE "Sookie Sookie"
    PERFORMER "AC/DC"
    FLAGS DCP
    INDEX 01 05:38:23
  TRACK 04 AUDIO
    TITLE "Every Day You Have To Cry"
    PERFORMER "AC/DC"
    FLAGS DCP
    INDEX 01 07:54:67
  TRACK 05 AUDIO
    TITLE "Love Makes Sweet Music"
    PERFORMER "AC/DC"
    FLAGS DCP
    INDEX 01 10:23:47
  TRACK 06 AUDIO
    TITLE "I Can Hear The Raindrops"
    PERFORMER "AC/DC"
    FLAGS DCP
    INDEX 01 12:38:57
  TRACK 07 AUDIO
    TITLE "Why Me?"
    PERFORMER "AC/DC"
    FLAGS DCP
    INDEX 01 14:27:68
  TRACK 08 AUDIO
    TITLE "Peculiar Hole In The Sky"
    PERFORMER "AC/DC"
    FLAGS DCP
    INDEX 01 16:17:25
  TRACK 09 AUDIO
    TITLE "She Said"
    PERFORMER "AC/DC"
    FLAGS DCP
    INDEX 01 19:03:45
  TRACK 10 AUDIO
    TITLE "To Know You Is To Love You"
    PERFORMER "AC/DC"
    FLAGS DCP
    INDEX 01 21:49:69
  TRACK 11 AUDIO
    TITLE "Caret Gully"
    PERFORMER "AC/DC"
    FLAGS DCP
    INDEX 01 24:46:31
  TRACK 12 AUDIO
    TITLE "Mannish Boy - Muddy Waters"
    PERFORMER "AC/DC"
    FLAGS DCP
    INDEX 01 27:40:69
  TRACK 13 AUDIO
    TITLE "Tribute To Elmore - Jimmy Page & Eric Clapton"
    PERFORMER "AC/DC"
    FLAGS DCP
    INDEX 01 31:34:49
  TRACK 14 AUDIO
    TITLE "Steelin. - Jeff Beck All Stars"
    PERFORMER "AC/DC"
    FLAGS DCP
    INDEX 01 33:44:06
[Профиль] [ЛС]
Показать сообщения:    

Текущее время: Сегодня 10:46

Часовой пояс: GMT



Вы не можете начинать темы
Вы не можете отвечать на сообщения
Вы не можете редактировать свои сообщения
Вы не можете удалять свои сообщения
Вы не можете голосовать в опросах
Вы не можете прикреплять файлы к сообщениям
Вы не можете скачивать файлы