(Pop, Other Rock, Disco) VA - The Long Versions (3CD) - 2015 [FLAC, tracks+.cue, lossless]

 
Автор Сообщение

sergej644 ®

Пол:

Стаж: 4 года 11 месяцев

Сообщений: 6045

Откуда: Soviet Union



Награды: Нет

Торрент-статистика

Создавать темы 01-Июл-2015 14:18

[Цитировать]

-The Long Versions (3CD)-- Год издания: 2015
Страна: N/A
Жанр: Pop, Other Rock, Disco
Продолжительность: 03:51:14-Лейбл издания: Sony Music
Тип альбома: Compilations
Страна-выпуска диска: EU
Формат: FLAC
Битрейт аудио: lossless
Тип рипа: tracks+.cue
Наличие сканов в содержимом раздачи: да
-

CD 1 | 01:18:35

01. Ottawan - D.I.S.C.O. (07:01)
02. Nick Straker Band - A Walk In The Park (04:15)
03. Village People - Y.M.C.A. (04:46)
04. Patrick Hernandez - Born To Be Alive (Original 12' Mix) (05:55)
05. Kiss - I Was Made For Lovin You (04:28)
06. Michael Zager Band - Let's All Chant (06:50)
07. The Jacksons - Can You Feel It (05:59)
08. G.Q. - Disco Night (08:43)
09. Dan Hartman - Vertigo / Relight My Fire (09:42)
10. Boney M. - Rasputin (07:34)
11. Gibson Brothers - Que Sera Me Vida (06:48)
12. The Ritchie Family - The Best Disco In Town (06:40)

лог создания рипа

Exact Audio Copy V1.0 beta 4 from 7. December 2014
EAC extraction logfile from 29. June 2015, 19:19
Various Artists / Disco Long Versions - CD1
Used drive  : ASUS    DRW-24B3ST   Adapter: 1  ID: 2
Read mode               : Secure
Utilize accurate stream : Yes
Defeat audio cache      : Yes
Make use of C2 pointers : No
Read offset correction                      : 6
Overread into Lead-In and Lead-Out          : No
Fill up missing offset samples with silence : Yes
Delete leading and trailing silent blocks   : No
Null samples used in CRC calculations       : Yes
Used interface                              : Native Win32 interface for Win NT & 2000
Gap handling                                : Appended to previous track
Used output format              : User Defined Encoder
Selected bitrate                : 896 kBit/s
Quality                         : High
Add ID3 tag                     : No
Command line compressor         : C:\Program Files (x86)\Exact Audio Copy\Flac\flac.exe
Additional command line options : -8 -V -T "ARTIST=%artist%" -T "TITLE=%title%" -T "ALBUM=%albumtitle%" -T "DATE=%year%" -T "TRACKNUMBER=%tracknr%" -T "GENRE=%genre%" -T "COMMENT=ripped by Oleandris" %source%
TOC of the extracted CD
     Track |   Start  |  Length  | Start sector | End sector
    ---------------------------------------------------------
        1  |  0:00.00 |  7:00.36 |         0    |    31535
        2  |  7:00.36 |  4:14.35 |     31536    |    50620
        3  | 11:14.71 |  4:45.55 |     50621    |    72050
        4  | 16:00.51 |  5:54.67 |     72051    |    98667
        5  | 21:55.43 |  4:27.27 |     98668    |   118719
        6  | 26:22.70 |  6:49.20 |    118720    |   149414
        7  | 33:12.15 |  5:58.45 |    149415    |   176309
        8  | 39:10.60 |  8:42.63 |    176310    |   215522
        9  | 47:53.48 |  9:41.19 |    215523    |   259116
       10  | 57:34.67 |  7:33.05 |    259117    |   293096
       11  | 65:07.72 |  6:47.11 |    293097    |   323632
       12  | 71:55.08 |  6:39.08 |    323633    |   353565
Track  1
     Filename K:\AUDIO - III\ Pop - Disco - Soul - Funk  - Synthpop (зарубежные сборники)\Dance Hits\ Disco - The Long Versions 3CD (2015)\CD1\01. Ottawan - D.I.S.C.O.wav
     Pre-gap length  0:00:02.00
     Peak level 99.9 %
     Extraction speed 4.2 X
     Track quality 100.0 %
     Test CRC 75384C57
     Copy CRC 75384C57
     Accurately ripped (confidence 1)  [C7D49C6A]  (AR v2)
     Copy OK
Track  2
     Filename K:\AUDIO - III\ Pop - Disco - Soul - Funk  - Synthpop (зарубежные сборники)\Dance Hits\ Disco - The Long Versions 3CD (2015)\CD1\02. Nick Straker Band - A Walk In The Park.wav
     Pre-gap length  0:00:01.00
     Peak level 99.9 %
     Extraction speed 4.5 X
     Track quality 100.0 %
     Test CRC CB635850
     Copy CRC CB635850
     Accurately ripped (confidence 1)  [E71612F6]  (AR v2)
     Copy OK
Track  3
     Filename K:\AUDIO - III\ Pop - Disco - Soul - Funk  - Synthpop (зарубежные сборники)\Dance Hits\ Disco - The Long Versions 3CD (2015)\CD1\03. Village People - Y.M.C.A.wav
     Pre-gap length  0:00:01.00
     Peak level 88.8 %
     Extraction speed 4.9 X
     Track quality 100.0 %
     Test CRC 22D95CCE
     Copy CRC 22D95CCE
     Accurately ripped (confidence 1)  [4C197BC7]  (AR v2)
     Copy OK
Track  4
     Filename K:\AUDIO - III\ Pop - Disco - Soul - Funk  - Synthpop (зарубежные сборники)\Dance Hits\ Disco - The Long Versions 3CD (2015)\CD1\04. Patrick Hernandez - Born To Be Alive (Original 12'' Mix).wav
     Pre-gap length  0:00:01.00
     Peak level 99.9 %
     Extraction speed 4.6 X
     Track quality 99.9 %
     Test CRC E02151EC
     Copy CRC E02151EC
     Accurately ripped (confidence 1)  [BA05989B]  (AR v2)
     Copy OK
Track  5
     Filename K:\AUDIO - III\ Pop - Disco - Soul - Funk  - Synthpop (зарубежные сборники)\Dance Hits\ Disco - The Long Versions 3CD (2015)\CD1\05. Kiss - I Was Made For Lovin You.wav
     Pre-gap length  0:00:01.00
     Peak level 87.3 %
     Extraction speed 5.5 X
     Track quality 100.0 %
     Test CRC A1F32EA0
     Copy CRC A1F32EA0
     Accurately ripped (confidence 1)  [F59EDFD8]  (AR v2)
     Copy OK
Track  6
     Filename K:\AUDIO - III\ Pop - Disco - Soul - Funk  - Synthpop (зарубежные сборники)\Dance Hits\ Disco - The Long Versions 3CD (2015)\CD1\06. Michael Zager Band - Let's All Chant.wav
     Pre-gap length  0:00:01.00
     Peak level 87.7 %
     Extraction speed 6.1 X
     Track quality 100.0 %
     Test CRC 97458B4A
     Copy CRC 97458B4A
     Accurately ripped (confidence 1)  [A28725EF]  (AR v2)
     Copy OK
Track  7
     Filename K:\AUDIO - III\ Pop - Disco - Soul - Funk  - Synthpop (зарубежные сборники)\Dance Hits\ Disco - The Long Versions 3CD (2015)\CD1\07. The Jacksons - Can You Feel It.wav
     Pre-gap length  0:00:01.00
     Peak level 77.5 %
     Extraction speed 6.4 X
     Track quality 100.0 %
     Test CRC B56353EB
     Copy CRC B56353EB
     Accurately ripped (confidence 1)  [4C8B70AC]  (AR v2)
     Copy OK
Track  8
     Filename K:\AUDIO - III\ Pop - Disco - Soul - Funk  - Synthpop (зарубежные сборники)\Dance Hits\ Disco - The Long Versions 3CD (2015)\CD1\08. G.Q. - Disco Night.wav
     Pre-gap length  0:00:01.00
     Peak level 99.9 %
     Extraction speed 7.0 X
     Track quality 100.0 %
     Test CRC B585C09C
     Copy CRC B585C09C
     Accurately ripped (confidence 1)  [57DF44A2]  (AR v2)
     Copy OK
Track  9
     Filename K:\AUDIO - III\ Pop - Disco - Soul - Funk  - Synthpop (зарубежные сборники)\Dance Hits\ Disco - The Long Versions 3CD (2015)\CD1\09. Dan Hartman - Vertigo,Relight My Fire.wav
     Pre-gap length  0:00:01.00
     Peak level 93.9 %
     Extraction speed 7.5 X
     Track quality 100.0 %
     Test CRC 9B242210
     Copy CRC 9B242210
     Accurately ripped (confidence 1)  [87BC8E51]  (AR v2)
     Copy OK
Track 10
     Filename K:\AUDIO - III\ Pop - Disco - Soul - Funk  - Synthpop (зарубежные сборники)\Dance Hits\ Disco - The Long Versions 3CD (2015)\CD1\10. Boney M. - Rasputin.wav
     Pre-gap length  0:00:01.00
     Peak level 99.0 %
     Extraction speed 7.8 X
     Track quality 100.0 %
     Test CRC 0652C017
     Copy CRC 0652C017
     Accurately ripped (confidence 1)  [5BA89709]  (AR v2)
     Copy OK
Track 11
     Filename K:\AUDIO - III\ Pop - Disco - Soul - Funk  - Synthpop (зарубежные сборники)\Dance Hits\ Disco - The Long Versions 3CD (2015)\CD1\11. Gibson Brothers - Que Sera Me Vida.wav
     Pre-gap length  0:00:01.00
     Peak level 99.9 %
     Extraction speed 8.1 X
     Track quality 100.0 %
     Test CRC 87783E02
     Copy CRC 87783E02
     Accurately ripped (confidence 1)  [F9F14F10]  (AR v2)
     Copy OK
Track 12
     Filename K:\AUDIO - III\ Pop - Disco - Soul - Funk  - Synthpop (зарубежные сборники)\Dance Hits\ Disco - The Long Versions 3CD (2015)\CD1\12. The Ritchie Family - The Best Disco In Town.wav
     Pre-gap length  0:00:01.00
     Peak level 89.2 %
     Extraction speed 8.4 X
     Track quality 100.0 %
     Test CRC 10C28855
     Copy CRC 10C28855
     Accurately ripped (confidence 1)  [710D1257]  (AR v2)
     Copy OK
All tracks accurately ripped
No errors occurred
End of status report
---- CUETools DB Plugin V2.1.4
[CTDB TOCID: 2UzDjYZN_YvIaJYaP02.lfjZucI-] found
Submit result: 2UzDjYZN_YvIaJYaP02.lfjZucI- has been confirmed
Track | CTDB Status
  1   | (3/3) Accurately ripped
  2   | (3/3) Accurately ripped
  3   | (3/3) Accurately ripped
  4   | (3/3) Accurately ripped
  5   | (3/3) Accurately ripped
  6   | (3/3) Accurately ripped
  7   | (3/3) Accurately ripped
  8   | (3/3) Accurately ripped
  9   | (3/3) Accurately ripped
10   | (3/3) Accurately ripped
11   | (3/3) Accurately ripped
12   | (3/3) Accurately ripped

содержание индексной карты *cue

REM GENRE Disco
REM DATE 2015
REM DISCID BB126A0C
REM COMMENT "ExactAudioCopy v1.0b4"
CATALOG 0888750521323
PERFORMER "Various Artists"
TITLE "Disco Long Versions - CD1"
FILE "01. Ottawan - D.I.S.C.O.wav" WAVE
  TRACK 01 AUDIO
    TITLE "D.I.S.C.O"
    PERFORMER "Ottawan"
    ISRC DEA371257451
    INDEX 01 00:00:00
  TRACK 02 AUDIO
    TITLE "A Walk In The Park"
    PERFORMER "Nick Straker Band"
    ISRC DEA370400082
    INDEX 00 06:59:36
FILE "02. Nick Straker Band - A Walk In The Park.wav" WAVE
    INDEX 01 00:00:00
  TRACK 03 AUDIO
    TITLE "Y.M.C.A"
    PERFORMER "Village People"
    ISRC FR22F8000900
    INDEX 00 04:13:35
FILE "03. Village People - Y.M.C.A.wav" WAVE
    INDEX 01 00:00:00
  TRACK 04 AUDIO
    TITLE "Born To Be Alive (Original 12' Mix)"
    PERFORMER "Patrick Hernandez"
    ISRC NLP431200103
    INDEX 00 04:44:55
FILE "04. Patrick Hernandez - Born To Be Alive (Original 12'' Mix).wav" WAVE
    INDEX 01 00:00:00
  TRACK 05 AUDIO
    TITLE "I Was Made For Lovin You"
    PERFORMER "Kiss"
    ISRC USPR39330175
    INDEX 00 05:53:67
FILE "05. Kiss - I Was Made For Lovin You.wav" WAVE
    INDEX 01 00:00:00
  TRACK 06 AUDIO
    TITLE "Let's All Chant"
    PERFORMER "Michael Zager Band"
    ISRC DEKF21500004
    INDEX 00 04:26:27
FILE "06. Michael Zager Band - Let's All Chant.wav" WAVE
    INDEX 01 00:00:00
  TRACK 07 AUDIO
    TITLE "Can You Feel It"
    PERFORMER "The Jacksons"
    ISRC USSM18000014
    INDEX 00 06:48:20
FILE "07. The Jacksons - Can You Feel It.wav" WAVE
    INDEX 01 00:00:00
  TRACK 08 AUDIO
    TITLE "Disco Night"
    PERFORMER "G.Q."
    ISRC USAR17900154
    INDEX 00 05:57:45
FILE "08. G.Q. - Disco Night.wav" WAVE
    INDEX 01 00:00:00
  TRACK 09 AUDIO
    TITLE "Vertigo/Relight My Fire"
    PERFORMER "Dan Hartman"
    ISRC USSM10002362
    INDEX 00 08:41:63
FILE "09. Dan Hartman - Vertigo,Relight My Fire.wav" WAVE
    INDEX 01 00:00:00
  TRACK 10 AUDIO
    TITLE "Rasputin"
    PERFORMER "Boney M."
    ISRC DEC730800009
    INDEX 00 09:40:19
FILE "10. Boney M. - Rasputin.wav" WAVE
    INDEX 01 00:00:00
  TRACK 11 AUDIO
    TITLE "Que Sera Me Vida"
    PERFORMER "Gibson Brothers"
    ISRC DEA371257450
    INDEX 00 07:32:05
FILE "11. Gibson Brothers - Que Sera Me Vida.wav" WAVE
    INDEX 01 00:00:00
  TRACK 12 AUDIO
    TITLE "The Best Disco In Town"
    PERFORMER "The Ritchie Family"
    ISRC FR22F7600020
    INDEX 00 06:46:11
FILE "12. The Ritchie Family - The Best Disco In Town.wav" WAVE
    INDEX 01 00:00:00

Лог Audiochecker:

AUDIOCHECKER v2.0 beta (build 457) - by Dester - opdester@freemail.hu
~~~~~~~~~~~~~~~~~~~~~~~~~~~~~~~~~~
Started at: среда, 01. 07. 2015. - 16:04.11
12 files found
01 -===- D:\Torent files\Disco - The Long Versions 3CD (2015)\CD1\01. Ottawan - D.I.S.C.O.flac
  Extracted successfully
  Conclusion: this track is CDDA with probability 99%
  Tempfile successfully deleted.
02 -===- D:\Torent files\Disco - The Long Versions 3CD (2015)\CD1\02. Nick Straker Band - A Walk In The Park.flac
  Extracted successfully
  Conclusion: this track is CDDA with probability 100%
  Tempfile successfully deleted.
03 -===- D:\Torent files\Disco - The Long Versions 3CD (2015)\CD1\03. Village People - Y.M.C.A.flac
  Extracted successfully
  Conclusion: this track is CDDA with probability 100%
  Tempfile successfully deleted.
04 -===- D:\Torent files\Disco - The Long Versions 3CD (2015)\CD1\04. Patrick Hernandez - Born To Be Alive (Original 12'' Mix).flac
  Extracted successfully
  Conclusion: this track is CDDA with probability 99%
  Tempfile successfully deleted.
05 -===- D:\Torent files\Disco - The Long Versions 3CD (2015)\CD1\05. Kiss - I Was Made For Lovin You.flac
  Extracted successfully
  Conclusion: this track is CDDA with probability 100%
  Tempfile successfully deleted.
06 -===- D:\Torent files\Disco - The Long Versions 3CD (2015)\CD1\06. Michael Zager Band - Let's All Chant.flac
  Extracted successfully
  Conclusion: this track is MPEG with probability 95%
  Tempfile successfully deleted.
07 -===- D:\Torent files\Disco - The Long Versions 3CD (2015)\CD1\07. The Jacksons - Can You Feel It.flac
  Extracted successfully
  Conclusion: this track is CDDA with probability 100%
  Tempfile successfully deleted.
08 -===- D:\Torent files\Disco - The Long Versions 3CD (2015)\CD1\08. G.Q. - Disco Night.flac
  Extracted successfully
  Conclusion: this track is CDDA with probability 99%
  Tempfile successfully deleted.
09 -===- D:\Torent files\Disco - The Long Versions 3CD (2015)\CD1\09. Dan Hartman - Vertigo,Relight My Fire.flac
  Extracted successfully
  Conclusion: this track is CDDA with probability 100%
  Tempfile successfully deleted.
10 -===- D:\Torent files\Disco - The Long Versions 3CD (2015)\CD1\10. Boney M. - Rasputin.flac
  Extracted successfully
  Conclusion: this track is CDDA with probability 100%
  Tempfile successfully deleted.
11 -===- D:\Torent files\Disco - The Long Versions 3CD (2015)\CD1\11. Gibson Brothers - Que Sera Me Vida.flac
  Extracted successfully
  Conclusion: this track is CDDA with probability 100%
  Tempfile successfully deleted.
12 -===- D:\Torent files\Disco - The Long Versions 3CD (2015)\CD1\12. The Ritchie Family - The Best Disco In Town.flac
  Extracted successfully
  Conclusion: this track is CDDA with probability 100%
  Tempfile successfully deleted.
Finished at: среда, 01. 07. 2015. - 16:07.27 (operation time: 0:03.15)

CD 2 | 01:14:40

01. Sheila B & Devotion - Spacer (12' Version) (06:17)
02. Blondie - Rapture (06:30)
03. Supermax - Lovemachine (Album Version) (08:37)
04. Amanda Lear - Fashion Pack (Studio 54) (05:12)
05. Phylis Hyman - You Know How To Love Me (Long Version) (07:31)
06. Wild Cherry - Play That Funky Music (05:00)
07. Hues Corporation - Rock The Boat (03:20)
08. Baccara - Yes Sir, I Can Boogie (Album Version) (04:33)
09. Daryl Hall & John Oates - I Can't Go For That (No Can Do) (Extended Club Mix) (06:05)
10. Earth Wind & Fire - Fantasy (Shelter Dj Mix) (08:57)
11. Barry White - Never, Never Gonna Give You Up (07:57)
12. The Doobie Brothers - Listen To The Music (04:47)

лог создания рипа

Exact Audio Copy V1.0 beta 4 from 7. December 2014
EAC extraction logfile from 29. June 2015, 19:19
Various Artists / Disco Long Versions - CD2
Used drive  : PLEXTOR DVDR   PX-L890SA   Adapter: 1  ID: 0
Read mode               : Secure
Utilize accurate stream : Yes
Defeat audio cache      : Yes
Make use of C2 pointers : No
Read offset correction                      : 6
Overread into Lead-In and Lead-Out          : No
Fill up missing offset samples with silence : Yes
Delete leading and trailing silent blocks   : No
Null samples used in CRC calculations       : Yes
Used interface                              : Native Win32 interface for Win NT & 2000
Gap handling                                : Appended to previous track
Used output format              : User Defined Encoder
Selected bitrate                : 896 kBit/s
Quality                         : High
Add ID3 tag                     : No
Command line compressor         : C:\Program Files (x86)\Exact Audio Copy\Flac\flac.exe
Additional command line options : -8 -V -T "ARTIST=%artist%" -T "TITLE=%title%" -T "ALBUM=%albumtitle%" -T "DATE=%year%" -T "TRACKNUMBER=%tracknr%" -T "GENRE=%genre%" -T "COMMENT=ripped by Oleandris" %source%
TOC of the extracted CD
     Track |   Start  |  Length  | Start sector | End sector
    ---------------------------------------------------------
        1  |  0:00.00 |  6:16.41 |         0    |    28240
        2  |  6:16.41 |  6:29.31 |     28241    |    57446
        3  | 12:45.72 |  8:36.35 |     57447    |    96181
        4  | 21:22.32 |  5:11.16 |     96182    |   119522
        5  | 26:33.48 |  7:30.48 |    119523    |   153320
        6  | 34:04.21 |  4:59.08 |    153321    |   175753
        7  | 39:03.29 |  3:19.71 |    175754    |   190749
        8  | 42:23.25 |  4:32.49 |    190750    |   211198
        9  | 46:55.74 |  6:04.62 |    211199    |   238560
       10  | 53:00.61 |  8:56.64 |    238561    |   278824
       11  | 61:57.50 |  7:56.10 |    278825    |   314534
       12  | 69:53.60 |  4:46.09 |    314535    |   335993
Track  1
     Filename K:\AUDIO - III\ Pop - Disco - Soul - Funk  - Synthpop (зарубежные сборники)\Dance Hits\ Disco - The Long Versions 3CD (2015)\CD2\01. Sheila B & Devotion - Spacer (12'' Version).wav
     Pre-gap length  0:00:02.00
     Peak level 96.6 %
     Extraction speed 4.2 X
     Track quality 100.0 %
     Test CRC C7850F81
     Copy CRC C7850F81
     Accurately ripped (confidence 1)  [C862227B]  (AR v2)
     Copy OK
Track  2
     Filename K:\AUDIO - III\ Pop - Disco - Soul - Funk  - Synthpop (зарубежные сборники)\Dance Hits\ Disco - The Long Versions 3CD (2015)\CD2\02. Blondie - Rapture.wav
     Pre-gap length  0:00:01.00
     Peak level 84.5 %
     Extraction speed 4.2 X
     Track quality 99.9 %
     Test CRC 9102E126
     Copy CRC 9102E126
     Accurately ripped (confidence 1)  [E5D0E4F8]  (AR v2)
     Copy OK
Track  3
     Filename K:\AUDIO - III\ Pop - Disco - Soul - Funk  - Synthpop (зарубежные сборники)\Dance Hits\ Disco - The Long Versions 3CD (2015)\CD2\03. Supermax - Lovemachine (Album Version).wav
     Pre-gap length  0:00:01.00
     Peak level 93.6 %
     Extraction speed 5.5 X
     Track quality 100.0 %
     Test CRC 102FEFE7
     Copy CRC 102FEFE7
     Accurately ripped (confidence 1)  [6BDBB581]  (AR v2)
     Copy OK
Track  4
     Filename K:\AUDIO - III\ Pop - Disco - Soul - Funk  - Synthpop (зарубежные сборники)\Dance Hits\ Disco - The Long Versions 3CD (2015)\CD2\04. Amanda Lear - Fashion Pack (Studio 54).wav
     Pre-gap length  0:00:01.00
     Peak level 99.0 %
     Extraction speed 5.7 X
     Track quality 100.0 %
     Test CRC F72CAEEB
     Copy CRC F72CAEEB
     Accurately ripped (confidence 1)  [1505AA39]  (AR v2)
     Copy OK
Track  5
     Filename K:\AUDIO - III\ Pop - Disco - Soul - Funk  - Synthpop (зарубежные сборники)\Dance Hits\ Disco - The Long Versions 3CD (2015)\CD2\05. Phylis Hyman - You Know How To Love Me (Long Version).wav
     Pre-gap length  0:00:01.00
     Peak level 98.5 %
     Extraction speed 6.3 X
     Track quality 100.0 %
     Test CRC 4E660A7F
     Copy CRC 4E660A7F
     Accurately ripped (confidence 1)  [BB804364]  (AR v2)
     Copy OK
Track  6
     Filename K:\AUDIO - III\ Pop - Disco - Soul - Funk  - Synthpop (зарубежные сборники)\Dance Hits\ Disco - The Long Versions 3CD (2015)\CD2\06. Wild Cherry - Play That Funky Music.wav
     Pre-gap length  0:00:01.00
     Peak level 99.9 %
     Extraction speed 5.4 X
     Track quality 99.9 %
     Test CRC C3A1E8F2
     Copy CRC C3A1E8F2
     Accurately ripped (confidence 1)  [1AC02EEB]  (AR v2)
     Copy OK
Track  7
     Filename K:\AUDIO - III\ Pop - Disco - Soul - Funk  - Synthpop (зарубежные сборники)\Dance Hits\ Disco - The Long Versions 3CD (2015)\CD2\07. Hues Corporation - Rock The Boat.wav
     Pre-gap length  0:00:01.00
     Peak level 99.9 %
     Extraction speed 6.3 X
     Track quality 100.0 %
     Test CRC CBFCFBDB
     Copy CRC CBFCFBDB
     Accurately ripped (confidence 1)  [783A37E5]  (AR v2)
     Copy OK
Track  8
     Filename K:\AUDIO - III\ Pop - Disco - Soul - Funk  - Synthpop (зарубежные сборники)\Dance Hits\ Disco - The Long Versions 3CD (2015)\CD2\08. Baccara - Yes Sir, I Can Boogie (Album Version).wav
     Pre-gap length  0:00:01.00
     Peak level 98.5 %
     Extraction speed 6.9 X
     Track quality 100.0 %
     Test CRC 4D3EF0F6
     Copy CRC 4D3EF0F6
     Accurately ripped (confidence 1)  [24DECD51]  (AR v2)
     Copy OK
Track  9
     Filename K:\AUDIO - III\ Pop - Disco - Soul - Funk  - Synthpop (зарубежные сборники)\Dance Hits\ Disco - The Long Versions 3CD (2015)\CD2\09. Daryl Hall & John Oates - I Can't Go For That (No Can Do) (Extended Club Mix).wav
     Pre-gap length  0:00:00.74
     Peak level 75.8 %
     Extraction speed 7.4 X
     Track quality 100.0 %
     Test CRC 26A416A8
     Copy CRC 26A416A8
     Accurately ripped (confidence 1)  [45209A89]  (AR v2)
     Copy OK
Track 10
     Filename K:\AUDIO - III\ Pop - Disco - Soul - Funk  - Synthpop (зарубежные сборники)\Dance Hits\ Disco - The Long Versions 3CD (2015)\CD2\10. Earth Wind & Fire - Fantasy (Shelter Dj Mix).wav
     Pre-gap length  0:00:01.00
     Peak level 87.1 %
     Extraction speed 7.1 X
     Track quality 99.9 %
     Test CRC 9FF8E893
     Copy CRC 9FF8E893
     Accurately ripped (confidence 1)  [419D47DC]  (AR v2)
     Copy OK
Track 11
     Filename K:\AUDIO - III\ Pop - Disco - Soul - Funk  - Synthpop (зарубежные сборники)\Dance Hits\ Disco - The Long Versions 3CD (2015)\CD2\11. Barry White - Never, Never Gonna Give You Up.wav
     Pre-gap length  0:00:01.00
     Peak level 98.5 %
     Extraction speed 8.4 X
     Track quality 100.0 %
     Test CRC E2085A00
     Copy CRC E2085A00
     Accurately ripped (confidence 1)  [4F059845]  (AR v2)
     Copy OK
Track 12
     Filename K:\AUDIO - III\ Pop - Disco - Soul - Funk  - Synthpop (зарубежные сборники)\Dance Hits\ Disco - The Long Versions 3CD (2015)\CD2\12. The Doobie Brothers - Listen To The Music.wav
     Pre-gap length  0:00:01.00
     Peak level 99.8 %
     Extraction speed 8.1 X
     Track quality 100.0 %
     Test CRC 596EAD7F
     Copy CRC 596EAD7F
     Accurately ripped (confidence 1)  [25C57E9D]  (AR v2)
     Copy OK
All tracks accurately ripped
No errors occurred
End of status report
---- CUETools DB Plugin V2.1.4
[CTDB TOCID: qD9RcRRNVh3Yc9vFOvkhjqgqi7I-] found
Submit result: qD9RcRRNVh3Yc9vFOvkhjqgqi7I- has been confirmed
Track | CTDB Status
  1   | (3/3) Accurately ripped
  2   | (3/3) Accurately ripped
  3   | (3/3) Accurately ripped
  4   | (3/3) Accurately ripped
  5   | (3/3) Accurately ripped
  6   | (3/3) Accurately ripped
  7   | (3/3) Accurately ripped
  8   | (3/3) Accurately ripped
  9   | (3/3) Accurately ripped
10   | (3/3) Accurately ripped
11   | (3/3) Accurately ripped
12   | (3/3) Accurately ripped

содержание индексной карты *cue

REM GENRE Disco
REM DATE 2015
REM DISCID BC117F0C
REM COMMENT "ExactAudioCopy v1.0b4"
CATALOG 0888750521323
PERFORMER "Various Artists"
TITLE "Disco Long Versions - CD2"
FILE "01. Sheila B & Devotion - Spacer (12'' Version).wav" WAVE
  TRACK 01 AUDIO
    TITLE "Spacer (12' Version)"
    PERFORMER "Sheila B & Devotion"
    ISRC FRZ161300002
    INDEX 01 00:00:00
  TRACK 02 AUDIO
    TITLE "Rapture"
    PERFORMER "Blondie"
    ISRC USCH30100092
    INDEX 00 06:15:41
FILE "02. Blondie - Rapture.wav" WAVE
    INDEX 01 00:00:00
  TRACK 03 AUDIO
    TITLE "Lovemachine (Album Version)"
    PERFORMER "Supermax"
    ISRC DEA629251592
    INDEX 00 06:28:31
FILE "03. Supermax - Lovemachine (Album Version).wav" WAVE
    INDEX 01 00:00:00
  TRACK 04 AUDIO
    TITLE "Fashion Pack (Studio 54)"
    PERFORMER "Amanda Lear"
    ISRC DEA810501835
    INDEX 00 08:35:35
FILE "04. Amanda Lear - Fashion Pack (Studio 54).wav" WAVE
    INDEX 01 00:00:00
  TRACK 05 AUDIO
    TITLE "You Know How To Love Me (Long Version)"
    PERFORMER "Phylis Hyman"
    ISRC USAR17900133
    INDEX 00 05:10:16
FILE "05. Phylis Hyman - You Know How To Love Me (Long Version).wav" WAVE
    INDEX 01 00:00:00
  TRACK 06 AUDIO
    TITLE "Play That Funky Music"
    PERFORMER "Wild Cherry"
    ISRC USSM17600185
    INDEX 00 07:29:48
FILE "06. Wild Cherry - Play That Funky Music.wav" WAVE
    INDEX 01 00:00:00
  TRACK 07 AUDIO
    TITLE "Rock The Boat"
    PERFORMER "Hues Corporation"
    ISRC USRC17308512
    INDEX 00 04:58:08
FILE "07. Hues Corporation - Rock The Boat.wav" WAVE
    INDEX 01 00:00:00
  TRACK 08 AUDIO
    TITLE "Yes Sir, I Can Boogie (Album Version)"
    PERFORMER "Baccara"
    ISRC DEC760000065
    INDEX 00 03:18:71
FILE "08. Baccara - Yes Sir, I Can Boogie (Album Version).wav" WAVE
    INDEX 01 00:00:00
  TRACK 09 AUDIO
    TITLE "I Can't Go For That (No Can Do) (Extended Club Mix)"
    PERFORMER "Daryl Hall & John Oates"
    ISRC USRC10301514
    INDEX 00 04:31:50
FILE "09. Daryl Hall & John Oates - I Can't Go For That (No Can Do) (Extended Club Mix).wav" WAVE
    INDEX 01 00:00:00
  TRACK 10 AUDIO
    TITLE "Fantasy (Shelter Dj Mix)"
    PERFORMER "Earth Wind & Fire"
    ISRC USSM10210872
    INDEX 00 06:03:62
FILE "10. Earth Wind & Fire - Fantasy (Shelter Dj Mix).wav" WAVE
    INDEX 01 00:00:00
  TRACK 11 AUDIO
    TITLE "Never, Never Gonna Give You Up"
    PERFORMER "Barry White"
    ISRC USPR37300005
    INDEX 00 08:55:64
FILE "11. Barry White - Never, Never Gonna Give You Up.wav" WAVE
    INDEX 01 00:00:00
  TRACK 12 AUDIO
    TITLE "Listen To The Music"
    PERFORMER "The Doobie Brothers"
    ISRC USWB10605317
    INDEX 00 07:55:10
FILE "12. The Doobie Brothers - Listen To The Music.wav" WAVE
    INDEX 01 00:00:00

Лог Audiochecker:

AUDIOCHECKER v2.0 beta (build 457) - by Dester - opdester@freemail.hu
~~~~~~~~~~~~~~~~~~~~~~~~~~~~~~~~~~
Started at: среда, 01. 07. 2015. - 16:08.11
12 files found
01 -===- D:\Torent files\Disco - The Long Versions 3CD (2015)\CD2\01. Sheila B & Devotion - Spacer (12'' Version).flac
  Extracted successfully
  Conclusion: this track is MPEG with probability 95%
  Tempfile successfully deleted.
02 -===- D:\Torent files\Disco - The Long Versions 3CD (2015)\CD2\02. Blondie - Rapture.flac
  Extracted successfully
  Conclusion: this track is CDDA with probability 100%
  Tempfile successfully deleted.
03 -===- D:\Torent files\Disco - The Long Versions 3CD (2015)\CD2\03. Supermax - Lovemachine (Album Version).flac
  Extracted successfully
  Conclusion: this track is MPEG with probability 95%
  Tempfile successfully deleted.
04 -===- D:\Torent files\Disco - The Long Versions 3CD (2015)\CD2\04. Amanda Lear - Fashion Pack (Studio 54).flac
  Extracted successfully
  Conclusion: this track is CDDA with probability 100%
  Tempfile successfully deleted.
05 -===- D:\Torent files\Disco - The Long Versions 3CD (2015)\CD2\05. Phylis Hyman - You Know How To Love Me (Long Version).flac
  Extracted successfully
  Conclusion: this track is MPEG with probability 95%
  Tempfile successfully deleted.
06 -===- D:\Torent files\Disco - The Long Versions 3CD (2015)\CD2\06. Wild Cherry - Play That Funky Music.flac
  Extracted successfully
  Conclusion: this track is CDDA with probability 100%
  Tempfile successfully deleted.
07 -===- D:\Torent files\Disco - The Long Versions 3CD (2015)\CD2\07. Hues Corporation - Rock The Boat.flac
  Extracted successfully
  Conclusion: this track is CDDA with probability 100%
  Tempfile successfully deleted.
08 -===- D:\Torent files\Disco - The Long Versions 3CD (2015)\CD2\08. Baccara - Yes Sir, I Can Boogie (Album Version).flac
  Extracted successfully
  Conclusion: this track is CDDA with probability 100%
  Tempfile successfully deleted.
09 -===- D:\Torent files\Disco - The Long Versions 3CD (2015)\CD2\09. Daryl Hall & John Oates - I Can't Go For That (No Can Do) (Extended Club Mix).flac
  Extracted successfully
  Conclusion: this track is CDDA with probability 100%
  Tempfile successfully deleted.
10 -===- D:\Torent files\Disco - The Long Versions 3CD (2015)\CD2\10. Earth Wind & Fire - Fantasy (Shelter Dj Mix).flac
  Extracted successfully
  Conclusion: this track is CDDA with probability 99%
  Tempfile successfully deleted.
11 -===- D:\Torent files\Disco - The Long Versions 3CD (2015)\CD2\11. Barry White - Never, Never Gonna Give You Up.flac
  Extracted successfully
  Conclusion: this track is CDDA with probability 100%
  Tempfile successfully deleted.
12 -===- D:\Torent files\Disco - The Long Versions 3CD (2015)\CD2\12. The Doobie Brothers - Listen To The Music.flac
  Extracted successfully
  Conclusion: this track is CDDA with probability 100%
  Tempfile successfully deleted.
Finished at: среда, 01. 07. 2015. - 16:11.18 (operation time: 0:03.06)

CD 3 | 01:18:00

01. Agnetha Faltskog (The Voice Of Abba) - S.O.S. (03:22)
02. Secret Service - Oh Susie (04:34)
03. Ricky Shane - Mamy Blue (Deutsche Version) (05:03)
04. T. Rex - Teenage Dream (05:47)
05. Santana - Jingo (Album Version) (05:16)
06. Electric Light Orchestra - From The Sun To The World (Boogie #1) (08:18)
07. Alan Parsons Projekt - Lucifer (05:06)
08. Deodato - Also Sprach Zarathustra (09:03)
09. Donna Summer - Love To Love You Baby (Come On Over To My Place Version) (16:50)
10. Marianne Rosenberg - Ich Bin Wie Du (Remix '90 Maxi Version) (06:28)
11. Udo Jurgens - Ich Weiя, Was Ich Will (Extended Version 2006) (08:19)

лог создания рипа

Exact Audio Copy V1.0 beta 4 from 7. December 2014
EAC extraction logfile from 29. June 2015, 19:20
Unknown Artist / Disco Long Versions - Cd3
Used drive  : PLEXTOR DVDR   PX-891SA   Adapter: 1  ID: 1
Read mode               : Secure
Utilize accurate stream : Yes
Defeat audio cache      : Yes
Make use of C2 pointers : No
Read offset correction                      : 6
Overread into Lead-In and Lead-Out          : No
Fill up missing offset samples with silence : Yes
Delete leading and trailing silent blocks   : No
Null samples used in CRC calculations       : Yes
Used interface                              : Native Win32 interface for Win NT & 2000
Gap handling                                : Appended to previous track
Used output format              : User Defined Encoder
Selected bitrate                : 896 kBit/s
Quality                         : High
Add ID3 tag                     : No
Command line compressor         : C:\Program Files (x86)\Exact Audio Copy\Flac\flac.exe
Additional command line options : -8 -V -T "ARTIST=%artist%" -T "TITLE=%title%" -T "ALBUM=%albumtitle%" -T "DATE=%year%" -T "TRACKNUMBER=%tracknr%" -T "GENRE=%genre%" -T "COMMENT=ripped by Oleandris" %source%
TOC of the extracted CD
     Track |   Start  |  Length  | Start sector | End sector
    ---------------------------------------------------------
        1  |  0:00.00 |  3:21.05 |         0    |    15079
        2  |  3:21.05 |  4:33.11 |     15080    |    35565
        3  |  7:54.16 |  5:02.38 |     35566    |    58253
        4  | 12:56.54 |  5:46.54 |     58254    |    84257
        5  | 18:43.33 |  5:15.50 |     84258    |   107932
        6  | 23:59.08 |  8:17.21 |    107933    |   145228
        7  | 32:16.29 |  5:05.56 |    145229    |   168159
        8  | 37:22.10 |  9:02.33 |    168160    |   208842
        9  | 46:24.43 | 16:49.71 |    208843    |   284588
       10  | 63:14.39 |  6:27.11 |    284589    |   313624
       11  | 69:41.50 |  8:18.01 |    313625    |   350975
Track  1
     Filename K:\AUDIO - III\ Pop - Disco - Soul - Funk  - Synthpop (зарубежные сборники)\Dance Hits\ Disco - The Long Versions 3CD (2015)\CD3\01. Agnetha Faltskog (The Voice Of Abba) - S.O.S..wav
     Pre-gap length  0:00:02.00
     Peak level 93.4 %
     Extraction speed 2.0 X
     Track quality 100.0 %
     Test CRC 479EFE0B
     Copy CRC 479EFE0B
     Accurately ripped (confidence 1)  [874632A5]  (AR v2)
     Copy OK
Track  2
     Filename K:\AUDIO - III\ Pop - Disco - Soul - Funk  - Synthpop (зарубежные сборники)\Dance Hits\ Disco - The Long Versions 3CD (2015)\CD3\02. Secret Service - Oh Susie.wav
     Pre-gap length  0:00:01.00
     Peak level 96.7 %
     Extraction speed 2.3 X
     Track quality 100.0 %
     Test CRC ECFC134C
     Copy CRC ECFC134C
     Accurately ripped (confidence 1)  [9D765ECD]  (AR v2)
     Copy OK
Track  3
     Filename K:\AUDIO - III\ Pop - Disco - Soul - Funk  - Synthpop (зарубежные сборники)\Dance Hits\ Disco - The Long Versions 3CD (2015)\CD3\03. Ricky Shane - Mamy Blue (Deutsche Version).wav
     Pre-gap length  0:00:01.00
     Peak level 83.7 %
     Extraction speed 2.6 X
     Track quality 100.0 %
     Test CRC 54E3D66E
     Copy CRC 54E3D66E
     Accurately ripped (confidence 1)  [BFD6F795]  (AR v2)
     Copy OK
Track  4
     Filename K:\AUDIO - III\ Pop - Disco - Soul - Funk  - Synthpop (зарубежные сборники)\Dance Hits\ Disco - The Long Versions 3CD (2015)\CD3\04. T. Rex - Teenage Dream.wav
     Pre-gap length  0:00:01.00
     Peak level 99.8 %
     Extraction speed 2.8 X
     Track quality 100.0 %
     Test CRC 3C5A860F
     Copy CRC 3C5A860F
     Accurately ripped (confidence 1)  [8AE65D81]  (AR v2)
     Copy OK
Track  5
     Filename K:\AUDIO - III\ Pop - Disco - Soul - Funk  - Synthpop (зарубежные сборники)\Dance Hits\ Disco - The Long Versions 3CD (2015)\CD3\05. Santana - Jingo (Album Version).wav
     Pre-gap length  0:00:01.00
     Peak level 97.9 %
     Extraction speed 3.0 X
     Track quality 100.0 %
     Test CRC 36B1C552
     Copy CRC 36B1C552
     Accurately ripped (confidence 1)  [80A7BB41]  (AR v2)
     Copy OK
Track  6
     Filename K:\AUDIO - III\ Pop - Disco - Soul - Funk  - Synthpop (зарубежные сборники)\Dance Hits\ Disco - The Long Versions 3CD (2015)\CD3\06. Electric Light Orchestra - From The Sun To The World (Boogie #1).wav
     Pre-gap length  0:00:01.00
     Peak level 99.7 %
     Extraction speed 3.4 X
     Track quality 100.0 %
     Test CRC C0A2DB01
     Copy CRC C0A2DB01
     Accurately ripped (confidence 1)  [85B97D69]  (AR v2)
     Copy OK
Track  7
     Filename K:\AUDIO - III\ Pop - Disco - Soul - Funk  - Synthpop (зарубежные сборники)\Dance Hits\ Disco - The Long Versions 3CD (2015)\CD3\07. Alan Parsons Projekt - Lucifer.wav
     Pre-gap length  0:00:01.00
     Peak level 99.9 %
     Extraction speed 2.7 X
     Track quality 99.9 %
     Test CRC FEC27646
     Copy CRC FEC27646
     Accurately ripped (confidence 1)  [33F20B27]  (AR v2)
     Copy OK
Track  8
     Filename K:\AUDIO - III\ Pop - Disco - Soul - Funk  - Synthpop (зарубежные сборники)\Dance Hits\ Disco - The Long Versions 3CD (2015)\CD3\08. Deodato - Also Sprach Zarathustra.wav
     Pre-gap length  0:00:01.00
     Peak level 99.9 %
     Extraction speed 3.9 X
     Track quality 100.0 %
     Test CRC 6DAF49C5
     Copy CRC 6DAF49C5
     Accurately ripped (confidence 1)  [6290BB35]  (AR v2)
     Copy OK
Track  9
     Filename K:\AUDIO - III\ Pop - Disco - Soul - Funk  - Synthpop (зарубежные сборники)\Dance Hits\ Disco - The Long Versions 3CD (2015)\CD3\09. Donna Summer - Love To Love You Baby (Come On Over To My Place Version).wav
     Pre-gap length  0:00:01.00
     Peak level 100.0 %
     Extraction speed 4.0 X
     Track quality 99.9 %
     Test CRC 75C6F5A9
     Copy CRC 75C6F5A9
     Accurately ripped (confidence 1)  [47F6F02E]  (AR v2)
     Copy OK
Track 10
     Filename K:\AUDIO - III\ Pop - Disco - Soul - Funk  - Synthpop (зарубежные сборники)\Dance Hits\ Disco - The Long Versions 3CD (2015)\CD3\10. Marianne Rosenberg - Ich Bin Wie Du (Remix '90 Maxi Version).wav
     Pre-gap length  0:00:01.00
     Peak level 89.5 %
     Extraction speed 4.4 X
     Track quality 100.0 %
     Test CRC 71476A78
     Copy CRC 71476A78
     Accurately ripped (confidence 1)  [A2E336F7]  (AR v2)
     Copy OK
Track 11
     Filename K:\AUDIO - III\ Pop - Disco - Soul - Funk  - Synthpop (зарубежные сборники)\Dance Hits\ Disco - The Long Versions 3CD (2015)\CD3\11. Udo Jurgens - Ich Weiя, Was Ich Will (Extended Version 2006).wav
     Pre-gap length  0:00:01.00
     Peak level 88.3 %
     Extraction speed 4.0 X
     Track quality 99.9 %
     Test CRC C6D8E55A
     Copy CRC C6D8E55A
     Accurately ripped (confidence 1)  [99F868F8]  (AR v2)
     Copy OK
All tracks accurately ripped
No errors occurred
End of status report
---- CUETools DB Plugin V2.1.4
[CTDB TOCID: 8Pb3VIKN7ccz3Ewz8eIyLvrY9_M-] found
Submit result: 8Pb3VIKN7ccz3Ewz8eIyLvrY9_M- has been confirmed
Track | CTDB Status
  1   | (3/3) Accurately ripped
  2   | (3/3) Accurately ripped
  3   | (3/3) Accurately ripped
  4   | (3/3) Accurately ripped
  5   | (3/3) Accurately ripped
  6   | (3/3) Accurately ripped
  7   | (3/3) Accurately ripped
  8   | (3/3) Accurately ripped
  9   | (3/3) Accurately ripped
10   | (3/3) Accurately ripped
11   | (3/3) Accurately ripped

содержание индексной карты *cue

REM DISCID A212470B
REM COMMENT "ExactAudioCopy v1.0b4"
CATALOG 0888750521323
PERFORMER "Unknown Artist"
TITLE "Disco Long Versions - Cd3"
FILE "01. Agnetha Faltskog (The Voice Of Abba) - S.O.S..wav" WAVE
  TRACK 01 AUDIO
    TITLE "S.O.S."
    PERFORMER "Agnetha Faltskog (The Voice Of Abba)"
    ISRC SEBGE7501010
    INDEX 01 00:00:00
  TRACK 02 AUDIO
    TITLE "Oh Susie"
    PERFORMER "Secret Service"
    ISRC DEKF21500005
    INDEX 00 03:20:05
FILE "02. Secret Service - Oh Susie.wav" WAVE
    INDEX 01 00:00:00
  TRACK 03 AUDIO
    TITLE "Mamy Blue (Deutsche Version)"
    PERFORMER "Ricky Shane"
    ISRC DEC737100003
    INDEX 00 04:32:11
FILE "03. Ricky Shane - Mamy Blue (Deutsche Version).wav" WAVE
    INDEX 01 00:00:00
  TRACK 04 AUDIO
    TITLE "Teenage Dream"
    PERFORMER "T. Rex"
    ISRC GBAFR7400182
    INDEX 00 05:01:38
FILE "04. T. Rex - Teenage Dream.wav" WAVE
    INDEX 01 00:00:00
  TRACK 05 AUDIO
    TITLE "Jingo (Album Version)"
    PERFORMER "Santana"
    ISRC USSM10412329
    INDEX 00 05:45:54
FILE "05. Santana - Jingo (Album Version).wav" WAVE
    INDEX 01 00:00:00
  TRACK 06 AUDIO
    TITLE "From The Sun To The World (Boogie #1)"
    PERFORMER "Electric Light Orchestra"
    ISRC GBAYE0300018
    INDEX 00 05:14:50
FILE "06. Electric Light Orchestra - From The Sun To The World (Boogie #1).wav" WAVE
    INDEX 01 00:00:00
  TRACK 07 AUDIO
    TITLE "Lucifer"
    PERFORMER "Alan Parsons Projekt"
    ISRC USAR19700011
    INDEX 00 08:16:21
FILE "07. Alan Parsons Projekt - Lucifer.wav" WAVE
    INDEX 01 00:00:00
  TRACK 08 AUDIO
    TITLE "Also Sprach Zarathustra"
    PERFORMER "Deodato"
    ISRC USSM17200162
    INDEX 00 05:04:56
FILE "08. Deodato - Also Sprach Zarathustra.wav" WAVE
    INDEX 01 00:00:00
  TRACK 09 AUDIO
    TITLE "Love To Love You Baby (Come On Over To My Place Version)"
    PERFORMER "Donna Summer"
    ISRC USUM70507383
    INDEX 00 09:01:33
FILE "09. Donna Summer - Love To Love You Baby (Come On Over To My Place Version).wav" WAVE
    INDEX 01 00:00:00
  TRACK 10 AUDIO
    TITLE "Ich Bin Wie Du (Remix '90 Maxi Version)"
    PERFORMER "Marianne Rosenberg"
    ISRC DEC739000109
    INDEX 00 16:48:71
FILE "10. Marianne Rosenberg - Ich Bin Wie Du (Remix '90 Maxi Version).wav" WAVE
    INDEX 01 00:00:00
  TRACK 11 AUDIO
    TITLE "Ich Weiя, Was Ich Will (Extended Version 2006)"
    PERFORMER "Udo Jurgens"
    ISRC DEA810600363
    INDEX 00 06:26:11
FILE "11. Udo Jurgens - Ich Weiя, Was Ich Will (Extended Version 2006).wav" WAVE
    INDEX 01 00:00:00

Лог Audiochecker:

AUDIOCHECKER v2.0 beta (build 457) - by Dester - opdester@freemail.hu
~~~~~~~~~~~~~~~~~~~~~~~~~~~~~~~~~~
Started at: среда, 01. 07. 2015. - 16:11.39
11 files found
01 -===- D:\Torent files\Disco - The Long Versions 3CD (2015)\CD3\01. Agnetha Faltskog (The Voice Of Abba) - S.O.S..flac
  Extracted successfully
  Conclusion: this track is CDDA with probability 100%
  Tempfile successfully deleted.
02 -===- D:\Torent files\Disco - The Long Versions 3CD (2015)\CD3\02. Secret Service - Oh Susie.flac
  Extracted successfully
  Conclusion: this track is MPEG with probability 95%
  Tempfile successfully deleted.
03 -===- D:\Torent files\Disco - The Long Versions 3CD (2015)\CD3\03. Ricky Shane - Mamy Blue (Deutsche Version).flac
  Extracted successfully
  Conclusion: this track is CDDA with probability 100%
  Tempfile successfully deleted.
04 -===- D:\Torent files\Disco - The Long Versions 3CD (2015)\CD3\04. T. Rex - Teenage Dream.flac
  Extracted successfully
  Conclusion: this track is CDDA with probability 99%
  Tempfile successfully deleted.
05 -===- D:\Torent files\Disco - The Long Versions 3CD (2015)\CD3\05. Santana - Jingo (Album Version).flac
  Extracted successfully
  Conclusion: this track is CDDA with probability 100%
  Tempfile successfully deleted.
06 -===- D:\Torent files\Disco - The Long Versions 3CD (2015)\CD3\06. Electric Light Orchestra - From The Sun To The World (Boogie #1).flac
  Extracted successfully
  Conclusion: this track is CDDA with probability 100%
  Tempfile successfully deleted.
07 -===- D:\Torent files\Disco - The Long Versions 3CD (2015)\CD3\07. Alan Parsons Projekt - Lucifer.flac
  Extracted successfully
  Conclusion: this track is CDDA with probability 100%
  Tempfile successfully deleted.
08 -===- D:\Torent files\Disco - The Long Versions 3CD (2015)\CD3\08. Deodato - Also Sprach Zarathustra.flac
  Extracted successfully
  Conclusion: this track is CDDA with probability 100%
  Tempfile successfully deleted.
09 -===- D:\Torent files\Disco - The Long Versions 3CD (2015)\CD3\09. Donna Summer - Love To Love You Baby (Come On Over To My Place Version).flac
  Extracted successfully
  Conclusion: this track is CDDA with probability 100%
  Tempfile successfully deleted.
10 -===- D:\Torent files\Disco - The Long Versions 3CD (2015)\CD3\10. Marianne Rosenberg - Ich Bin Wie Du (Remix '90 Maxi Version).flac
  Extracted successfully
  Conclusion: this track is CDDA with probability 100%
  Tempfile successfully deleted.
11 -===- D:\Torent files\Disco - The Long Versions 3CD (2015)\CD3\11. Udo Jurgens - Ich Weiя, Was Ich Will (Extended Version 2006).flac
  Extracted successfully
  Conclusion: this track is CDDA with probability 100%
  Tempfile successfully deleted.
Finished at: среда, 01. 07. 2015. - 16:15.02 (operation time: 0:03.23)
--Не забываем говорить
[Профиль] [ЛС]

Создавать темы 12-Авг-2015 17:07 (спустя 1 месяц 11 дней)

Топик был перенесен из форума Неофициальные и внежанровые сборники 70х-80х-90х (Ретро) в форум Cборники 70х-80х-90х (Ретро)
sergej644
 
Кто просматривает тему:

Показать сообщения:    

Текущее время: Сегодня 02:14

Часовой пояс: GMT



Вы не можете начинать темы
Вы не можете отвечать на сообщения
Вы не можете редактировать свои сообщения
Вы не можете удалять свои сообщения
Вы не можете голосовать в опросах
Вы не можете прикреплять файлы к сообщениям
Вы не можете скачивать файлы