VA - The Hit Men Vol.2 - Produced By Dieter Bohlen (2009) [FLAC|Lossless]<Disco>

 
Автор Сообщение

sergej644 ®

Пол:

Стаж: 4 года 11 месяцев

Сообщений: 6043

Откуда: Soviet Union



Награды: Нет

Торрент-статистика

Создавать темы 24-Дек-2014 22:42

[Цитировать]

-VA - The Hit Men Vol.2 - Produced By Dieter Bohlen (2009)- Год: 2009
Лейбл: SONY MUSIC
Каталог #: 88697 54115 2
Жанр: Disco
Продолжительность: 00:57:32
Кодек: FLAC
Битрейт: Lossless
Тип битрейта: image+.cue
Треклист:
01. Modern Talking - You're My Heart, You're My Soul (3:22)
02. Modern Talking - You Can Win If You Want (3:46)
03. Bonnie Tyler - Bitterblue (3:48)
04. Blue System feat. Dionne Warwick - It's All Over (3:54)
05. Blue System - Sorry Little Sarah (3:29)
06. Touche - This Goodbye Is Not Forever (3:36)
07. Millane Fernandez - Boom Boom (3:29)
08. Isabel - Will My Heart Survive (3:01)
09. Deutschland Sucht Den Superstar - We Have A Dream (3:59)
10. Modern Talking - TV Makes The Superstar (3:44)
11. Alexander Klaws - Take Me Tonight (4:02)
12. Daniel Kublbock - You Drive Me Crazy (2:59)
13. Thomas Godoj & Fady Maalouf - Sad Eyes (3:34)
14. Dieter Bohlen - Gasoline (3:40)
15. Mark Medlock feat. Dieter Bohlen - You Can Get It (3:35)
16. Modern Talking - Sexy Sexy Lover (3:33)

Отчёт ЕАС&#58;

Exact Audio Copy V0.99 prebeta 5 from 4. May 2009
Отчёт EAC об извлечении, выполненном 8. апреля 2010, 1:27
Various / The Hit Men Vol.2 - Produced By Dieter Bohlen
Дисковод: ASUS    DRW-2014S1T   Adapter: 3  ID: 0
Режим чтения                 : Достоверность
Использование точного потока : Да
Отключение кэша аудио        : Да
Использование указателей C2  : Нет
Коррекция смещения при чтении                     : 6
Способность читать области Lead-in и Lead-out     : Нет
Заполнение пропущенных сэмплов тишиной            : Да
Удаление блоков с тишиной в начале и конце        : Нет
При вычислениях CRC использовались нулевые сэмплы : Да
Интерфейс                                         : Установленный внешний ASPI-интерфейс
Выходной формат : Внутренние WAV-операции
Формат сэмплов  : 44.100 Гц; 16 бит; стерео
TOC извлечённого CD
     Трек |   Старт  | Длительность | Начальный сектор | Конечный сектор
    ---------------------------------------------------------------------
       1  |  0:00.00 |    3:22.17   |           0      |      15166
       2  |  3:22.17 |    3:46.27   |       15167      |      32143
       3  |  7:08.44 |    3:48.05   |       32144      |      49248
       4  | 10:56.49 |    3:54.20   |       49249      |      66818
       5  | 14:50.69 |    3:29.12   |       66819      |      82505
       6  | 18:20.06 |    3:36.23   |       82506      |      98728
       7  | 21:56.29 |    3:29.14   |       98729      |     114417
       8  | 25:25.43 |    3:00.54   |      114418      |     127971
       9  | 28:26.22 |    3:58.64   |      127972      |     145885
      10  | 32:25.11 |    3:44.10   |      145886      |     162695
      11  | 36:09.21 |    4:01.40   |      162696      |     180810
      12  | 40:10.61 |    2:59.05   |      180811      |     194240
      13  | 43:09.66 |    3:34.18   |      194241      |     210308
      14  | 46:44.09 |    3:40.25   |      210309      |     226833
      15  | 50:24.34 |    3:34.63   |      226834      |     242946
      16  | 53:59.22 |    3:33.04   |      242947      |     258925
Характеристики диапазона извлечения и сообщения об ошибках
Выбранный диапазон
     Имя файла Z:\Temp\Various - The Hit Men Vol.2 - Produced By Dieter Bohlen.wav
     Пиковый уровень 98.8 %
     Качество диапазона 100.0 %
     CRC теста 10514733
     CRC копии 10514733
     Копирование... OK
Ошибок не произошло
AccurateRip: сводка
Трек  1  точное извлечение (доверие 1)  [85D055A2]
Трек  2  точное извлечение (доверие 1)  [158D810F]
Трек  3  точное извлечение (доверие 1)  [B10964F7]
Трек  4  точное извлечение (доверие 1)  [832CD5E9]
Трек  5  точное извлечение (доверие 1)  [B2E52922]
Трек  6  точное извлечение (доверие 1)  [D5351948]
Трек  7  точное извлечение (доверие 1)  [9DD0342B]
Трек  8  точное извлечение (доверие 1)  [FE91DDD4]
Трек  9  точное извлечение (доверие 1)  [0C79C44A]
Трек 10  точное извлечение (доверие 1)  [E390A0B6]
Трек 11  точное извлечение (доверие 1)  [5D39BAAE]
Трек 12  точное извлечение (доверие 1)  [413243B0]
Трек 13  точное извлечение (доверие 1)  [97A1B0ED]
Трек 14  точное извлечение (доверие 1)  [39A4937A]
Трек 15  точное извлечение (доверие 1)  [E638A36E]
Трек 16  точное извлечение (доверие 1)  [2F0449F8]
Все треки извлечены точно
Конец отчёта

Отчёт auCDtect Task manager&#58;

-----------------------
DON'T MODIFY THIS FILE
-----------------------
PERFORMER: auCDtect Task Manager, ver. 1.6.0 RC1 build 1.6.0.1
Copyright (c) 2008-2010 y-soft. All rights reserved
http://y-soft.org
ANALYZER: auCDtect: CD records authenticity detector, version 0.8.2
Copyright (c) 2004 Oleg Berngardt. All rights reserved.
Copyright (c) 2004 Alexander Djourik. All rights reserved.
FILE: Various - The Hit Men Vol.2 - Produced By Dieter Bohlen.flac
  Size: 448287312 Hash: 277C3E899EA112EA8664A37309E6BDA3 Accuracy: -m0
  Conclusion: CDDA 100%
  Signature: 867E0150B7F91D70987E9D06FF549D9A56E67257
Время раздачи: 24/7
[Профиль] [ЛС]

Создавать темы 13-Авг-2015 11:14 (спустя 7 месяцев 20 дней)

Топик был перенесен из форума Сборники в форум Technopop, Eurodance, Disco
sergej644
 
Показать сообщения:    

Текущее время: Сегодня 02:15

Часовой пояс: GMT



Вы не можете начинать темы
Вы не можете отвечать на сообщения
Вы не можете редактировать свои сообщения
Вы не можете удалять свои сообщения
Вы не можете голосовать в опросах
Вы не можете прикреплять файлы к сообщениям
Вы не можете скачивать файлы