VA - The Hit Men Vol.1 - Produced By Frank Farian (2009) [FLAC|Lossless]<Disco>

 
Автор Сообщение

sergej644 ®

Пол:

Стаж: 4 года 11 месяцев

Сообщений: 6043

Откуда: Soviet Union



Награды: Нет

Торрент-статистика

Создавать темы 24-Дек-2014 22:42

[Цитировать]

-VA - The Hit Men Vol.1 - Produced By Frank Farian (2009)- Год: 2009
Лейбл: SONY MUSIC
Каталог #: 88697 54116 2
Жанр: Disco
Продолжительность: 01:04:02
Кодек: FLAC
Битрейт: Lossless
Тип битрейта: image+.cue
Треклист:
01. Boney M. - Daddy Cool 3:28
02. Precious Wilson - Hold On I'm Coming 3:33
03. The Touch feat.Terence Trent D'Arby - I Want To Know (International Lady) 5:14
04. La Bouche - Be My Lover 4:00
05. No Mercy - Where Do You Go 4:31
06. Far Corporation - Stairway To Heaven (Single Version) 3:59
07. Meat Loaf - One More Kiss (Night Of The Soft Parade) 5:36
08. Boney M. - No Woman No Cry 4:57
09. Eruption - One Way Ticket 3:57
10. La Bouche - Forget Me Nots 3:34
11. Milli Vanilli - Girl I'm Gonna Miss You 3:59
12. No Mercy - Please Don't Go 4:01
13. Dwayne Wint & Camilla Beeput feat.The Daddy Cool Musical London Cast - Baby Don't Forget My Number 3:11
14. Daddy Cool Kids - Show Me What You've Got 3:29
15. Camilla Beeput & Shelley Williams feat.The Daddy Cool Musical London Cast - Ma Baker 2:30
16. Boney M. feat.Sherita O. & Yulee V. - Felicidad America (Obama - Obama) (Spanglish Version) 4:03

Отчёт ЕАС&#58;

Exact Audio Copy V0.99 prebeta 5 from 4. May 2009
Отчёт EAC об извлечении, выполненном 24. сентября 2010, 18:17
Various / The Hit Men Vol.1 - Produced By Frank Farian
Дисковод: Optiarc DVD RW AD-5200A Adapter: 0 ID: 0
Режим чтения : Достоверность
Использование точного потока : Да
Отключение кэша аудио : Да
Использование указателей C2 : Нет
Коррекция смещения при чтении : 48
Способность читать области Lead-in и Lead-out : Нет
Заполнение пропущенных сэмплов тишиной : Да
Удаление блоков с тишиной в начале и конце : Нет
При вычислениях CRC использовались нулевые сэмплы : Да
Интерфейс : Встроенный Win32-интерфейс для Win NT/2000
Выходной формат : Внутренние WAV-операции
Формат сэмплов : 44.100 Гц; 16 бит; стерео
TOC извлечённого CD
Трек | Старт | Длительность | Начальный сектор | Конечный сектор
---------------------------------------------------------------------
1 | 0:00.00 | 3:27.42 | 0 | 15566
2 | 3:27.42 | 3:33.34 | 15567 | 31575
3 | 7:01.01 | 5:13.61 | 31576 | 55111
4 | 12:14.62 | 4:00.32 | 55112 | 73143
5 | 16:15.19 | 4:31.14 | 73144 | 93482
6 | 20:46.33 | 3:58.56 | 93483 | 111388
7 | 24:45.14 | 5:36.12 | 111389 | 136600
8 | 30:21.26 | 4:57.31 | 136601 | 158906
9 | 35:18.57 | 3:57.28 | 158907 | 176709
10 | 39:16.10 | 3:33.40 | 176710 | 192724
11 | 42:49.50 | 3:59.23 | 192725 | 210672
12 | 46:48.73 | 4:00.48 | 210673 | 228720
13 | 50:49.46 | 3:10.64 | 228721 | 243034
14 | 54:00.35 | 3:29.25 | 243035 | 258734
15 | 57:29.60 | 2:30.00 | 258735 | 269984
16 | 59:59.60 | 4:02.70 | 269985 | 288204
Характеристики диапазона извлечения и сообщения об ошибках
Выбранный диапазон
Имя файла D:\Various - The Hit Men Vol.1 - Produced By Frank Farian\Various - The Hit Men Vol.1 - Produced By Frank Farian.wav
Пиковый уровень 98.8 %
Качество диапазона 100.0 %
CRC теста F4785723
CRC копии F4785723
Копирование... OK
Ошибок не произошло
AccurateRip: сводка
Трек 1 точное извлечение (доверие 1) [18C3D385]
Трек 2 точное извлечение (доверие 1) [D3142D09]
Трек 3 точное извлечение (доверие 1) [3673AE41]
Трек 4 точное извлечение (доверие 1) [4DF424A5]
Трек 5 точное извлечение (доверие 1) [604E5F11]
Трек 6 точное извлечение (доверие 1) [33FEC5F6]
Трек 7 точное извлечение (доверие 1) [7D122725]
Трек 8 точное извлечение (доверие 1) [67D7F9AC]
Трек 9 точное извлечение (доверие 1) [B7CDCF4E]
Трек 10 точное извлечение (доверие 1) [815CA47E]
Трек 11 точное извлечение (доверие 1) [BA1C9DE7]
Трек 12 точное извлечение (доверие 1) [63180566]
Трек 13 точное извлечение (доверие 1) [E5B593BD]
Трек 14 точное извлечение (доверие 1) [04BC14BE]
Трек 15 точное извлечение (доверие 1) [8B16C5CC]
Трек 16 точное извлечение (доверие 1) [816C810B]
Все треки извлечены точно
Конец отчёта

Отчёт auCDtect Task manager&#58;

-----------------------
DON'T MODIFY THIS FILE
-----------------------
PERFORMER: auCDtect Task Manager, ver. 1.6.0 RC1 build 1.6.0.1
Copyright (c) 2008-2010 y-soft. All rights reserved
http://y-soft.org
ANALYZER: auCDtect: CD records authenticity detector, version 0.8.2
Copyright (c) 2004 Oleg Berngardt. All rights reserved.
Copyright (c) 2004 Alexander Djourik. All rights reserved.
FILE: Various - The Hit Men Vol.1 - Produced By Frank Farian.flac
  Size: 479062721 Hash: 40B65976412B11DA243E5990855DA35F Accuracy: -m0
  Conclusion: CDDA 100%
  Signature: BF0F7CBC95D98656567EFFE23BAEA8BE2A9EA419
Время раздачи: 24/7
[Профиль] [ЛС]

Создавать темы 13-Авг-2015 11:14 (спустя 7 месяцев 20 дней)

Топик был перенесен из форума Сборники в форум Technopop, Eurodance, Disco
sergej644
 
Показать сообщения:    

Текущее время: Сегодня 02:25

Часовой пояс: GMT



Вы не можете начинать темы
Вы не можете отвечать на сообщения
Вы не можете редактировать свои сообщения
Вы не можете удалять свои сообщения
Вы не можете голосовать в опросах
Вы не можете прикреплять файлы к сообщениям
Вы не можете скачивать файлы