( Alternative, Electronic, Rock)VA - The Best Cover Versions of Kraftwerk (2002) FLAC

 
Автор Сообщение

sergej644 ®

Пол:

Стаж: 4 года 11 месяцев

Сообщений: 6042

Откуда: Soviet Union



Награды: Нет

Торрент-статистика

Создавать темы 16-Ноя-2014 21:41

[Цитировать]

Жанр: Alternative, Electronic, Rock
Носитель: CD
Страна-производитель диска: Russia
Год издания: 2002
Издатель (лейбл): Tornado Records
Аудиокодек: FLAC (*.flac)
Тип рипа: image+.cue
Битрейт аудио: lossless
Продолжительность: 01:18:03
Наличие сканов в содержимом раздачи: да
Треклист:
01 - Rammstein - Das Model
02 - P.O.D. - Die Roboter
03 - Senor Coconut - Showroom Dummies (Cha-Cha-Cha)
04 - Laibach - Zrcalo Sveta (Das Spiegelglass Der Welt)
05 - Martin O - Airwave
06 - Teruo Nakano - Computer Love
07 - Buffalo Daughters - Autobahn
08 - Zero Gravity - Man Machine
09 - Hikasu - Radioactivity
10 - Reverse Pulse Envelope - Metropolis
11 - Psyche - Antenna
12 - Limbo - Trans Europe Express
13 - Terre Thaemlitz - Tour de France

Лог создания рипа

Exact Audio Copy V0.99 prebeta 4 from 23. January 2008
EAC extraction logfile from 19. October 2014, 17:25
Various / The Best Cover Versions of Kraftwerk
Used drive : MATSHITADVD-RAM UJ-850S Adapter: 0 ID: 1
Read mode : Secure
Utilize accurate stream : Yes
Defeat audio cache : Yes
Make use of C2 pointers : No
Read offset correction : 102
Overread into Lead-In and Lead-Out : No
Fill up missing offset samples with silence : Yes
Delete leading and trailing silent blocks : No
Null samples used in CRC calculations : No
Used interface : Native Win32 interface for Win NT & 2000
Used output format : Internal WAV Routines
Sample format : 44.100 Hz; 16 Bit; Stereo
TOC of the extracted CD
Track | Start | Length | Start sector | End sector
---------------------------------------------------------
1 | 0:00.00 | 4:44.20 | 0 | 21319
2 | 4:44.20 | 6:48.04 | 21320 | 51923
3 | 11:32.24 | 5:25.36 | 51924 | 76334
4 | 16:57.60 | 6:02.40 | 76335 | 103524
5 | 23:00.25 | 5:52.15 | 103525 | 129939
6 | 28:52.40 | 4:10.37 | 129940 | 148726
7 | 33:03.02 | 7:53.73 | 148727 | 184274
8 | 40:57.00 | 5:12.45 | 184275 | 207719
9 | 46:09.45 | 7:11.43 | 207720 | 240087
10 | 53:21.13 | 9:02.40 | 240088 | 280777
11 | 62:23.53 | 4:25.60 | 280778 | 300712
12 | 66:49.38 | 4:29.12 | 300713 | 320899
13 | 71:18.50 | 6:44.25 | 320900 | 351224
Range status and errors
Selected range
Filename J:VA - The Best Cover Versions of Kraftwerk - 2002Various - The Best Cover Versions of Kraftwerk.wav
Peak level 100.0 %
Range quality 100.0 %
Test CRC 715CD5E2
Copy CRC 715CD5E2
Copy OK
No errors occurred
AccurateRip summary
Track 1 cannot be verified as accurate (confidence 1) [473BE82A], AccurateRip returned [C8547792]
Track 2 cannot be verified as accurate (confidence 1) [A859B1AA], AccurateRip returned [B5D0AD58]
Track 3 cannot be verified as accurate (confidence 1) [C106F7B9], AccurateRip returned [1D64BBBA]
Track 4 cannot be verified as accurate (confidence 1) [7CFD2E0E], AccurateRip returned [0552617F]
Track 5 cannot be verified as accurate (confidence 1) [08A3042F], AccurateRip returned [AF2148AF]
Track 6 cannot be verified as accurate (confidence 1) [C02B94F7], AccurateRip returned [77B9FD53]
Track 7 cannot be verified as accurate (confidence 1) [F34297F7], AccurateRip returned [FFEEF1C5]
Track 8 cannot be verified as accurate (confidence 1) [0B50180B], AccurateRip returned [00711A0D]
Track 9 cannot be verified as accurate (confidence 1) [04046999], AccurateRip returned [14C1C409]
Track 10 cannot be verified as accurate (confidence 1) [5AC7F1BF], AccurateRip returned [4B712B84]
Track 11 cannot be verified as accurate (confidence 1) [D874C63D], AccurateRip returned [1BEB5B6E]
Track 12 cannot be verified as accurate (confidence 1) [F1A2D106], AccurateRip returned [BAD08B77]
Track 13 cannot be verified as accurate (confidence 1) [F58A33F0], AccurateRip returned [16F1A071]
No tracks could be verified as accurate
You may have a different pressing from the one(s) in the database
End of status report
[Профиль] [ЛС]

Создавать темы 13-Авг-2015 11:32 (спустя 8 месяцев 26 дней)

Топик был перенесен из форума Сборники в форум Music from other genres
sergej644
 
Показать сообщения:    

Текущее время: Сегодня 12:31

Часовой пояс: GMT



Вы не можете начинать темы
Вы не можете отвечать на сообщения
Вы не можете редактировать свои сообщения
Вы не можете удалять свои сообщения
Вы не можете голосовать в опросах
Вы не можете прикреплять файлы к сообщениям
Вы не можете скачивать файлы