(Pop,Dance) VA - Super Vara (2CD) - 2015 [FLAC, image+.cue, lossless]

 
Автор Сообщение

sergej644 ®

Пол:

Стаж: 4 года 11 месяцев

Сообщений: 6042

Откуда: Soviet Union



Награды: Нет

Торрент-статистика

Создавать темы 15-Июл-2015 11:01

[Цитировать]

-Super Vara (2CD)-- Год издания: 2015
Страна: n/a
Жанр: Pop,Dance
Продолжительность: 01:44:13-Лейбл издания: ROTON
Тип альбома: Compilation
Страна-выпуска диска: Romania
Номер по каталогу: 5343-2
Формат: FLAC
Битрейт аудио: lossless
Тип рипа: image+.cue
Наличие сканов в содержимом раздачи: да
-

Трэклист

CD 1 | 00:51:17

01.Amna feat. Glance - Evacuat (04:17)
02.Anda Adam feat. CRBL - Seri de mai (03:20)
03.Last Night - Liar (03:16)
04.Akcent feat. Meriem - Dilemma (03:27)
05.Andreea D - Rompedon (04:32)
06.The dAdA feat. Alexandra Ungureanu - Ne iubim (03:03)
07.Ciprian Robu - As vrea (02:47)
08.Andreea Balan - Baila (03:37)
09.Fly Project - Like A Star (02:55)
10.Cojo & Adrian Sina - Zile bune, zile rele (03:57)
11.Antonia - Chica Loca (02:56)
12.Andrei Leonte - Care pe care (03:06)
13.Maxim - Atat de bine (03:35)
14.Zenn feat. Mike Diamondz - Sail Away (03:25)
15.Sandra N - Ballerina (03:12)

CD 2 | 00:52:36

01.Eelke Kleijn - Mistakes I've Made (03:33)
02.Lost Frequencies - Are You With Me (02:22)
03.Mike Candys feat. Max'C - Last Man On Earth (03:13)
04.Vekonyz feat. Calidora - In My Mind (03:30)
05.Panzer Flower feat. Hubert Tubbs - We Are Beautiful (03:45)
06.Sean Finn feat. Tinka - Summer Days (03:32)
07.Danzel - Stronger (03:36)
08.Eddy Wata - Shake Your Bom Bom (03:55)
09.Skizzo Skillz - Sub un palmier (03:13)
10.Fedde Le Grand feat. Niels Geusebroek - Falling (03:43)
11.Lexer feat. Belle Humble - Feels Like This (03:50)
12.Tourist feat. Will Heard - I Can't Keep Up (Explicit) (04:34)
13.Gojira & Planet H feat. Robin - Regele verii (03:53)
14.Jackson feat. James Yuill - Love, Love, Love (02:57)
15.Cristiana - Spune-mi (03:08)

Лог создания рипа

CD 1

Exact Audio Copy V1.0 beta 6 from 9. April 2015
EAC extraction logfile from 10. July 2015, 22:22
VA / Super Vara 2015 CD1
Used drive  : ASUS    DRW-2014L1T   Adapter: 1  ID: 2
Read mode               : Secure
Utilize accurate stream : Yes
Defeat audio cache      : Yes
Make use of C2 pointers : No
Read offset correction                      : 6
Overread into Lead-In and Lead-Out          : No
Fill up missing offset samples with silence : Yes
Delete leading and trailing silent blocks   : No
Null samples used in CRC calculations       : Yes
Used interface                              : Native Win32 interface for Win NT & 2000
Used output format : Internal WAV Routines
Sample format      : 44.100 Hz; 16 Bit; Stereo
TOC of the extracted CD
     Track |   Start  |  Length  | Start sector | End sector
    ---------------------------------------------------------
        1  |  0:00.00 |  4:16.65 |         0    |    19264
        2  |  4:16.65 |  3:19.44 |     19265    |    34233
        3  |  7:36.34 |  3:15.12 |     34234    |    48870
        4  | 10:51.46 |  3:26.62 |     48871    |    64382
        5  | 14:18.33 |  4:31.04 |     64383    |    84711
        6  | 18:49.37 |  3:02.58 |     84712    |    98419
        7  | 21:52.20 |  2:46.02 |     98420    |   110871
        8  | 24:38.22 |  3:36.13 |    110872    |   127084
        9  | 28:14.35 |  2:54.04 |    127085    |   140138
       10  | 31:08.39 |  3:56.60 |    140139    |   157898
       11  | 35:05.24 |  2:55.13 |    157899    |   171036
       12  | 38:00.37 |  3:05.23 |    171037    |   184934
       13  | 41:05.60 |  3:34.60 |    184935    |   201044
       14  | 44:40.45 |  3:24.18 |    201045    |   216362
       15  | 48:04.63 |  3:11.46 |    216363    |   230733
Range status and errors
Selected range
     Filename D:\OUTPUT FILES\VA - Super Vara 2015 CD1.wav
     Peak level 98.9 %
     Extraction speed 8.1 X
     Range quality 100.0 %
     Test CRC BFEA1E90
     Copy CRC BFEA1E90
     Copy OK
No errors occurred
AccurateRip summary
Track  1  not present in database
Track  2  not present in database
Track  3  not present in database
Track  4  not present in database
Track  5  not present in database
Track  6  not present in database
Track  7  not present in database
Track  8  not present in database
Track  9  not present in database
Track 10  not present in database
Track 11  not present in database
Track 12  not present in database
Track 13  not present in database
Track 14  not present in database
Track 15  not present in database
None of the tracks are present in the AccurateRip database
End of status report
---- CUETools DB Plugin V2.1.6
[CTDB TOCID: sop2..x0AB0jxg_BJnfjWa26PdI-] found
Submit result: already submitted
Track | CTDB Status
  1   | (1/1) Accurately ripped
  2   | (1/1) Accurately ripped
  3   | (1/1) Accurately ripped
  4   | (1/1) Accurately ripped
  5   | (1/1) Accurately ripped
  6   | (1/1) Accurately ripped
  7   | (1/1) Accurately ripped
  8   | (1/1) Accurately ripped
  9   | (1/1) Accurately ripped
10   | (1/1) Accurately ripped
11   | (1/1) Accurately ripped
12   | (1/1) Accurately ripped
13   | (1/1) Accurately ripped
14   | (1/1) Accurately ripped
15   | (1/1) Accurately ripped

CD 2

Exact Audio Copy V1.0 beta 6 from 9. April 2015
EAC extraction logfile from 10. July 2015, 23:38
VA / Super Vara 2015 CD2
Used drive  : ASUS    DRW-2014L1T   Adapter: 1  ID: 2
Read mode               : Secure
Utilize accurate stream : Yes
Defeat audio cache      : Yes
Make use of C2 pointers : No
Read offset correction                      : 6
Overread into Lead-In and Lead-Out          : No
Fill up missing offset samples with silence : Yes
Delete leading and trailing silent blocks   : No
Null samples used in CRC calculations       : Yes
Used interface                              : Native Win32 interface for Win NT & 2000
Used output format : Internal WAV Routines
Sample format      : 44.100 Hz; 16 Bit; Stereo
TOC of the extracted CD
     Track |   Start  |  Length  | Start sector | End sector
    ---------------------------------------------------------
        1  |  0:00.00 |  3:32.09 |         0    |    15908
        2  |  3:32.09 |  2:21.07 |     15909    |    26490
        3  |  5:53.16 |  3:12.17 |     26491    |    40907
        4  |  9:05.33 |  3:29.31 |     40908    |    56613
        5  | 12:34.64 |  3:44.38 |     56614    |    73451
        6  | 16:19.27 |  3:31.63 |     73452    |    89339
        7  | 19:51.15 |  3:36.00 |     89340    |   105539
        8  | 23:27.15 |  3:54.34 |    105540    |   123123
        9  | 27:21.49 |  3:12.57 |    123124    |   137580
       10  | 30:34.31 |  3:42.18 |    137581    |   154248
       11  | 34:16.49 |  3:49.09 |    154249    |   171432
       12  | 38:05.58 |  4:33.26 |    171433    |   191933
       13  | 42:39.09 |  3:52.37 |    191934    |   209370
       14  | 46:31.46 |  2:56.21 |    209371    |   222591
       15  | 49:27.67 |  3:07.34 |    222592    |   236650
Range status and errors
Selected range
     Filename D:\OUTPUT FILES\VA - Super Vara 2015 CD2.wav
     Peak level 98.8 %
     Extraction speed 6.8 X
     Range quality 99.9 %
     Test CRC 9256EA14
     Copy CRC 9256EA14
     Copy OK
No errors occurred
AccurateRip summary
Track  1  not present in database
Track  2  not present in database
Track  3  not present in database
Track  4  not present in database
Track  5  not present in database
Track  6  not present in database
Track  7  not present in database
Track  8  not present in database
Track  9  not present in database
Track 10  not present in database
Track 11  not present in database
Track 12  not present in database
Track 13  not present in database
Track 14  not present in database
Track 15  not present in database
None of the tracks are present in the AccurateRip database
End of status report
---- CUETools DB Plugin V2.1.6
[CTDB TOCID: cz6t.4f2o1sxviUXFdrXzchlDbI-] found
Submit result: already submitted
Track | CTDB Status
  1   | (1/1) Accurately ripped
  2   | (1/1) Accurately ripped
  3   | (1/1) Accurately ripped
  4   | (1/1) Accurately ripped
  5   | (1/1) Accurately ripped
  6   | (1/1) Accurately ripped
  7   | (1/1) Accurately ripped
  8   | (1/1) Accurately ripped
  9   | (1/1) Accurately ripped
10   | (1/1) Accurately ripped
11   | (1/1) Accurately ripped
12   | (1/1) Accurately ripped
13   | (1/1) Accurately ripped
14   | (1/1) Accurately ripped
15   | (1/1) Accurately ripped

Индексная карта (non-compilant .cue)

CD 1

REM GENRE Dance
REM DATE 2015
REM DISCID D50C040F
REM COMMENT "ExactAudioCopy v1.0b6"
PERFORMER "VA"
TITLE "Super Vara 2015 CD1"
FILE "VA - Super Vara 2015 CD1.wav" WAVE
  TRACK 01 AUDIO
    TITLE "Evacuat"
    PERFORMER "Amna feat. Glance"
    INDEX 01 00:00:00
  TRACK 02 AUDIO
    TITLE "Seri de mai"
    PERFORMER "Anda Adam feat. CRBL"
    INDEX 00 04:14:65
    INDEX 01 04:16:65
  TRACK 03 AUDIO
    TITLE "Liar"
    PERFORMER "Last Night"
    INDEX 00 07:34:34
    INDEX 01 07:36:34
  TRACK 04 AUDIO
    TITLE "Dilemma"
    PERFORMER "Akcent feat. Meriem"
    INDEX 00 10:49:46
    INDEX 01 10:51:46
  TRACK 05 AUDIO
    TITLE "Rompedon"
    PERFORMER "Andreea D"
    INDEX 00 14:16:33
    INDEX 01 14:18:33
  TRACK 06 AUDIO
    TITLE "Ne iubim"
    PERFORMER "The dAdA feat. Alexandra Ungureanu"
    INDEX 00 18:47:37
    INDEX 01 18:49:37
  TRACK 07 AUDIO
    TITLE "As vrea"
    PERFORMER "Ciprian Robu"
    INDEX 00 21:50:20
    INDEX 01 21:52:20
  TRACK 08 AUDIO
    TITLE "Baila"
    PERFORMER "Andreea Balan"
    INDEX 00 24:36:22
    INDEX 01 24:38:22
  TRACK 09 AUDIO
    TITLE "Like A Star"
    PERFORMER "Fly Project"
    INDEX 00 28:12:35
    INDEX 01 28:14:35
  TRACK 10 AUDIO
    TITLE "Zile bune, zile rele"
    PERFORMER "Cojo & Adrian Sina"
    INDEX 00 31:06:39
    INDEX 01 31:08:39
  TRACK 11 AUDIO
    TITLE "Chica Loca"
    PERFORMER "Antonia"
    INDEX 00 35:03:24
    INDEX 01 35:05:24
  TRACK 12 AUDIO
    TITLE "Care pe care"
    PERFORMER "Andrei Leonte"
    INDEX 00 37:58:37
    INDEX 01 38:00:37
  TRACK 13 AUDIO
    TITLE "Atat de bine"
    PERFORMER "Maxim"
    INDEX 00 41:03:60
    INDEX 01 41:05:60
  TRACK 14 AUDIO
    TITLE "Sail Away"
    PERFORMER "Zenn feat. Mike Diamondz"
    INDEX 00 44:38:45
    INDEX 01 44:40:45
  TRACK 15 AUDIO
    TITLE "Ballerina"
    PERFORMER "Sandra N"
    INDEX 00 48:02:63
    INDEX 01 48:04:63

CD 2

REM GENRE Dance
REM DATE 2015
REM DISCID E50C530F
REM COMMENT "ExactAudioCopy v1.0b6"
PERFORMER "VA"
TITLE "Super Vara 2015 CD2"
FILE "VA - Super Vara 2015 CD2.wav" WAVE
  TRACK 01 AUDIO
    TITLE "Mistakes I've Made"
    PERFORMER "Eelke Kleijn"
    INDEX 01 00:00:00
  TRACK 02 AUDIO
    TITLE "Are You With Me"
    PERFORMER "Lost Frequencies"
    INDEX 00 03:30:09
    INDEX 01 03:32:09
  TRACK 03 AUDIO
    TITLE "Last Man On Earth"
    PERFORMER "Mike Candys feat. Max'C"
    INDEX 00 05:51:16
    INDEX 01 05:53:16
  TRACK 04 AUDIO
    TITLE "In My Mind"
    PERFORMER "Vekonyz feat. Calidora"
    INDEX 00 09:03:33
    INDEX 01 09:05:33
  TRACK 05 AUDIO
    TITLE "We Are Beautiful"
    PERFORMER "Panzer Flower feat. Hubert Tubbs"
    INDEX 00 12:32:64
    INDEX 01 12:34:64
  TRACK 06 AUDIO
    TITLE "Summer Days"
    PERFORMER "Sean Finn feat. Tinka"
    INDEX 00 16:17:27
    INDEX 01 16:19:27
  TRACK 07 AUDIO
    TITLE "Stronger"
    PERFORMER "Danzel"
    INDEX 00 19:49:15
    INDEX 01 19:51:15
  TRACK 08 AUDIO
    TITLE "Shake Your Bom Bom"
    PERFORMER "Eddy Wata"
    INDEX 00 23:25:15
    INDEX 01 23:27:15
  TRACK 09 AUDIO
    TITLE "Sub un palmier"
    PERFORMER "Skizzo Skillz"
    INDEX 00 27:19:49
    INDEX 01 27:21:49
  TRACK 10 AUDIO
    TITLE "Falling"
    PERFORMER "Fedde Le Grand feat. Niels Geusebroek"
    INDEX 00 30:32:31
    INDEX 01 30:34:31
  TRACK 11 AUDIO
    TITLE "Feels Like This"
    PERFORMER "Lexer feat. Belle Humble"
    INDEX 00 34:14:49
    INDEX 01 34:16:49
  TRACK 12 AUDIO
    TITLE "I Can't Keep Up (Explicit)"
    PERFORMER "Tourist feat. Will Heard"
    INDEX 00 38:03:58
    INDEX 01 38:05:58
  TRACK 13 AUDIO
    TITLE "Regele verii"
    PERFORMER "Gojira & Planet H feat. Robin"
    INDEX 00 42:37:09
    INDEX 01 42:39:09
  TRACK 14 AUDIO
    TITLE "Love, Love, Love"
    PERFORMER "Jackson feat. James Yuill"
    INDEX 00 46:29:46
    INDEX 01 46:31:46
  TRACK 15 AUDIO
    TITLE "Spune-mi"
    PERFORMER "Cristiana"
    INDEX 00 49:25:67
    INDEX 01 49:27:67

Скриншот спектра частот

--Не забываем говорить
[Профиль] [ЛС]

Создавать темы 13-Авг-2015 11:14 (спустя 29 дней)

Топик был перенесен из форума Сборники в форум Technopop, Eurodance, Disco
sergej644
 
Показать сообщения:    

Текущее время: Сегодня 10:33

Часовой пояс: GMT



Вы не можете начинать темы
Вы не можете отвечать на сообщения
Вы не можете редактировать свои сообщения
Вы не можете удалять свои сообщения
Вы не можете голосовать в опросах
Вы не можете прикреплять файлы к сообщениям
Вы не можете скачивать файлы