(Pop) VA - Sanremo 69° Festival Della Canzone Italiana (2CD) - 2019 [FLAC, tracks +.cue, lossless]

 
Author Message

sergej644 ®

Gender:

Longevity: 7 years 5 months

Posts: 7276

Location: Klaipeda



: 9 ()

Mega Seeder 1 (1) Top Seeder 4 (1) Top Seeder 3 (1)
Торрент-статистика

Post 25-Feb-2019 12:04

[Quote]

-VA - Sanremo 69° Festival Della Canzone Italiana (2CD)--
Год издания: 2019
Страна: Italia
Жанр: Pop
Продолжительность: 01:24:56-Лейбл издания: Warner Music
Страна-выпуска диска: Italy
Номер по каталогу: 5054197039591-Формат: FLAC
Битрейт аудио: Lossless
Тип рипа: tracks +.cue
Наличие сканов в содержимом раздачи: да
-

Трэклист

CD 1 | 00:42:38


01. Loredana Berte' - Cosa ti aspetti da me (3:45)
02. Ultimo - I tuoi particolari (3:41)
03. Patty Pravo & Briga - Un po' come nella vita (3:25)
04. Daniele Silvestri - Argento vivo (Radio Version) (4:19)
05. Paola Turci - L'ultimo ostacolo (3:28)
06. Nek - Mi faro' trovare pronto (3:04)
07. Shade & Federica Carta - Senza farlo apposta (3:36)
08. Simone Cristicchi - Abbi cura di me (4:02)
09. Motta - Dov'e' l'Italia (3:00)
10. Ex-Otago - Solo una canzone (3:48)
11. Ghemon - Rose viola (3:15)
12. Mahmood - Soldi (3:16)

CD 2 | 00:42:17


01. Il Volo - Musica che resta (3:18)
02. Arisa - Mi sento bene (3:45)
03. Irama - La ragazza con il cuore di latta (3:43)
04. Francesco Renga - Aspetto che torni (3:14)
05. Anna Tatangelo - Le nostre anime di notte (3:12)
06. Enrico Nigiotti - Nonno Hollywood (3:49)
07. Negrita - I ragazzi stanno bene (4:08)
08. Nino D'Angelo & Livio Cori - Un'altra luce (4:08)
09. The Zen Circus - L'amore e' una dittatura (3:51)
10. Achille Lauro - Rolls Royce (2:55)
11. BoomDaBash - Per un milione (2:56)
12. Einar - Parole nuove (3:18)
-

Лог создания рипа

CD 1

Exact Audio Copy V1.3 from 2. September 2016
EAC extraction logfile from 8. February 2019, 15:43
Artisti Vari / Sanremo 2019 (cd1)
Used drive  : ASUS    BC-12D2HT   Adapter: 0  ID: 0
Read mode               : Secure
Utilize accurate stream : Yes
Defeat audio cache      : Yes
Make use of C2 pointers : No
Read offset correction                      : 6
Overread into Lead-In and Lead-Out          : No
Fill up missing offset samples with silence : Yes
Delete leading and trailing silent blocks   : No
Null samples used in CRC calculations       : Yes
Used interface                              : Installed external ASPI interface
Gap handling                                : Appended to previous track
Used output format              : User Defined Encoder
Selected bitrate                : 1024 kBit/s
Quality                         : High
Add ID3 tag                     : No
Command line compressor         : C:\Program Files (x86)\Exact Audio Copy\FLAC\FLAC.EXE
Additional command line options : -8 -V -T "Artist=%artist%" -T "Title=%title%" -T "Album=%albumtitle%" -T "DATE=%year%" -T "TRACKNUMBER=%tracknr%" -T "Genre=%genre%" -T "ALBUMARTIST=%albumartist%" -T "ALBUM ARTIST=%albumartist%" -T "COMMENT=EAC Secure Mode, Test & Copy, AccurateRip, FLAC -8" %source%
TOC of the extracted CD
     Track |   Start  |  Length  | Start sector | End sector
    ---------------------------------------------------------
        1  |  0:00.00 |  3:45.08 |         0    |    16882
        2  |  3:45.08 |  3:40.38 |     16883    |    33420
        3  |  7:25.46 |  3:24.63 |     33421    |    48783
        4  | 10:50.34 |  4:19.10 |     48784    |    68218
        5  | 15:09.44 |  3:28.10 |     68219    |    83828
        6  | 18:37.54 |  3:03.43 |     83829    |    97596
        7  | 21:41.22 |  3:35.72 |     97597    |   113793
        8  | 25:17.19 |  4:02.12 |    113794    |   131955
        9  | 29:19.31 |  3:00.33 |    131956    |   145488
       10  | 32:19.64 |  3:47.45 |    145489    |   162558
       11  | 36:07.34 |  3:15.19 |    162559    |   177202
       12  | 39:22.53 |  3:15.49 |    177203    |   191876
Track  1
     Filename C:\EAC\01. Loredana Berte' - Cosa ti aspetti da me.wav
     Pre-gap length  0:00:02.00
     Peak level 94.4 %
     Extraction speed 3.8 X
     Track quality 99.9 %
     Test CRC 1F73B717
     Copy CRC 1F73B717
     Track not present in AccurateRip database
     Copy OK
Track  2
     Filename C:\EAC\02. Ultimo - I tuoi particolari.wav
     Peak level 97.7 %
     Extraction speed 4.8 X
     Track quality 100.0 %
     Test CRC 688F860E
     Copy CRC 688F860E
     Track not present in AccurateRip database
     Copy OK
Track  3
     Filename C:\EAC\03. Patty Pravo & Briga - Un po' come nella vita.wav
     Peak level 96.4 %
     Extraction speed 4.4 X
     Track quality 99.9 %
     Test CRC 066A5AF7
     Copy CRC 066A5AF7
     Track not present in AccurateRip database
     Copy OK
Track  4
     Filename C:\EAC\04. Daniele Silvestri - Argento vivo (Radio Version).wav
     Peak level 97.6 %
     Extraction speed 5.7 X
     Track quality 100.0 %
     Test CRC 956E0D22
     Copy CRC 956E0D22
     Track not present in AccurateRip database
     Copy OK
Track  5
     Filename C:\EAC\05. Paola Turci - L'ultimo ostacolo.wav
     Peak level 96.6 %
     Extraction speed 4.9 X
     Track quality 99.9 %
     Test CRC 658AB980
     Copy CRC 658AB980
     Track not present in AccurateRip database
     Copy OK
Track  6
     Filename C:\EAC\06. Nek - Mi faro' trovare pronto.wav
     Peak level 96.6 %
     Extraction speed 5.1 X
     Track quality 99.9 %
     Test CRC 425CD0F4
     Copy CRC 425CD0F4
     Track not present in AccurateRip database
     Copy OK
Track  7
     Filename C:\EAC\07. Shade & Federica Carta - Senza farlo apposta.wav
     Peak level 96.5 %
     Extraction speed 6.5 X
     Track quality 100.0 %
     Test CRC F270B207
     Copy CRC F270B207
     Track not present in AccurateRip database
     Copy OK
Track  8
     Filename C:\EAC\08. Simone Cristicchi - Abbi cura di me.wav
     Peak level 95.2 %
     Extraction speed 6.9 X
     Track quality 100.0 %
     Test CRC 2DCA69A5
     Copy CRC 2DCA69A5
     Track not present in AccurateRip database
     Copy OK
Track  9
     Filename C:\EAC\09. Motta - Dov'e' l'Italia.wav
     Peak level 98.7 %
     Extraction speed 6.6 X
     Track quality 100.0 %
     Test CRC CA54738D
     Copy CRC CA54738D
     Track not present in AccurateRip database
     Copy OK
Track 10
     Filename C:\EAC\10. Ex-Otago - Solo una canzone.wav
     Peak level 98.7 %
     Extraction speed 7.4 X
     Track quality 100.0 %
     Test CRC C8E7D29B
     Copy CRC C8E7D29B
     Track not present in AccurateRip database
     Copy OK
Track 11
     Filename C:\EAC\11. Ghemon - Rose viola.wav
     Peak level 98.7 %
     Extraction speed 7.3 X
     Track quality 100.0 %
     Test CRC D9FA5220
     Copy CRC D9FA5220
     Track not present in AccurateRip database
     Copy OK
Track 12
     Filename C:\EAC\12. Mahmood - Soldi.wav
     Peak level 95.7 %
     Extraction speed 7.5 X
     Track quality 100.0 %
     Test CRC C0175D9A
     Copy CRC C0175D9A
     Track not present in AccurateRip database
     Copy OK
None of the tracks are present in the AccurateRip database
No errors occurred
End of status report

CD 2

Exact Audio Copy V1.3 from 2. September 2016
EAC extraction logfile from 8. February 2019, 16:02
Artisti Vari / Sanremo 2019 (cd2)
Used drive  : ASUS    BC-12D2HT   Adapter: 0  ID: 0
Read mode               : Secure
Utilize accurate stream : Yes
Defeat audio cache      : Yes
Make use of C2 pointers : No
Read offset correction                      : 6
Overread into Lead-In and Lead-Out          : No
Fill up missing offset samples with silence : Yes
Delete leading and trailing silent blocks   : No
Null samples used in CRC calculations       : Yes
Used interface                              : Installed external ASPI interface
Gap handling                                : Appended to previous track
Used output format              : User Defined Encoder
Selected bitrate                : 1024 kBit/s
Quality                         : High
Add ID3 tag                     : No
Command line compressor         : C:\Program Files (x86)\Exact Audio Copy\FLAC\FLAC.EXE
Additional command line options : -8 -V -T "Artist=%artist%" -T "Title=%title%" -T "Album=%albumtitle%" -T "DATE=%year%" -T "TRACKNUMBER=%tracknr%" -T "Genre=%genre%" -T "ALBUMARTIST=%albumartist%" -T "ALBUM ARTIST=%albumartist%" -T "COMMENT=EAC Secure Mode, Test & Copy, AccurateRip, FLAC -8" %source%
TOC of the extracted CD
     Track |   Start  |  Length  | Start sector | End sector
    ---------------------------------------------------------
        1  |  0:00.00 |  3:18.34 |         0    |    14883
        2  |  3:18.34 |  3:45.16 |     14884    |    31774
        3  |  7:03.50 |  3:42.72 |     31775    |    48496
        4  | 10:46.47 |  3:14.20 |     48497    |    63066
        5  | 14:00.67 |  3:11.57 |     63067    |    77448
        6  | 17:12.49 |  3:49.20 |     77449    |    94643
        7  | 21:01.69 |  4:07.41 |     94644    |   113209
        8  | 25:09.35 |  4:07.65 |    113210    |   131799
        9  | 29:17.25 |  3:50.73 |    131800    |   149122
       10  | 33:08.23 |  2:55.08 |    149123    |   162255
       11  | 36:03.31 |  2:55.45 |    162256    |   175425
       12  | 38:59.01 |  3:18.15 |    175426    |   190290
Track  1
     Filename C:\EAC\01. Il Volo - Musica che resta.wav
     Pre-gap length  0:00:02.00
     Peak level 97.7 %
     Extraction speed 4.3 X
     Track quality 100.0 %
     Test CRC 2E2EC7CC
     Copy CRC 2E2EC7CC
     Track not present in AccurateRip database
     Copy OK
Track  2
     Filename C:\EAC\02. Arisa - Mi sento bene.wav
     Peak level 94.4 %
     Extraction speed 4.8 X
     Track quality 100.0 %
     Test CRC 88C6B5B3
     Copy CRC 88C6B5B3
     Track not present in AccurateRip database
     Copy OK
Track  3
     Filename C:\EAC\03. Irama - La ragazza con il cuore di latta.wav
     Peak level 94.6 %
     Extraction speed 5.2 X
     Track quality 100.0 %
     Test CRC F6EAA682
     Copy CRC F6EAA682
     Track not present in AccurateRip database
     Copy OK
Track  4
     Filename C:\EAC\04. Francesco Renga - Aspetto che torni.wav
     Peak level 96.6 %
     Extraction speed 5.4 X
     Track quality 100.0 %
     Test CRC C3F48BFF
     Copy CRC C3F48BFF
     Track not present in AccurateRip database
     Copy OK
Track  5
     Filename C:\EAC\05. Anna Tatangelo - Le nostre anime di notte.wav
     Peak level 94.4 %
     Extraction speed 5.7 X
     Track quality 100.0 %
     Test CRC 82E4F79B
     Copy CRC 82E4F79B
     Track not present in AccurateRip database
     Copy OK
Track  6
     Filename C:\EAC\06. Enrico Nigiotti - Nonno Hollywood.wav
     Peak level 97.4 %
     Extraction speed 6.2 X
     Track quality 100.0 %
     Test CRC 533E4AA4
     Copy CRC 533E4AA4
     Track not present in AccurateRip database
     Copy OK
Track  7
     Filename C:\EAC\07. Negrita - I ragazzi stanno bene.wav
     Peak level 96.9 %
     Extraction speed 6.6 X
     Track quality 100.0 %
     Test CRC 62F5503D
     Copy CRC 62F5503D
     Track not present in AccurateRip database
     Copy OK
Track  8
     Filename C:\EAC\08. Nino D'Angelo & Livio Cori - Un'altra luce.wav
     Peak level 97.4 %
     Extraction speed 6.8 X
     Track quality 100.0 %
     Test CRC 03C9B68B
     Copy CRC 03C9B68B
     Track not present in AccurateRip database
     Copy OK
Track  9
     Filename C:\EAC\09. The Zen Circus - L'amore e' una dittatura.wav
     Peak level 94.3 %
     Extraction speed 7.1 X
     Track quality 100.0 %
     Test CRC 4B336BE6
     Copy CRC 4B336BE6
     Track not present in AccurateRip database
     Copy OK
Track 10
     Filename C:\EAC\10. Achille Lauro - Rolls Royce.wav
     Peak level 97.6 %
     Extraction speed 7.0 X
     Track quality 100.0 %
     Test CRC 73DAFB72
     Copy CRC 73DAFB72
     Track not present in AccurateRip database
     Copy OK
Track 11
     Filename C:\EAC\11. BoomDaBash - Per un milione.wav
     Peak level 97.7 %
     Extraction speed 5.6 X
     Track quality 99.9 %
     Test CRC EEB75A36
     Copy CRC EEB75A36
     Track not present in AccurateRip database
     Copy OK
Track 12
     Filename C:\EAC\12. Einar - Parole nuove.wav
     Peak level 98.7 %
     Extraction speed 6.4 X
     Track quality 99.9 %
     Test CRC 4F2F4772
     Copy CRC 4F2F4772
     Track not present in AccurateRip database
     Copy OK
None of the tracks are present in the AccurateRip database
No errors occurred
End of status report

Индексная карта (non-compilant .cue)

CD 1

REM GENRE Pop
REM DATE 2019
REM DISCID 9609FE0C
REM COMMENT "ExactAudioCopy v1.3"
CATALOG 5054197039591
PERFORMER "Artisti Vari"
TITLE "Sanremo 2019 (cd1)"
REM COMPOSER ""
FILE "01. Loredana Berte' - Cosa ti aspetti da me.flac" WAVE
  TRACK 01 AUDIO
    TITLE "Cosa ti aspetti da me"
    PERFORMER "Loredana Berte'"
    REM COMPOSER ""
    ISRC ITQ001900004
    INDEX 01 00:00:00
FILE "02. Ultimo - I tuoi particolari.flac" WAVE
  TRACK 02 AUDIO
    TITLE "I tuoi particolari"
    PERFORMER "Ultimo"
    REM COMPOSER ""
    ISRC IT1O71900459
    INDEX 01 00:00:00
FILE "03. Patty Pravo & Briga - Un po' come nella vita.flac" WAVE
  TRACK 03 AUDIO
    TITLE "Un po' come nella vita"
    PERFORMER "Patty Pravo & Briga"
    REM COMPOSER ""
    ISRC IT1O71900459
    INDEX 01 00:00:00
FILE "04. Daniele Silvestri - Argento vivo (Radio Version).flac" WAVE
  TRACK 04 AUDIO
    TITLE "Argento vivo (Radio Version)"
    PERFORMER "Daniele Silvestri"
    REM COMPOSER ""
    ISRC ITB001900039
    INDEX 01 00:00:00
FILE "05. Paola Turci - L'ultimo ostacolo.flac" WAVE
  TRACK 05 AUDIO
    TITLE "L'ultimo ostacolo"
    PERFORMER "Paola Turci"
    REM COMPOSER ""
    ISRC ITQ001900002
    INDEX 01 00:00:00
FILE "06. Nek - Mi faro' trovare pronto.flac" WAVE
  TRACK 06 AUDIO
    TITLE "Mi faro' trovare pronto"
    PERFORMER "Nek"
    REM COMPOSER ""
    ISRC ITWFD1900001
    INDEX 01 00:00:00
FILE "07. Shade & Federica Carta - Senza farlo apposta.flac" WAVE
  TRACK 07 AUDIO
    TITLE "Senza farlo apposta"
    PERFORMER "Shade & Federica Carta"
    REM COMPOSER ""
    ISRC ITQ001900005
    INDEX 01 00:00:00
FILE "08. Simone Cristicchi - Abbi cura di me.flac" WAVE
  TRACK 08 AUDIO
    TITLE "Abbi cura di me"
    PERFORMER "Simone Cristicchi"
    REM COMPOSER ""
    ISRC ITB001900005
    INDEX 01 00:00:00
FILE "09. Motta - Dov'e' l'Italia.flac" WAVE
  TRACK 09 AUDIO
    TITLE "Dov'e' l'Italia"
    PERFORMER "Motta"
    REM COMPOSER ""
    ISRC ITZ041800160
    INDEX 01 00:00:00
FILE "10. Ex-Otago - Solo una canzone.flac" WAVE
  TRACK 10 AUDIO
    TITLE "Solo una canzone"
    PERFORMER "Ex-Otago"
    REM COMPOSER ""
    ISRC ITT741800073
    INDEX 01 00:00:00
FILE "11. Ghemon - Rose viola.flac" WAVE
  TRACK 11 AUDIO
    TITLE "Rose viola"
    PERFORMER "Ghemon"
    REM COMPOSER ""
    ISRC ITB261900010
    INDEX 01 00:00:00
FILE "12. Mahmood - Soldi.flac" WAVE
  TRACK 12 AUDIO
    TITLE "Soldi"
    PERFORMER "Mahmood"
    REM COMPOSER ""
    ISRC ITUM71900060
    INDEX 01 00:00:00

CD 2

REM GENRE Pop
REM DATE 2019
REM DISCID 8C09E90C
REM COMMENT "ExactAudioCopy v1.3"
CATALOG 5054197039591
PERFORMER "Artisti Vari"
TITLE "Sanremo 2019 (cd2)"
REM COMPOSER ""
FILE "01. Il Volo - Musica che resta.flac" WAVE
  TRACK 01 AUDIO
    TITLE "Musica che resta"
    PERFORMER "Il Volo"
    REM COMPOSER ""
    ISRC ITB001900030
    INDEX 01 00:00:00
FILE "02. Arisa - Mi sento bene.flac" WAVE
  TRACK 02 AUDIO
    TITLE "Mi sento bene"
    PERFORMER "Arisa"
    REM COMPOSER ""
    ISRC ITZ041800206
    INDEX 01 00:00:00
FILE "03. Irama - La ragazza con il cuore di latta.flac" WAVE
  TRACK 03 AUDIO
    TITLE "La ragazza con il cuore di latta"
    PERFORMER "Irama"
    REM COMPOSER ""
    ISRC ITQ001900003
    INDEX 01 00:00:00
FILE "04. Francesco Renga - Aspetto che torni.flac" WAVE
  TRACK 04 AUDIO
    TITLE "Aspetto che torni"
    PERFORMER "Francesco Renga"
    REM COMPOSER ""
    ISRC ITB001900003
    INDEX 01 00:00:00
FILE "05. Anna Tatangelo - Le nostre anime di notte.flac" WAVE
  TRACK 05 AUDIO
    TITLE "Le nostre anime di notte"
    PERFORMER "Anna Tatangelo"
    REM COMPOSER ""
    ISRC ITN851900003
    INDEX 01 00:00:00
FILE "06. Enrico Nigiotti - Nonno Hollywood.flac" WAVE
  TRACK 06 AUDIO
    TITLE "Nonno Hollywood"
    PERFORMER "Enrico Nigiotti"
    REM COMPOSER ""
    ISRC ITB001900031
    INDEX 01 00:00:00
FILE "07. Negrita - I ragazzi stanno bene.flac" WAVE
  TRACK 07 AUDIO
    TITLE "I ragazzi stanno bene"
    PERFORMER "Negrita"
    REM COMPOSER ""
    ISRC ITUM71900008
    INDEX 01 00:00:00
FILE "08. Nino D'Angelo & Livio Cori - Un'altra luce.flac" WAVE
  TRACK 08 AUDIO
    TITLE "Un'altra luce"
    PERFORMER "Nino D'Angelo & Livio Cori"
    REM COMPOSER ""
    ISRC ITZ041800227
    INDEX 01 00:00:00
FILE "09. The Zen Circus - L'amore e' una dittatura.flac" WAVE
  TRACK 09 AUDIO
    TITLE "L'amore e' una dittatura"
    PERFORMER "The Zen Circus"
    REM COMPOSER ""
    ISRC ITCV31907001
    INDEX 01 00:00:00
FILE "10. Achille Lauro - Rolls Royce.flac" WAVE
  TRACK 10 AUDIO
    TITLE "Rolls Royce"
    PERFORMER "Achille Lauro"
    REM COMPOSER ""
    ISRC ITB551915415
    INDEX 01 00:00:00
FILE "11. BoomDaBash - Per un milione.flac" WAVE
  TRACK 11 AUDIO
    TITLE "Per un milione"
    PERFORMER "BoomDaBash"
    REM COMPOSER ""
    ISRC ITUM71900058
    INDEX 01 00:00:00
FILE "12. Einar - Parole nuove.flac" WAVE
  TRACK 12 AUDIO
    TITLE "Parole nuove"
    PERFORMER "Einar"
    REM COMPOSER ""
    ISRC ITB001900028
    INDEX 01 00:00:00
--
[Profile] [PM]
Display posts from previous:    

The time now is: Today 10:53

All times are GMT



You cannot post new topics in this forum
You cannot reply to topics in this forum
You cannot edit your posts in this forum
You cannot delete your posts in this forum
You cannot vote in polls in this forum
You cannot attach files in this forum
You cannot download files in this forum