VA • Rockpalast • Wave Gotik Treffen Festival [2014, Gothic Metal, Industrial, HDTV 720p]

 
Автор Сообщение

reversefile ®

Пол:

Стаж: 4 года 5 месяцев

Сообщений: 842

Откуда: ReverseFile.org



Награды: Нет

Торрент-статистика

Создавать темы 11-Авг-2014 18:53

[Цитировать]


Wave Gotik Treffen Festival


Жанр: Gothic Metal, Industrial
Продолжительность: 01:28:58
Год выпуска: 2014
Качество: HDTV 720p
Контейнер: TS
Видео кодек: H.264
Аудио кодек: AC3
Видео: MPEG4 Video (H264) 1280x720 50fps 8540Kbps
Аудио: Dolby AC3 48000Hz stereo 448kbps

Треклист

01. Umbra Et Imago "Mea Culpa"
02. Umbra Et Imago "Marchenlied (Liebeslied)
03. The Devil & The Universe "The Pilgrims Regress"
04. Primordial "As Rome Burns"
05. Placebo Effect "Psychotrauma"
06. Distain "I Beg For You"
07. Anne Clark "Virtuality"
08. The Soft Moon "Circles"
09. Apoptygma Berzerk "Unicorn"
10. UK Decay "The City Is A Cage"
11. UK Decay "Revolutionary Love Song"
12. Oomph! "Der Neuhe Gott"(cut)
13. The Klinik "Murder"
14. The Klinik "Obsession"

Отчёт MediaInfo / BDInfo

GeneralID : 1 (0x1)Complete name : L:\VA - Rockpalast - Wave Gotik Treffen Festival 2014.tsFormat : MPEG-TSFile size : 5.88 GiBDuration : 1h 28mnOverall bit rate mode : VariableOverall bit rate : 9 460 Kbps
VideoID : 5501 (0x157D)Menu ID : 1 (0x1)Format : AVCFormat/Info : Advanced Video CodecFormat profile : High@L4.0Format settings, CABAC : YesFormat settings, ReFrames : 4 framesCodec ID : 27Duration : 1h 28mnBit rate : 8 540 KbpsWidth : 1 280 pixelsHeight : 720 pixelsDisplay aspect ratio : 16:9Frame rate : 50.000 fpsColor space : YUVChroma subsampling : 4:2:0Bit depth : 8 bitsScan type : ProgressiveBits/(Pixel*Frame) : 0.185Stream size : 5.31 GiB (90%)
AudioID : 5506 (0x1582)Menu ID : 1 (0x1)Format : AC-3Format/Info : Audio Coding 3Mode extension : CM (complete main)Format settings, Endianness : BigCodec ID : 6Duration : 1h 28mnBit rate mode : ConstantBit rate : 448 KbpsChannel(s) : 2 channelsChannel positions : Front: L RSampling rate : 48.0 KHzBit depth : 16 bitsCompression mode : LossyStream size : 285 MiB (5%)Language : German
[Профиль] [ЛС]
Кто просматривает тему:

Показать сообщения:    

Текущее время: Сегодня 20:41

Часовой пояс: GMT



Вы не можете начинать темы
Вы не можете отвечать на сообщения
Вы не можете редактировать свои сообщения
Вы не можете удалять свои сообщения
Вы не можете голосовать в опросах
Вы не можете прикреплять файлы к сообщениям
Вы не можете скачивать файлы