(Rock, Soft-Rock, Pop)VA - Rock Ballads (The Collection) 3CD (2014) FLAC(image+cue),Lossless

 
Автор Сообщение

sergej644 ®

Пол:

Стаж: 4 года 11 месяцев

Сообщений: 6041

Откуда: Soviet Union



Награды: Нет

Торрент-статистика

Создавать темы 24-Дек-2014 14:44

[Цитировать]

-VA - Rock Ballads (The Collection) 3CD (2014)- Страна: Various
Страна-производитель диска: UK
Жанр: Rock, Soft-Rock, Pop
Год издания: 2014-02-12
Издатель (лейбл): RHINO
Номер по каталогу: 825646337781
Аудиокодек: FLAC (*.flac)
Тип рипа: image+.cue
Битрейт аудио: lossless
Источник (релизер): Собственный рип
Наличие сканов: Да, полные
Продолжительность: 03:35:05
Описание: Совсем свеженький сборник роковых баллад от RHINO UK, которая является подразделением Warner Music UK Ltd. Наряду со знакомыми именами вы наверняка найдете для себя и неизвестные имена, хотя таких на этом трехдисковом сете и нет вовсе. Как сказано на обложке "Включает в себя 50 категорических хитов"! Что тут добавить?

CD1

Продoлжитeльность: 01:10:57
Треклист:
01. Roxette - It Must Have Been Love (4:16)
02. Foreigner - I Want To Know What Love is (4:58)
03. Yes - Owner of a Lonely Heart (4:25)
04. The Cars - Drive (3:55)
05. Biffy Clyro - Many of Horror (4:18)
06. Mr. Big - To Be With You (3:26)
07. Chicago - If You Leave Me Now (3:53)
08. Kate Bush - Wuthering Heights (3:26)
09. Marc Cohn - Walking In Memphis (4:14)
10. Alannah Myles - Black Velvet (4:33)
11. Christopher Cross - All Right (4:15)
12. Peter Cetera - Glory of Love [Theme From the Karate Kid, Pt. 2] (4:20)
13. Honeymoon Suite - Feel It Again (4:35)
14. Kayleigh - Kayleigh (3:33)
15. Fine Young Cannibals - She Drives Me Crazy (3:34)
16. Faces - Stay With Me (4:39)
17. Sinead O'Connor - Nothing Compares 2 U (4:39)

Содержание индексной карты (.CUE):

REM GENRE "Classic Rock"
REM DATE 2014
REM DISCID 0F10A011
REM COMMENT "ExactAudioCopy v1.0b3"
PERFORMER "Various Artists"
TITLE "Rock Ballads: The Collection Disk 1"
FILE "Various Artists - Rock Ballads- The Collection Disk 1.flac" WAVE
  TRACK 01 AUDIO
    TITLE "It Must Have Been Love"
    PERFORMER "Roxette"
    INDEX 01 00:00:00
  TRACK 02 AUDIO
    TITLE "I Want To Know What Love is"
    PERFORMER "Foreigner"
    INDEX 01 04:16:30
  TRACK 03 AUDIO
    TITLE "Owner of a Lonely Heart"
    PERFORMER "Yes"
    INDEX 01 09:14:58
  TRACK 04 AUDIO
    TITLE "Drive"
    PERFORMER "The Cars"
    INDEX 01 13:39:51
  TRACK 05 AUDIO
    TITLE "Many of Horror"
    PERFORMER "Biffy Clyro"
    INDEX 01 17:34:17
  TRACK 06 AUDIO
    TITLE "To Be With You"
    PERFORMER "Mr. Big"
    INDEX 01 21:51:72
  TRACK 07 AUDIO
    TITLE "If You Leave Me Now"
    PERFORMER "Chicago"
    INDEX 01 25:17:53
  TRACK 08 AUDIO
    TITLE "Wuthering Heights"
    PERFORMER "Kate Bush"
    INDEX 01 29:10:35
  TRACK 09 AUDIO
    TITLE "Walking In Memphis"
    PERFORMER "Marc Cohn"
    INDEX 01 32:36:19
  TRACK 10 AUDIO
    TITLE "Black Velvet"
    PERFORMER "Alannah Myles"
    INDEX 01 36:50:08
  TRACK 11 AUDIO
    TITLE "All Right"
    PERFORMER "Christopher Cross"
    INDEX 01 41:22:47
  TRACK 12 AUDIO
    TITLE "Glory of Love [Theme From the Karate Kid, Pt. 2]"
    PERFORMER "Peter Cetera"
    INDEX 01 45:37:46
  TRACK 13 AUDIO
    TITLE "Feel It Again"
    PERFORMER "Honeymoon Suite"
    INDEX 01 49:57:52
  TRACK 14 AUDIO
    TITLE "Kayleigh"
    PERFORMER "Kayleigh"
    INDEX 01 54:32:72
  TRACK 15 AUDIO
    TITLE "She Drives Me Crazy"
    PERFORMER "Fine Young Cannibals"
    INDEX 01 58:05:36
  TRACK 16 AUDIO
    TITLE "Stay With Me"
    PERFORMER "Faces"
    INDEX 01 61:39:10
  TRACK 17 AUDIO
    TITLE "Nothing Compares 2 U"
    PERFORMER "Sinead O'Connor"
    INDEX 01 66:17:49

Отчёт ЕАС:

Exact Audio Copy V1.0 beta 3 from 29. August 2011
Отчёт EAC об извлечении, выполненном 16. марта 2014, 14:24
Various Artists / Rock Ballads: The Collection Disk 1
Дисковод: TSSTcorpBDDVDW SE-506BB   Adapter: 6  ID: 0
Режим чтения                 : Достоверность
Использование точного потока : Да
Отключение кэша аудио        : Да
Использование указателей C2  : Нет
Коррекция смещения при чтении                     : 6
Способность читать области Lead-in и Lead-out     : Нет
Заполнение пропущенных сэмплов тишиной            : Да
Удаление блоков с тишиной в начале и конце        : Нет
При вычислениях CRC использовались нулевые сэмплы : Да
Интерфейс                                         : Встроенный Win32-интерфейс для Win NT/2000
Выходной формат          : Пользовательский кодировщик
Выбранный битрейт        : 1024 kBit/s
Качество                 : Высокий
Добавление ID3-тега      : Нет
Утилита сжатия           : C:\Program Files (x86)\Exact Audio Copy\Flac\flac.exe
Дополнительные параметры : -8 -V -T "ARTIST=%artist%" -T "TITLE=%title%" -T "ALBUM=%albumtitle%" -T "DATE=%year%" -T "TRACKNUMBER=%tracknr%" -T "GENRE=%genre%" -T "COMMENT=%comment%" -T "BAND=%albuminterpret%" -T "ALBUMARTIST=%albuminterpret%" -T "COMPOSER=%composer%" %haslyrics%--tag-from-file=LYRICS="%lyricsfile%"%haslyrics% -T "DISCNUMBER=%cdnumber%" -T "TOTALDISCS=%totalcds%" -T "TOTALTRACKS=%numtracks%" %hascover%--picture="%coverfile%"%hascover% %source% -o %dest%
TOC извлечённого CD
     Трек |   Старт  | Длительность | Начальный сектор | Конечный сектор
    ---------------------------------------------------------------------
       1  |  0:00.00 |    4:16.30   |           0      |      19229
       2  |  4:16.30 |    4:58.28   |       19230      |      41607
       3  |  9:14.58 |    4:24.68   |       41608      |      61475
       4  | 13:39.51 |    3:54.41   |       61476      |      79066
       5  | 17:34.17 |    4:17.55   |       79067      |      98396
       6  | 21:51.72 |    3:25.56   |       98397      |     113827
       7  | 25:17.53 |    3:52.57   |      113828      |     131284
       8  | 29:10.35 |    3:25.59   |      131285      |     146718
       9  | 32:36.19 |    4:13.64   |      146719      |     165757
      10  | 36:50.08 |    4:32.39   |      165758      |     186196
      11  | 41:22.47 |    4:14.74   |      186197      |     205320
      12  | 45:37.46 |    4:20.06   |      205321      |     224826
      13  | 49:57.52 |    4:35.20   |      224827      |     245471
      14  | 54:32.72 |    3:32.39   |      245472      |     261410
      15  | 58:05.36 |    3:33.49   |      261411      |     277434
      16  | 61:39.10 |    4:38.39   |      277435      |     298323
      17  | 66:17.49 |    4:38.73   |      298324      |     319246
Характеристики диапазона извлечения и сообщения об ошибках
Выбранный диапазон
     Имя файла D:\Сборники (Flac)\VA - Rock Ballads (The Collection) 3CD[2014](Flac+cue)\CD1\Various Artists - Rock Ballads- The Collection Disk 1.wav
     Пиковый уровень 99.9 %
     Скорость извлечения 2.2 X
     Качество диапазона 100.0 %
     CRC теста 62A6CEEF
     CRC копии 62A6CEEF
     Копирование... OK
Ошибок не произошло
AccurateRip: сводка
Трек  1  отсутствует в базе данных
Трек  2  отсутствует в базе данных
Трек  3  отсутствует в базе данных
Трек  4  отсутствует в базе данных
Трек  5  отсутствует в базе данных
Трек  6  отсутствует в базе данных
Трек  7  отсутствует в базе данных
Трек  8  отсутствует в базе данных
Трек  9  отсутствует в базе данных
Трек 10  отсутствует в базе данных
Трек 11  отсутствует в базе данных
Трек 12  отсутствует в базе данных
Трек 13  отсутствует в базе данных
Трек 14  отсутствует в базе данных
Трек 15  отсутствует в базе данных
Трек 16  отсутствует в базе данных
Трек 17  отсутствует в базе данных
Ни одного трека нет в базе AccurateRip
Конец отчёта
---- CUETools DB Plugin V2.1.3
[CTDB TOCID: iHNfh33de3iJ9_VRjSknG8lB7Cc-] disk not present in database, Submit result: iHNfh33de3iJ9_VRjSknG8lB7Cc- has been uploaded
==== Контрольная сумма отчёта 44C940BF7DDC689444384CF1E7EA844AFB9B7B87F43FE007BA7020DCD36908E1 ====

Отчёт auCDtect Task manager:

-----------------------
DON'T MODIFY THIS FILE
-----------------------
PERFORMER: auCDtect Task Manager, ver. 1.6.0 RC1 build 1.6.0.1
Copyright (c) 2008-2010 y-soft. All rights reserved
http://y-soft.org
ANALYZER: auCDtect: CD records authenticity detector, version 0.8.2
Copyright (c) 2004 Oleg Berngardt. All rights reserved.
Copyright (c) 2004 Alexander Djourik. All rights reserved.
FILE: Various Artists - Rock Ballads- The Collection Disk 1.flac
  Size: 500426358 Hash: E71DEC149C769C3FD1D4559808D16FC4 Accuracy: -m0
  Conclusion: CDDA 100%
  Signature: F7F9E13FFDF705DAEB9CD9C41458B8724031E9A3

Спектрограмма:

CD 2

Продoлжитeльность: 01:11:57
Трeклист:
01. Fleetwood Mac - Don't Stop (3:12)
02. Gerry Rafferty - Baker Street (6:09)
03. Pretenders - I'll Stand By You (3:58)
04. Bread - Guitar Man (3:41)
05. Faith No More - Easy (3:06)
06. Lou Gramm - Midnight Blue (3:54)
07. Dream Theater - Another Day (4:23)
08. Radiohead - High and Dry (4:18)
09. R.E.M. - Drive (4:27)
10. Shakespeares Sister; Shakespear's Sister - Stay (3:45)
11. White Lion - When the Children Cry (4:17)
12. Damn Yankees - High Enough (4:46)
13. Skid Row - 18 and Life (3:50)
14. Ratt - One Step Away (4:49)
15. Kix - Don't Close Your Eyes (4:17)
16. Quireboys - I Don't Love You Anymore (5:01)
17. Athlete - Wires (4:06)

Содержание индексной карты (.CUE):

REM GENRE "Classic Rock"
REM DATE 2014
REM DISCID CD10DC11
REM COMMENT "ExactAudioCopy v1.0b3"
PERFORMER "Various Artists"
TITLE "Rock Ballads: The Collection Disk 3"
FILE "Various Artists - Rock Ballads- The Collection Disk 3.flac" WAVE
  TRACK 01 AUDIO
    TITLE "Don't Stop"
    PERFORMER "Fleetwood Mac"
    INDEX 01 00:00:00
  TRACK 02 AUDIO
    TITLE "Baker Street"
    PERFORMER "Gerry Rafferty"
    INDEX 01 03:11:54
  TRACK 03 AUDIO
    TITLE "I'll Stand By You"
    PERFORMER "Pretenders"
    INDEX 01 09:20:19
  TRACK 04 AUDIO
    TITLE "Guitar Man"
    PERFORMER "Bread"
    INDEX 01 13:18:08
  TRACK 05 AUDIO
    TITLE "Easy"
    PERFORMER "Faith No More"
    INDEX 01 16:59:12
  TRACK 06 AUDIO
    TITLE "Midnight Blue"
    PERFORMER "Lou Gramm"
    INDEX 01 20:04:53
  TRACK 07 AUDIO
    TITLE "Another Day"
    PERFORMER "Dream Theater"
    INDEX 01 23:58:24
  TRACK 08 AUDIO
    TITLE "High and Dry"
    PERFORMER "Radiohead"
    INDEX 01 28:21:19
  TRACK 09 AUDIO
    TITLE "Drive"
    PERFORMER "R.E.M."
    INDEX 01 32:38:57
  TRACK 10 AUDIO
    TITLE "Stay"
    PERFORMER "Shakespeares Sister;  Shakespear's Sister"
    INDEX 01 37:06:00
  TRACK 11 AUDIO
    TITLE "When the Children Cry"
    PERFORMER "White Lion"
    INDEX 01 40:51:19
  TRACK 12 AUDIO
    TITLE "High Enough"
    PERFORMER "Damn Yankees"
    INDEX 01 45:08:01
  TRACK 13 AUDIO
    TITLE "18 and Life"
    PERFORMER "Skid Row"
    INDEX 01 49:53:41
  TRACK 14 AUDIO
    TITLE "One Step Away"
    PERFORMER "Ratt"
    INDEX 01 53:43:25
  TRACK 15 AUDIO
    TITLE "Don't Close Your Eyes"
    PERFORMER "Kix"
    INDEX 01 58:32:36
  TRACK 16 AUDIO
    TITLE "I Don't Love You Anymore"
    PERFORMER "Quireboys"
    INDEX 01 62:49:44
  TRACK 17 AUDIO
    TITLE "Wires"
    PERFORMER "Athlete"
    INDEX 01 67:51:03

Отчёт ЕАС:

Exact Audio Copy V1.0 beta 3 from 29. August 2011
Отчёт EAC об извлечении, выполненном 16. марта 2014, 17:14
Various Artists / Rock Ballads: The Collection Disk 3
Дисковод: TSSTcorpBDDVDW SE-506BB   Adapter: 6  ID: 0
Режим чтения                 : Достоверность
Использование точного потока : Да
Отключение кэша аудио        : Да
Использование указателей C2  : Нет
Коррекция смещения при чтении                     : 6
Способность читать области Lead-in и Lead-out     : Нет
Заполнение пропущенных сэмплов тишиной            : Да
Удаление блоков с тишиной в начале и конце        : Нет
При вычислениях CRC использовались нулевые сэмплы : Да
Интерфейс                                         : Встроенный Win32-интерфейс для Win NT/2000
Выходной формат          : Пользовательский кодировщик
Выбранный битрейт        : 1024 kBit/s
Качество                 : Высокий
Добавление ID3-тега      : Нет
Утилита сжатия           : C:\Program Files (x86)\Exact Audio Copy\Flac\flac.exe
Дополнительные параметры : -8 -V -T "ARTIST=%artist%" -T "TITLE=%title%" -T "ALBUM=%albumtitle%" -T "DATE=%year%" -T "TRACKNUMBER=%tracknr%" -T "GENRE=%genre%" -T "COMMENT=%comment%" -T "BAND=%albuminterpret%" -T "ALBUMARTIST=%albuminterpret%" -T "COMPOSER=%composer%" %haslyrics%--tag-from-file=LYRICS="%lyricsfile%"%haslyrics% -T "DISCNUMBER=%cdnumber%" -T "TOTALDISCS=%totalcds%" -T "TOTALTRACKS=%numtracks%" %hascover%--picture="%coverfile%"%hascover% %source% -o %dest%
TOC извлечённого CD
     Трек |   Старт  | Длительность | Начальный сектор | Конечный сектор
    ---------------------------------------------------------------------
       1  |  0:00.00 |    3:11.54   |           0      |      14378
       2  |  3:11.54 |    6:08.40   |       14379      |      42018
       3  |  9:20.19 |    3:57.64   |       42019      |      59857
       4  | 13:18.08 |    3:41.04   |       59858      |      76436
       5  | 16:59.12 |    3:05.41   |       76437      |      90352
       6  | 20:04.53 |    3:53.46   |       90353      |     107873
       7  | 23:58.24 |    4:22.70   |      107874      |     127593
       8  | 28:21.19 |    4:17.38   |      127594      |     146906
       9  | 32:38.57 |    4:27.18   |      146907      |     166949
      10  | 37:06.00 |    3:45.19   |      166950      |     183843
      11  | 40:51.19 |    4:16.57   |      183844      |     203100
      12  | 45:08.01 |    4:45.40   |      203101      |     224515
      13  | 49:53.41 |    3:49.59   |      224516      |     241749
      14  | 53:43.25 |    4:49.11   |      241750      |     263435
      15  | 58:32.36 |    4:17.08   |      263436      |     282718
      16  | 62:49.44 |    5:01.34   |      282719      |     305327
      17  | 67:51.03 |    4:05.46   |      305328      |     323748
Характеристики диапазона извлечения и сообщения об ошибках
Выбранный диапазон
     Имя файла D:\Сборники (Flac)\VA - Rock Ballads (The Collection) 3CD[2014](Flac+cue)\CD2\Various Artists - Rock Ballads- The Collection Disk 3.wav
     Копирование прервано
Конец отчёта
==== Контрольная сумма отчёта 0DD378869C471BD96A9D875253D8FA26E70ECD528E008B326D3B59170E34285C ====
------------------------------------------------------------
Exact Audio Copy V1.0 beta 3 from 29. August 2011
Отчёт EAC об извлечении, выполненном 16. марта 2014, 19:34
Various Artists / Rock Ballads: The Collection Disk 3
Дисковод: TSSTcorpBDDVDW SE-506BB   Adapter: 6  ID: 0
Режим чтения                 : Достоверность
Использование точного потока : Да
Отключение кэша аудио        : Да
Использование указателей C2  : Нет
Коррекция смещения при чтении                     : 6
Способность читать области Lead-in и Lead-out     : Нет
Заполнение пропущенных сэмплов тишиной            : Да
Удаление блоков с тишиной в начале и конце        : Нет
При вычислениях CRC использовались нулевые сэмплы : Да
Интерфейс                                         : Встроенный Win32-интерфейс для Win NT/2000
Выходной формат          : Пользовательский кодировщик
Выбранный битрейт        : 1024 kBit/s
Качество                 : Высокий
Добавление ID3-тега      : Нет
Утилита сжатия           : C:\Program Files (x86)\Exact Audio Copy\Flac\flac.exe
Дополнительные параметры : -8 -V -T "ARTIST=%artist%" -T "TITLE=%title%" -T "ALBUM=%albumtitle%" -T "DATE=%year%" -T "TRACKNUMBER=%tracknr%" -T "GENRE=%genre%" -T "COMMENT=%comment%" -T "BAND=%albuminterpret%" -T "ALBUMARTIST=%albuminterpret%" -T "COMPOSER=%composer%" %haslyrics%--tag-from-file=LYRICS="%lyricsfile%"%haslyrics% -T "DISCNUMBER=%cdnumber%" -T "TOTALDISCS=%totalcds%" -T "TOTALTRACKS=%numtracks%" %hascover%--picture="%coverfile%"%hascover% %source% -o %dest%
TOC извлечённого CD
     Трек |   Старт  | Длительность | Начальный сектор | Конечный сектор
    ---------------------------------------------------------------------
       1  |  0:00.00 |    3:11.54   |           0      |      14378
       2  |  3:11.54 |    6:08.40   |       14379      |      42018
       3  |  9:20.19 |    3:57.64   |       42019      |      59857
       4  | 13:18.08 |    3:41.04   |       59858      |      76436
       5  | 16:59.12 |    3:05.41   |       76437      |      90352
       6  | 20:04.53 |    3:53.46   |       90353      |     107873
       7  | 23:58.24 |    4:22.70   |      107874      |     127593
       8  | 28:21.19 |    4:17.38   |      127594      |     146906
       9  | 32:38.57 |    4:27.18   |      146907      |     166949
      10  | 37:06.00 |    3:45.19   |      166950      |     183843
      11  | 40:51.19 |    4:16.57   |      183844      |     203100
      12  | 45:08.01 |    4:45.40   |      203101      |     224515
      13  | 49:53.41 |    3:49.59   |      224516      |     241749
      14  | 53:43.25 |    4:49.11   |      241750      |     263435
      15  | 58:32.36 |    4:17.08   |      263436      |     282718
      16  | 62:49.44 |    5:01.34   |      282719      |     305327
      17  | 67:51.03 |    4:05.46   |      305328      |     323748
Характеристики диапазона извлечения и сообщения об ошибках
Выбранный диапазон
     Имя файла D:\Сборники (Flac)\VA - Rock Ballads (The Collection) 3CD[2014](Flac+cue)\CD2\Various Artists - Rock Ballads- The Collection Disk 3.wav
     Пиковый уровень 100.0 %
     Скорость извлечения 3.1 X
     Качество диапазона 99.9 %
     CRC теста 2609B3B9
     CRC копии 2609B3B9
     Копирование... OK
Ошибок не произошло
AccurateRip: сводка
Трек  1  отсутствует в базе данных
Трек  2  отсутствует в базе данных
Трек  3  отсутствует в базе данных
Трек  4  отсутствует в базе данных
Трек  5  отсутствует в базе данных
Трек  6  отсутствует в базе данных
Трек  7  отсутствует в базе данных
Трек  8  отсутствует в базе данных
Трек  9  отсутствует в базе данных
Трек 10  отсутствует в базе данных
Трек 11  отсутствует в базе данных
Трек 12  отсутствует в базе данных
Трек 13  отсутствует в базе данных
Трек 14  отсутствует в базе данных
Трек 15  отсутствует в базе данных
Трек 16  отсутствует в базе данных
Трек 17  отсутствует в базе данных
Ни одного трека нет в базе AccurateRip
Конец отчёта
---- CUETools DB Plugin V2.1.3
[CTDB TOCID: CiGLIQOWMQX_Yu9totKd_S.b7iY-] disk not present in database, Submit result: CiGLIQOWMQX_Yu9totKd_S.b7iY- has been uploaded
==== Контрольная сумма отчёта 172A9EEA8AE7341570EF926FE05316C1B66D738057D1C7530942BD47909CC361 ====

Отчёт auCDtect Task manager:

-----------------------
DON'T MODIFY THIS FILE
-----------------------
PERFORMER: auCDtect Task Manager, ver. 1.6.0 RC1 build 1.6.0.1
Copyright (c) 2008-2010 y-soft. All rights reserved
http://y-soft.org
ANALYZER: auCDtect: CD records authenticity detector, version 0.8.2
Copyright (c) 2004 Oleg Berngardt. All rights reserved.
Copyright (c) 2004 Alexander Djourik. All rights reserved.
FILE: Various Artists - Rock Ballads- The Collection Disk 3.flac
  Size: 513808047 Hash: C2287DB1E61EF692282B0E1E8371DEEE Accuracy: -m0
  Conclusion: CDDA 100%
  Signature: C765AAC10A504365F7357C68C30D00110E9AE09E

Спектрограмма:

CD 3

Продoлжитeльность: 01:12:11
Трeклиcт:
01. Whitesnake - Here I Go Again (5:00)
02. Thunder - Love Walked In (6:21)
03. ZZ Top - I Need You Tonight (6:14)
04. The Darkness - Love is Only a Feeling (4:20)
05. Nickelback - How You Remind Me (3:44)
06. Alice Cooper - Only Women Bleed (5:48)
07. Ash - Oh Yeah (4:47)
08. The Lemonheads - Into Your Arms (2:43)
09. David Lee Roth - Just Like Paradise (4:05)
10. UFO - Lonely Heart (4:59)
11. Winger - Miles Away (4:10)
12. Dokken - Alone Again (4:20)
13. Harem Scarem - Hard To Love (4:27)
14. Funeral for a Friend - History (3:25)
15. Andreas Johnson - Glorious (3:28)
16. Mystery Jets - Flakes (4:22)

Содержание индексной карты (.CUE):

REM GENRE "Classic Rock"
REM DATE 2014
REM DISCID DD10EB10
REM COMMENT "ExactAudioCopy v1.0b3"
PERFORMER "Various Artists"
TITLE "Rock Ballads: The Collection Disk 3"
FILE "Various Artists - Rock Ballads- The Collection Disk 3.flac" WAVE
  TRACK 01 AUDIO
    TITLE "Here I Go Again"
    PERFORMER "Whitesnake"
    INDEX 01 00:00:00
  TRACK 02 AUDIO
    TITLE "Love Walked In"
    PERFORMER "Thunder"
    INDEX 01 04:59:62
  TRACK 03 AUDIO
    TITLE "I Need You Tonight"
    PERFORMER "ZZ Top"
    INDEX 01 11:20:26
  TRACK 04 AUDIO
    TITLE "Love is Only a Feeling"
    PERFORMER "The Darkness"
    INDEX 01 17:33:69
  TRACK 05 AUDIO
    TITLE "How You Remind Me"
    PERFORMER "Nickelback"
    INDEX 01 21:53:35
  TRACK 06 AUDIO
    TITLE "Only Women Bleed"
    PERFORMER "Alice Cooper"
    INDEX 01 25:37:20
  TRACK 07 AUDIO
    TITLE "Oh Yeah"
    PERFORMER "Ash"
    INDEX 01 31:25:18
  TRACK 08 AUDIO
    TITLE "Into Your Arms"
    PERFORMER "The Lemonheads"
    INDEX 01 36:12:15
  TRACK 09 AUDIO
    TITLE "Just Like Paradise"
    PERFORMER "David Lee Roth"
    INDEX 01 38:55:22
  TRACK 10 AUDIO
    TITLE "Lonely Heart"
    PERFORMER "UFO"
    INDEX 01 42:59:68
  TRACK 11 AUDIO
    TITLE "Miles Away"
    PERFORMER "Winger"
    INDEX 01 47:58:53
  TRACK 12 AUDIO
    TITLE "Alone Again"
    PERFORMER "Dokken"
    INDEX 01 52:08:73
  TRACK 13 AUDIO
    TITLE "Hard To Love"
    PERFORMER "Harem Scarem"
    INDEX 01 56:28:62
  TRACK 14 AUDIO
    TITLE "History"
    PERFORMER "Funeral for a Friend"
    INDEX 01 60:55:64
  TRACK 15 AUDIO
    TITLE "Glorious"
    PERFORMER "Andreas Johnson"
    INDEX 01 64:20:65
  TRACK 16 AUDIO
    TITLE "Flakes"
    PERFORMER "Mystery Jets"
    INDEX 01 67:48:63

Отчёт ЕАС:

Exact Audio Copy V1.0 beta 3 from 29. August 2011
Отчёт EAC об извлечении, выполненном 16. марта 2014, 16:25
Various Artists / Rock Ballads: The Collection Disk 3
Дисковод: TSSTcorpBDDVDW SE-506BB   Adapter: 6  ID: 0
Режим чтения                 : Достоверность
Использование точного потока : Да
Отключение кэша аудио        : Да
Использование указателей C2  : Нет
Коррекция смещения при чтении                     : 6
Способность читать области Lead-in и Lead-out     : Нет
Заполнение пропущенных сэмплов тишиной            : Да
Удаление блоков с тишиной в начале и конце        : Нет
При вычислениях CRC использовались нулевые сэмплы : Да
Интерфейс                                         : Встроенный Win32-интерфейс для Win NT/2000
Выходной формат          : Пользовательский кодировщик
Выбранный битрейт        : 1024 kBit/s
Качество                 : Высокий
Добавление ID3-тега      : Нет
Утилита сжатия           : C:\Program Files (x86)\Exact Audio Copy\Flac\flac.exe
Дополнительные параметры : -8 -V -T "ARTIST=%artist%" -T "TITLE=%title%" -T "ALBUM=%albumtitle%" -T "DATE=%year%" -T "TRACKNUMBER=%tracknr%" -T "GENRE=%genre%" -T "COMMENT=%comment%" -T "BAND=%albuminterpret%" -T "ALBUMARTIST=%albuminterpret%" -T "COMPOSER=%composer%" %haslyrics%--tag-from-file=LYRICS="%lyricsfile%"%haslyrics% -T "DISCNUMBER=%cdnumber%" -T "TOTALDISCS=%totalcds%" -T "TOTALTRACKS=%numtracks%" %hascover%--picture="%coverfile%"%hascover% %source% -o %dest%
TOC извлечённого CD
     Трек |   Старт  | Длительность | Начальный сектор | Конечный сектор
    ---------------------------------------------------------------------
       1  |  0:00.00 |    4:59.62   |           0      |      22486
       2  |  4:59.62 |    6:20.39   |       22487      |      51025
       3  | 11:20.26 |    6:13.43   |       51026      |      79043
       4  | 17:33.69 |    4:19.41   |       79044      |      98509
       5  | 21:53.35 |    3:43.60   |       98510      |     115294
       6  | 25:37.20 |    5:47.73   |      115295      |     141392
       7  | 31:25.18 |    4:46.72   |      141393      |     162914
       8  | 36:12.15 |    2:43.07   |      162915      |     175146
       9  | 38:55.22 |    4:04.46   |      175147      |     193492
      10  | 42:59.68 |    4:58.60   |      193493      |     215902
      11  | 47:58.53 |    4:10.20   |      215903      |     234672
      12  | 52:08.73 |    4:19.64   |      234673      |     254161
      13  | 56:28.62 |    4:27.02   |      254162      |     274188
      14  | 60:55.64 |    3:25.01   |      274189      |     289564
      15  | 64:20.65 |    3:27.73   |      289565      |     305162
      16  | 67:48.63 |    4:22.23   |      305163      |     324835
Характеристики диапазона извлечения и сообщения об ошибках
Выбранный диапазон
     Имя файла D:\Сборники (Flac)\VA - Rock Ballads (The Collection) 3CD[2014](Flac+cue)\CD3\Various Artists - Rock Ballads- The Collection Disk 3.wav
     Пиковый уровень 99.7 %
     Скорость извлечения 1.5 X
     Качество диапазона 100.0 %
     CRC теста 1D4E4357
     CRC копии 1D4E4357
     Копирование... OK
Ошибок не произошло
AccurateRip: сводка
Трек  1  отсутствует в базе данных
Трек  2  отсутствует в базе данных
Трек  3  отсутствует в базе данных
Трек  4  отсутствует в базе данных
Трек  5  отсутствует в базе данных
Трек  6  отсутствует в базе данных
Трек  7  отсутствует в базе данных
Трек  8  отсутствует в базе данных
Трек  9  отсутствует в базе данных
Трек 10  отсутствует в базе данных
Трек 11  отсутствует в базе данных
Трек 12  отсутствует в базе данных
Трек 13  отсутствует в базе данных
Трек 14  отсутствует в базе данных
Трек 15  отсутствует в базе данных
Трек 16  отсутствует в базе данных
Ни одного трека нет в базе AccurateRip
Конец отчёта
---- CUETools DB Plugin V2.1.3
[CTDB TOCID: Uo9fo.38x6Z9bMmniyvaLUKeKnI-] disk not present in database, Submit result: Uo9fo.38x6Z9bMmniyvaLUKeKnI- has been uploaded
==== Контрольная сумма отчёта 655365BE7F39B862CE9F1F8E8E42DD147A37C1327AA82C41D3A9ADB38C6EF206 ====

Отчёт auCDtect Task manager:

-----------------------
DON'T MODIFY THIS FILE
-----------------------
PERFORMER: auCDtect Task Manager, ver. 1.6.0 RC1 build 1.6.0.1
Copyright (c) 2008-2010 y-soft. All rights reserved
http://y-soft.org
ANALYZER: auCDtect: CD records authenticity detector, version 0.8.2
Copyright (c) 2004 Oleg Berngardt. All rights reserved.
Copyright (c) 2004 Alexander Djourik. All rights reserved.
FILE: Various Artists - Rock Ballads- The Collection Disk 3.flac
  Size: 527501878 Hash: 068B4A0659650F7EA8A33819DF44C5AA Accuracy: -m0
  Conclusion: CDDA 100%
  Signature: 9A475171782DA41EB68C69BA8D5DCB5BD535D0E9
--
[Профиль] [ЛС]

Создавать темы 13-Авг-2015 11:16 (спустя 7 месяцев 19 дней)

Топик был перенесен из форума Сборники в форум Music from other genres
sergej644
 
Кто просматривает тему:

Показать сообщения:    

Текущее время: Сегодня 08:31

Часовой пояс: GMT



Вы не можете начинать темы
Вы не можете отвечать на сообщения
Вы не можете редактировать свои сообщения
Вы не можете удалять свои сообщения
Вы не можете голосовать в опросах
Вы не можете прикреплять файлы к сообщениям
Вы не можете скачивать файлы