(Pop, Dance, Pop-Rock) VA - Radio 538 - Hitzone 76 (2CD) - 2016 [FLAC, image +.cue, lossless]

 
Автор Сообщение

sergej644 ®

Пол:

Стаж: 4 года 11 месяцев

Сообщений: 6041

Откуда: Soviet Union



Награды: Нет

Торрент-статистика

Создавать темы 12-Фев-2016 23:33

[Цитировать]

-VA - Radio 538 - Hitzone 76 (2CD)--
Год издания: 2016
Страна: n/a
Жанр: Pop, Dance, Pop-Rock
Продолжительность: 02:36:28-Лейбл издания: Universal Music
Страна-выпуска диска: NL
Номер по каталогу: 536 640-0-Формат: FLAC
Битрейт аудио: Lossless
Тип рипа: image +.cue
Наличие сканов в содержимом раздачи: да
-

Трэклист

CD 1 | 01:19:09


01. Justin Bieber - Love Yourself (03:54)
02. Lukas Graham - 7 Years (03:59)
03. Zara Larsson & MNEK - Never Forget You (03:34)
04. Kygo feat. Maty Noyes - Stay (04:01)
05. Mike Posner - I Took A Pill In Ibiza (Seeb Remix) (03:17)
06. Ellie Goulding - On My Mind (03:41)
07. Charlie Puth feat. Meghan Trainor - Marvin Gaye (03:09)
08. Diggy Dex feat. JW Roy - Treur Niet (Ode Aan Het Leven) (03:43)
09. Armin van Buuren feat. Kensington - Heading Up High (03:55)
10. James Bay - If You Ever Want To Be In Love (04:00)
11. Alan Walker - Faded (03:32)
12. Jonas Blue feat. Dakota - Fast Car (03:32)
13. Alessia Cara - Here (03:21)
14. Sam Hunt - Leave The Night On (03:11)
15. Halsey - New Americana (03:04)
16. Sam Smith - Restart (03:54)
17. Sigala - Sweet Lovin' (03:24)
18. Elle King - Ex's & Oh's (03:23)
19. Avicii - Broken Arrows (03:53)
20. Selena Gomez - Same Old Love (03:50)
21. Ronnie Flex - Wij Zijn Altijd (02:51)
22. G-Eazy X Bebe Rexha - Me, Myself & I (04:12)

CD 2 | 01:17:19


01. Major Lazer feat. Nyla & Fuse ODG - Light It Up (02:48)
02. Justin Bieber - Sorry (03:21)
03. Coldplay - Adventure Of A Lifetime (03:44)
04. Matt Simons - Catch & Release (Deepend Remix) (03:16)
05. SFB feat. Broederliefde & Ronnie Flex - Nu Sta Je Hier (03:32)
06. Xavier Rudd - Follow The Sun (04:15)
07. Meghan Trainor feat. John Legend - Like I'm Gonna Lose You (03:45)
08. The Weeknd - In The Night (03:56)
09. Skrillex & Diplo feat. Justin Bieber - Where Are U Now (04:11)
10. Eva Simons feat. Sidney Samson - Bludfire (03:11)
11. Hailee Steinfeld - Love Myself (03:39)
12. X Ambassadors - Renegades (03:16)
13. Pink - Today's The Day (03:46)
14. One Direction - Perfect (03:51)
15. The Chainsmokers feat. Rozes - Roses (03:06)
16. Demi Lovato - Confident (03:27)
17. Felix Jaehn feat. Polina - Book Of Love (03:20)
18. Fleur East - Sax (03:41)
19. Chris Brown - Fine By Me (03:29)
20. Sigma & Rita Ora - Coming Home (03:34)
21. Miss Montreal - Love You Now (03:16)
22. Dyna feat. F1rstman, Lil' Kleine & Bollebof - Round & Round (03:07)
-

Лог создания рипа

CD 1

Exact Audio Copy V1.1 from 23. June 2015
EAC extraction logfile from 4. February 2016, 17:11
- / 538 Hitzone 76 (CD1)
Used drive  : HL-DT-STDVDRAM GH24NSD1   Adapter: 0  ID: 0
Read mode               : Secure
Utilize accurate stream : Yes
Defeat audio cache      : Yes
Make use of C2 pointers : No
Read offset correction                      : 6
Overread into Lead-In and Lead-Out          : No
Fill up missing offset samples with silence : Yes
Delete leading and trailing silent blocks   : No
Null samples used in CRC calculations       : Yes
Used interface                              : Installed external ASPI interface
Used output format : Internal WAV Routines
Sample format      : 44.100 Hz; 16 Bit; Stereo
TOC of the extracted CD
     Track |   Start  |  Length  | Start sector | End sector
    ---------------------------------------------------------
        1  |  0:00.00 |  3:53.35 |         0    |    17509
        2  |  3:53.35 |  3:58.15 |     17510    |    35374
        3  |  7:51.50 |  3:33.06 |     35375    |    51355
        4  | 11:24.56 |  4:00.18 |     51356    |    69373
        5  | 15:24.74 |  3:16.49 |     69374    |    84122
        6  | 18:41.48 |  3:40.56 |     84123    |   100678
        7  | 22:22.29 |  3:08.72 |    100679    |   114850
        8  | 25:31.26 |  3:42.38 |    114851    |   131538
        9  | 29:13.64 |  3:54.07 |    131539    |   149095
       10  | 33:07.71 |  3:59.70 |    149096    |   167090
       11  | 37:07.66 |  3:31.61 |    167091    |   182976
       12  | 40:39.52 |  3:31.53 |    182977    |   198854
       13  | 44:11.30 |  3:20.21 |    198855    |   213875
       14  | 47:31.51 |  3:10.23 |    213876    |   228148
       15  | 50:41.74 |  3:03.03 |    228149    |   241876
       16  | 53:45.02 |  3:53.22 |    241877    |   259373
       17  | 57:38.24 |  3:23.22 |    259374    |   274620
       18  | 61:01.46 |  3:22.49 |    274621    |   289819
       19  | 64:24.20 |  3:52.58 |    289820    |   307277
       20  | 68:17.03 |  3:49.44 |    307278    |   324496
       21  | 72:06.47 |  2:50.37 |    324497    |   337283
       22  | 74:57.09 |  4:11.08 |    337284    |   356116
Range status and errors
Selected range
     Filename E:\SPOT NIEUW\538 Hitzone 76 (EAC)\CD1\538 Hitzone 76 (CD1).wav
     Peak level 96.6 %
     Extraction speed 8.3 X
     Range quality 99.9 %
     Test CRC 14232B04
     Copy CRC 14232B04
     Copy OK
No errors occurred
AccurateRip summary
Track  1  not present in database
Track  2  not present in database
Track  3  not present in database
Track  4  not present in database
Track  5  not present in database
Track  6  not present in database
Track  7  not present in database
Track  8  not present in database
Track  9  not present in database
Track 10  not present in database
Track 11  not present in database
Track 12  not present in database
Track 13  not present in database
Track 14  not present in database
Track 15  not present in database
Track 16  not present in database
Track 17  not present in database
Track 18  not present in database
Track 19  not present in database
Track 20  not present in database
Track 21  not present in database
Track 22  not present in database
None of the tracks are present in the AccurateRip database
End of status report

CD 2

Exact Audio Copy V1.1 from 23. June 2015
EAC extraction logfile from 4. February 2016, 17:40
- / 538 Hitzone 76 (CD2)
Used drive  : HL-DT-STDVDRAM GH24NSD1   Adapter: 0  ID: 0
Read mode               : Secure
Utilize accurate stream : Yes
Defeat audio cache      : Yes
Make use of C2 pointers : No
Read offset correction                      : 6
Overread into Lead-In and Lead-Out          : No
Fill up missing offset samples with silence : Yes
Delete leading and trailing silent blocks   : No
Null samples used in CRC calculations       : Yes
Used interface                              : Installed external ASPI interface
Used output format : Internal WAV Routines
Sample format      : 44.100 Hz; 16 Bit; Stereo
TOC of the extracted CD
     Track |   Start  |  Length  | Start sector | End sector
    ---------------------------------------------------------
        1  |  0:00.00 |  2:47.20 |         0    |    12544
        2  |  2:47.20 |  3:20.18 |     12545    |    27562
        3  |  6:07.38 |  3:43.29 |     27563    |    44316
        4  |  9:50.67 |  3:15.24 |     44317    |    58965
        5  | 13:06.16 |  3:31.31 |     58966    |    74821
        6  | 16:37.47 |  4:14.52 |     74822    |    93923
        7  | 20:52.24 |  3:44.08 |     93924    |   110731
        8  | 24:36.32 |  3:55.64 |    110732    |   128420
        9  | 28:32.21 |  4:10.37 |    128421    |   147207
       10  | 32:42.58 |  3:10.23 |    147208    |   161480
       11  | 35:53.06 |  3:38.21 |    161481    |   177851
       12  | 39:31.27 |  3:15.03 |    177852    |   192479
       13  | 42:46.30 |  3:45.61 |    192480    |   209415
       14  | 46:32.16 |  3:50.47 |    209416    |   226712
       15  | 50:22.63 |  3:05.56 |    226713    |   240643
       16  | 53:28.44 |  3:26.40 |    240644    |   256133
       17  | 56:55.09 |  3:19.25 |    256134    |   271083
       18  | 60:14.34 |  3:40.41 |    271084    |   287624
       19  | 63:55.00 |  3:28.02 |    287625    |   303226
       20  | 67:23.02 |  3:33.20 |    303227    |   319221
       21  | 70:56.22 |  3:15.59 |    319222    |   333905
       22  | 74:12.06 |  3:06.69 |    333906    |   347924
Range status and errors
Selected range
     Filename E:\SPOT NIEUW\538 Hitzone 76 (EAC)\CD2\538 Hitzone 76 (CD2).wav
     Peak level 96.6 %
     Extraction speed 8.4 X
     Range quality 100.0 %
     Test CRC FB4C3F36
     Copy CRC FB4C3F36
     Copy OK
No errors occurred
AccurateRip summary
Track  1  not present in database
Track  2  not present in database
Track  3  not present in database
Track  4  not present in database
Track  5  not present in database
Track  6  not present in database
Track  7  not present in database
Track  8  not present in database
Track  9  not present in database
Track 10  not present in database
Track 11  not present in database
Track 12  not present in database
Track 13  not present in database
Track 14  not present in database
Track 15  not present in database
Track 16  not present in database
Track 17  not present in database
Track 18  not present in database
Track 19  not present in database
Track 20  not present in database
Track 21  not present in database
Track 22  not present in database
None of the tracks are present in the AccurateRip database
End of status report

Индексная карта (non-compilant .cue)

CD 1

REM GENRE Top40
REM DATE 2016
REM DISCID 57128C16
REM COMMENT ExactAudioCopy v1.1
PERFORMER "Various"
TITLE "538 Hitzone 76 (CD1)"
FILE "538 Hitzone 76 (CD1).flac" WAVE
  TRACK 01 AUDIO
    TITLE "Love Yourself"
    PERFORMER "Justin Bieber"
    INDEX 01 00:00:00
  TRACK 02 AUDIO
    TITLE "7 Years"
    PERFORMER "Lukas Graham"
    INDEX 00 03:52:35
    INDEX 01 03:53:35
  TRACK 03 AUDIO
    TITLE "Never Forget You"
    PERFORMER "Zara Larsson & MNEK"
    INDEX 00 07:50:50
    INDEX 01 07:51:50
  TRACK 04 AUDIO
    TITLE "Stay"
    PERFORMER "Kygo feat. Maty Noyes"
    INDEX 00 11:23:56
    INDEX 01 11:24:56
  TRACK 05 AUDIO
    TITLE "I Took A Pill In Ibiza (Seeb Remix)"
    PERFORMER "Mike Posner"
    INDEX 00 15:23:74
    INDEX 01 15:24:74
  TRACK 06 AUDIO
    TITLE "On My Mind"
    PERFORMER "Ellie Goulding"
    INDEX 00 18:40:48
    INDEX 01 18:41:48
  TRACK 07 AUDIO
    TITLE "Marvin Gaye"
    PERFORMER "Charlie Puth feat. Meghan Trainor"
    INDEX 00 22:21:29
    INDEX 01 22:22:29
  TRACK 08 AUDIO
    TITLE "Treur Niet (Ode Aan Het Leven)"
    PERFORMER "Diggy Dex feat. JW Roy"
    INDEX 00 25:30:26
    INDEX 01 25:31:26
  TRACK 09 AUDIO
    TITLE "Heading Up High"
    PERFORMER "Armin van Buuren feat. Kensington"
    INDEX 00 29:12:64
    INDEX 01 29:13:64
  TRACK 10 AUDIO
    TITLE "If You Ever Want To Be In Love"
    PERFORMER "James Bay"
    INDEX 00 33:06:71
    INDEX 01 33:07:71
  TRACK 11 AUDIO
    TITLE "Faded"
    PERFORMER "Alan Walker"
    INDEX 00 37:06:66
    INDEX 01 37:07:66
  TRACK 12 AUDIO
    TITLE "Fast Car"
    PERFORMER "Jonas Blue feat. Dakota"
    INDEX 00 40:38:52
    INDEX 01 40:39:52
  TRACK 13 AUDIO
    TITLE "Here"
    PERFORMER "Alessia Cara"
    INDEX 00 44:10:30
    INDEX 01 44:11:30
  TRACK 14 AUDIO
    TITLE "Leave The Night On"
    PERFORMER "Sam Hunt"
    INDEX 00 47:30:51
    INDEX 01 47:31:51
  TRACK 15 AUDIO
    TITLE "New Americana"
    PERFORMER "Halsey"
    INDEX 00 50:40:74
    INDEX 01 50:41:74
  TRACK 16 AUDIO
    TITLE "Restart"
    PERFORMER "Sam Smith"
    INDEX 00 53:44:02
    INDEX 01 53:45:02
  TRACK 17 AUDIO
    TITLE "Sweet Lovin'"
    PERFORMER "Sigala"
    INDEX 00 57:37:24
    INDEX 01 57:38:24
  TRACK 18 AUDIO
    TITLE "Ex's & Oh's"
    PERFORMER "Elle King"
    INDEX 00 61:00:46
    INDEX 01 61:01:46
  TRACK 19 AUDIO
    TITLE "Broken Arrows"
    PERFORMER "Avicii"
    INDEX 00 64:23:20
    INDEX 01 64:24:20
  TRACK 20 AUDIO
    TITLE "Same Old Love"
    PERFORMER "Selena Gomez"
    INDEX 00 68:16:03
    INDEX 01 68:17:03
  TRACK 21 AUDIO
    TITLE "Wij Zijn Altijd"
    PERFORMER "Ronnie Flex"
    INDEX 00 72:05:47
    INDEX 01 72:06:47
  TRACK 22 AUDIO
    TITLE "Me, Myself & I"
    PERFORMER "G-Eazy X Bebe Rexha"
    INDEX 00 74:56:09
    INDEX 01 74:57:09

CD 2

REM GENRE Top40
REM DATE 2016
REM DISCID 63121F16
REM COMMENT ExactAudioCopy v1.1
PERFORMER "Various"
TITLE "538 Hitzone 76 (CD2)"
FILE "538 Hitzone 76 (CD2).flac" WAVE
  TRACK 01 AUDIO
    TITLE "Light It Up"
    PERFORMER "Major Lazer feat. Nyla & Fuse ODG"
    INDEX 01 00:00:00
  TRACK 02 AUDIO
    TITLE "Sorry"
    PERFORMER "Justin Bieber"
    INDEX 00 02:46:20
    INDEX 01 02:47:20
  TRACK 03 AUDIO
    TITLE "Adventure Of A Lifetime"
    PERFORMER "Coldplay"
    INDEX 00 06:06:38
    INDEX 01 06:07:38
  TRACK 04 AUDIO
    TITLE "Catch & Release (Deepend Remix)"
    PERFORMER "Matt Simons"
    INDEX 00 09:49:67
    INDEX 01 09:50:67
  TRACK 05 AUDIO
    TITLE "Nu Sta Je Hier"
    PERFORMER "SFB feat. Broederliefde & Ronnie Flex"
    INDEX 00 13:05:16
    INDEX 01 13:06:16
  TRACK 06 AUDIO
    TITLE "Follow The Sun"
    PERFORMER "Xavier Rudd"
    INDEX 00 16:36:47
    INDEX 01 16:37:47
  TRACK 07 AUDIO
    TITLE "Like I'm Gonna Lose You"
    PERFORMER "Meghan Trainor feat. John Legend"
    INDEX 00 20:51:24
    INDEX 01 20:52:24
  TRACK 08 AUDIO
    TITLE "In The Night"
    PERFORMER "The Weeknd"
    INDEX 00 24:35:32
    INDEX 01 24:36:32
  TRACK 09 AUDIO
    TITLE "Where Are U Now"
    PERFORMER "Skrillex & Diplo feat. Justin Bieber"
    INDEX 00 28:31:21
    INDEX 01 28:32:21
  TRACK 10 AUDIO
    TITLE "Bludfire"
    PERFORMER "Eva Simons feat. Sidney Samson"
    INDEX 00 32:41:58
    INDEX 01 32:42:58
  TRACK 11 AUDIO
    TITLE "Love Myself"
    PERFORMER "Hailee Steinfeld"
    INDEX 00 35:52:06
    INDEX 01 35:53:06
  TRACK 12 AUDIO
    TITLE "Renegades"
    PERFORMER "X Ambassadors"
    INDEX 00 39:30:27
    INDEX 01 39:31:27
  TRACK 13 AUDIO
    TITLE "Today's The Day"
    PERFORMER "Pink"
    INDEX 00 42:45:30
    INDEX 01 42:46:30
  TRACK 14 AUDIO
    TITLE "Perfect"
    PERFORMER "One Direction"
    INDEX 00 46:31:16
    INDEX 01 46:32:16
  TRACK 15 AUDIO
    TITLE "Roses"
    PERFORMER "The Chainsmokers feat. Rozes"
    INDEX 00 50:21:63
    INDEX 01 50:22:63
  TRACK 16 AUDIO
    TITLE "Confident"
    PERFORMER "Demi Lovato"
    INDEX 00 53:27:44
    INDEX 01 53:28:44
  TRACK 17 AUDIO
    TITLE "Book Of Love"
    PERFORMER "Felix Jaehn feat. Polina"
    INDEX 00 56:54:09
    INDEX 01 56:55:09
  TRACK 18 AUDIO
    TITLE "Sax"
    PERFORMER "Fleur East"
    INDEX 00 60:13:34
    INDEX 01 60:14:34
  TRACK 19 AUDIO
    TITLE "Fine By Me"
    PERFORMER "Chris Brown"
    INDEX 00 63:54:00
    INDEX 01 63:55:00
  TRACK 20 AUDIO
    TITLE "Coming Home"
    PERFORMER "Sigma & Rita Ora"
    INDEX 00 67:22:02
    INDEX 01 67:23:02
  TRACK 21 AUDIO
    TITLE "Love You Now"
    PERFORMER "Miss Montreal"
    INDEX 00 70:55:22
    INDEX 01 70:56:22
  TRACK 22 AUDIO
    TITLE "Round & Round"
    PERFORMER "Dyna feat. F1rstman, Lil' Kleine & Bollebof"
    INDEX 00 74:11:06
    INDEX 01 74:12:06
--
[Профиль] [ЛС]
Показать сообщения:    

Текущее время: Сегодня 16:56

Часовой пояс: GMT



Вы не можете начинать темы
Вы не можете отвечать на сообщения
Вы не можете редактировать свои сообщения
Вы не можете удалять свои сообщения
Вы не можете голосовать в опросах
Вы не можете прикреплять файлы к сообщениям
Вы не можете скачивать файлы