(Rock, Classic Rock)VA - Pure... Rock (4CD) (2012) [FLAC(image+cue), Lossless]

 
Автор Сообщение

sergej644 ®

Пол:

Стаж: 4 года 11 месяцев

Сообщений: 6046

Откуда: Soviet Union



Награды: Нет

Торрент-статистика

Создавать темы 08-Мар-2015 20:52

[Цитировать]

-VA - Pure... Rock (2012)-Год: 2012
Жанр: Rock, Classic Rock, Hard Rock, Heavy Metal, Melodic Rock, Pop Rock, Blues Rock
Лейбл: Sony Music Entertainment
Номер по каталогу: 88725449972
EAN/UPC: 0887254499725
Страна: Великобритания
Продолжительность: 04:43:21
Тип рипа: image+.cue
Кодек: FLAC
Битрейт: Lossless
Наличие сканов в содержимом раздачи: да

CD 1

Продолжительноcть: 01:08:06
Треклист:
01. Journey - Don't Stop Believin' (Album Version) (1981) - 4:10
02. Boston - More Than A Feeling (1976) - 3:27
03. Blue Öyster Cult - (Don't Fear) The Reaper (1976) - 5:08
04. Meat Loaf - Bat Out Of Hell (Album Version) (1977) - 4:52
05. Electric Light Orchestra - Livin' Thing (Album Version) (1976) - 3:32
06. Kansas - Carry On Wayward Son (Single Version) (1976) - 3:26
07. Cheap Trick - Surrender (Single Version) (1978) - 4:11
08. Ram Jam - Black Betty (Original Version) (1977) - 3:56
09. Scorpions - Speedy's Coming (1974) - 3:35
10. Jeff Beck Group - Got The Feeling (Album Version) (1971) - 4:45
11. Patti Smith Group - Because The Night (1978) - 3:22
12. Janis Joplin & Big Brother And The Holding Company - Piece Of My Heart (Album Version) (1968) - 4:15
13. Santana - She's Not There (1977) - 3:19
14. The Edgar Winter Group - Frankenstein (Single Version) (1973) - 3:26
15. Ian Hunter - Once Bitten Twice Shy (Album Version) (1975) - 3:52
16. REO Speedwagon - Can't Fight This Feeling (Album Version) (1984) - 4:45
17. Europe - The Final Countdown (Single Version) (1986) - 3:58

Отчёт ЕАС:

Exact Audio Copy V1.0 beta 3 from 29. August 2011
Отчёт EAC об извлечении, выполненном 5. июня 2013, 21:32
Various / Pure...rock
Дисковод: MATSHITADVD-RAM UJ890AS   Adapter: 0  ID: 1
Режим чтения                 : Достоверность
Использование точного потока : Да
Отключение кэша аудио        : Да
Использование указателей C2  : Нет
Коррекция смещения при чтении                     : 102
Способность читать области Lead-in и Lead-out     : Нет
Заполнение пропущенных сэмплов тишиной            : Да
Удаление блоков с тишиной в начале и конце        : Нет
При вычислениях CRC использовались нулевые сэмплы : Да
Интерфейс                                         : Встроенный Win32-интерфейс для Win NT/2000
Выходной формат : Внутренние WAV-операции
Формат сэмплов  : 44.100 Гц; 16 бит; стерео
TOC извлечённого CD
     Трек |   Старт  | Длительность | Начальный сектор | Конечный сектор
    ---------------------------------------------------------------------
       1  |  0:00.00 |    4:09.73   |           0      |      18747
       2  |  4:09.73 |    3:27.52   |       18748      |      34324
       3  |  7:37.50 |    5:08.13   |       34325      |      57437
       4  | 12:45.63 |    4:52.31   |       57438      |      79368
       5  | 17:38.19 |    3:32.16   |       79369      |      95284
       6  | 21:10.35 |    3:25.64   |       95285      |     110723
       7  | 24:36.24 |    4:11.54   |      110724      |     129602
       8  | 28:48.03 |    3:56.56   |      129603      |     147358
       9  | 32:44.59 |    3:35.21   |      147359      |     163504
      10  | 36:20.05 |    4:44.71   |      163505      |     184875
      11  | 41:05.01 |    3:22.36   |      184876      |     200061
      12  | 44:27.37 |    4:15.19   |      200062      |     219205
      13  | 48:42.56 |    3:19.34   |      219206      |     234164
      14  | 52:02.15 |    3:26.50   |      234165      |     249664
      15  | 55:28.65 |    3:52.54   |      249665      |     267118
      16  | 59:21.44 |    4:45.53   |      267119      |     288546
      17  | 64:07.22 |    3:58.50   |      288547      |     306446
Характеристики диапазона извлечения и сообщения об ошибках
Выбранный диапазон
     Имя файла D:\Загрузка\Pure...rock\CD 1\Various - Pure...rock 1.wav
     Пиковый уровень 100.0 %
     Скорость извлечения 2.7 X
     Качество диапазона 100.0 %
     CRC теста F2402B52
     CRC копии F2402B52
     Копирование... OK
Ошибок не произошло
AccurateRip: сводка
Трек  1  отсутствует в базе данных
Трек  2  отсутствует в базе данных
Трек  3  отсутствует в базе данных
Трек  4  отсутствует в базе данных
Трек  5  отсутствует в базе данных
Трек  6  отсутствует в базе данных
Трек  7  отсутствует в базе данных
Трек  8  отсутствует в базе данных
Трек  9  отсутствует в базе данных
Трек 10  отсутствует в базе данных
Трек 11  отсутствует в базе данных
Трек 12  отсутствует в базе данных
Трек 13  отсутствует в базе данных
Трек 14  отсутствует в базе данных
Трек 15  отсутствует в базе данных
Трек 16  отсутствует в базе данных
Трек 17  отсутствует в базе данных
Ни одного трека нет в базе AccurateRip
Конец отчёта

Отчёт auCDtect Task manager:

PERFORMER: auCDtect Task Manager, ver. 1.6.0 RC1 build 1.6.0.1
Copyright (c) 2008-2010 y-soft. All rights reserved
http://y-soft.org
ANALYZER: auCDtect: CD records authenticity detector, version 0.8.2
Copyright (c) 2004 Oleg Berngardt. All rights reserved.
Copyright (c) 2004 Alexander Djourik. All rights reserved.
FILE: Various - Pure...rock 1.flac
  Size: 487816967 Hash: F72A109EDE8CEE3428B52FBAD6666830 Accuracy: -m0
  Conclusion: CDDA 100%
  Signature: BD00BD883E6FB0E56253E4F8284344D1FB7EBFA8

CD 2

Продолжительноcть: 01:11:10
Треклист:
01. Survivor - Eye Of The Tiger (1982) - 3:49
02. Judas Priest - Turbo Lover (1986) - 5:32
03. Motörhead - I'm So Bad (Baby I Don't Care) (Album Version) (1991) - 3:15
04. Alice Cooper - Trash (1989) - 4:01
05. Deep Purple - King Of Dreams (Album Version) (1990) - 5:26
06. Joe Satriani - If I Could Fly (Album Version) (2004) - 6:31
07. Great White - Rollin' Stoned (Album Version) (1999) - 4:10
08. The Fabulous Thunderbirds - Tuff Enuff (Album Version) (1986) - 3:22
09. Kenny Loggins - Danger Zone (Album Version) (1986) - 3:35
10. FireHouse - Don't Treat Me Bad (Album Version) (1990) - 3:57
11. Hooters - Satellite (Album Version) (1987) - 4:16
12. The Outfield - Your Love (Album Version) (1985) - 3:37
13. Jefferson Starship - No Way Out (1983) - 4:24
14. Aldo Nova - Monkey On Your Back (Album Version) (1983) - 4:37
15. Quiet Riot - The Wild And The Young (Album Version) (1986) - 3:38
16. Korn - Word Up! (Album Version) (2004) - 2:52
17. Wheatus - Teenage Dirtbag (Clean Album Version) (2000) - 4:03

Отчёт ЕАС:

Exact Audio Copy V1.0 beta 3 from 29. August 2011
Отчёт EAC об извлечении, выполненном 5. июня 2013, 23:05
Various / Pure...rock
Дисковод: MATSHITADVD-RAM UJ890AS   Adapter: 0  ID: 1
Режим чтения                 : Достоверность
Использование точного потока : Да
Отключение кэша аудио        : Да
Использование указателей C2  : Нет
Коррекция смещения при чтении                     : 102
Способность читать области Lead-in и Lead-out     : Нет
Заполнение пропущенных сэмплов тишиной            : Да
Удаление блоков с тишиной в начале и конце        : Нет
При вычислениях CRC использовались нулевые сэмплы : Да
Интерфейс                                         : Встроенный Win32-интерфейс для Win NT/2000
Выходной формат : Внутренние WAV-операции
Формат сэмплов  : 44.100 Гц; 16 бит; стерео
TOC извлечённого CD
     Трек |   Старт  | Длительность | Начальный сектор | Конечный сектор
    ---------------------------------------------------------------------
       1  |  0:00.00 |    3:49.20   |           0      |      17194
       2  |  3:49.20 |    5:32.15   |       17195      |      42109
       3  |  9:21.35 |    3:15.12   |       42110      |      56746
       4  | 12:36.47 |    4:01.48   |       56747      |      74869
       5  | 16:38.20 |    5:26.60   |       74870      |      99379
       6  | 22:05.05 |    6:31.08   |       99380      |     128712
       7  | 28:36.13 |    4:10.26   |      128713      |     147488
       8  | 32:46.39 |    3:22.15   |      147489      |     162653
       9  | 36:08.54 |    3:34.72   |      162654      |     178775
      10  | 39:43.51 |    3:56.69   |      178776      |     196544
      11  | 43:40.45 |    4:16.14   |      196545      |     215758
      12  | 47:56.59 |    3:37.12   |      215759      |     232045
      13  | 51:33.71 |    4:23.70   |      232046      |     251840
      14  | 55:57.66 |    4:37.33   |      251841      |     272648
      15  | 60:35.24 |    3:38.34   |      272649      |     289032
      16  | 64:13.58 |    2:52.57   |      289033      |     301989
      17  | 67:06.40 |    4:03.57   |      301990      |     320271
Характеристики диапазона извлечения и сообщения об ошибках
Выбранный диапазон
     Имя файла D:\Загрузка\Pure...rock\CD 2\Various - Pure...rock 2.wav
     Пиковый уровень 100.0 %
     Скорость извлечения 2.7 X
     Качество диапазона 100.0 %
     CRC теста 6430F222
     CRC копии 6430F222
     Копирование... OK
Ошибок не произошло
AccurateRip: сводка
Трек  1  отсутствует в базе данных
Трек  2  отсутствует в базе данных
Трек  3  отсутствует в базе данных
Трек  4  отсутствует в базе данных
Трек  5  отсутствует в базе данных
Трек  6  отсутствует в базе данных
Трек  7  отсутствует в базе данных
Трек  8  отсутствует в базе данных
Трек  9  отсутствует в базе данных
Трек 10  отсутствует в базе данных
Трек 11  отсутствует в базе данных
Трек 12  отсутствует в базе данных
Трек 13  отсутствует в базе данных
Трек 14  отсутствует в базе данных
Трек 15  отсутствует в базе данных
Трек 16  отсутствует в базе данных
Трек 17  отсутствует в базе данных
Ни одного трека нет в базе AccurateRip
Конец отчёта

Отчёт auCDtect Task manager:

PERFORMER: auCDtect Task Manager, ver. 1.6.0 RC1 build 1.6.0.1
Copyright (c) 2008-2010 y-soft. All rights reserved
http://y-soft.org
ANALYZER: auCDtect: CD records authenticity detector, version 0.8.2
Copyright (c) 2004 Oleg Berngardt. All rights reserved.
Copyright (c) 2004 Alexander Djourik. All rights reserved.
FILE: Various - Pure...rock 2.flac
  Size: 549409749 Hash: A10CC8254EBE17C35ABB5C3BF6E05A59 Accuracy: -m0
  Conclusion: CDDA 100%
  Signature: 27E7E93F6F8115A13B22D0C91FC4C4D788F0EAEF

CD 3

Продолжительноcть: 01:10:36
Треклист:
01. Argent - Hold Your Head Up (Album Version) (1972) - 6:20
02. The Guess Who - Heartbroken Bopper (Single Version) (1972) - 3:12
03. Ted Nugent - Need You Bad (Album Version) (1978) - 4:20
04. Johnny Winter - Rock Me Baby (Album Version) (1973) - 3:50
05. The Byrds - Jesus Is Just Alright (Album Version) (1970) - 2:12
06. Bob Dylan - Solid Rock (Album Version) (1980) - 3:56
07. Steppenwolf - Caroline (Are You Ready For The Outlaw World) (197) - 4:51
08. Mott The Hoople - All The Way From Memphis (Album Version) (1973) - 4:58
09. Lou Reed - Wild Child (Remastered January 2000) (1972) - 4:35
10. Molly Hatchet - Whiskey Man (Album Version) (1979) - 3:41
11. The Gregg Allman Band - I'm No Angel (Album Version) (1987) - 3:45
12. Stevie Ray Vaughan & Double Trouble - Mary Had A Little Lamb (Album Version) (1983) - 2:48
13. Heart - Allies (Album Version) (1983) - 4:43
14. Justin Hayward - Forever Autumn (from Jeff Wayne's Musical Version Of 'The War Of The Worlds') (Album Version) (1978) - 4:09
15. The Walker Brothers - No Regrets (Album Version) (1975) - 5:44
16. Dave Mason - We Just Disagree (Album Version) (1977) - 3:02
17. The Alan Parsons Project - Games People Play (1980) - 4:26

Отчёт ЕАС:

Exact Audio Copy V1.0 beta 3 from 29. August 2011
Отчёт EAC об извлечении, выполненном 6. июня 2013, 21:41
Various / Pure...rock
Дисковод: MATSHITADVD-RAM UJ890AS   Adapter: 0  ID: 1
Режим чтения                 : Достоверность
Использование точного потока : Да
Отключение кэша аудио        : Да
Использование указателей C2  : Нет
Коррекция смещения при чтении                     : 102
Способность читать области Lead-in и Lead-out     : Нет
Заполнение пропущенных сэмплов тишиной            : Да
Удаление блоков с тишиной в начале и конце        : Нет
При вычислениях CRC использовались нулевые сэмплы : Да
Интерфейс                                         : Встроенный Win32-интерфейс для Win NT/2000
Выходной формат : Внутренние WAV-операции
Формат сэмплов  : 44.100 Гц; 16 бит; стерео
TOC извлечённого CD
     Трек |   Старт  | Длительность | Начальный сектор | Конечный сектор
    ---------------------------------------------------------------------
       1  |  0:00.00 |    6:20.10   |           0      |      28509
       2  |  6:20.10 |    3:12.21   |       28510      |      42930
       3  |  9:32.31 |    4:20.51   |       42931      |      62481
       4  | 13:53.07 |    3:50.62   |       62482      |      79793
       5  | 17:43.69 |    2:12.09   |       79794      |      89702
       6  | 19:56.03 |    3:55.65   |       89703      |     107392
       7  | 23:51.68 |    4:51.27   |      107393      |     129244
       8  | 28:43.20 |    4:58.36   |      129245      |     151630
       9  | 33:41.56 |    4:34.72   |      151631      |     172252
      10  | 38:16.53 |    3:41.00   |      172253      |     188827
      11  | 41:57.53 |    3:44.67   |      188828      |     205694
      12  | 45:42.45 |    2:48.02   |      205695      |     218296
      13  | 48:30.47 |    4:42.65   |      218297      |     239511
      14  | 53:13.37 |    4:09.36   |      239512      |     258222
      15  | 57:22.73 |    5:44.60   |      258223      |     284082
      16  | 63:07.58 |    3:02.45   |      284083      |     297777
      17  | 66:10.28 |    4:26.04   |      297778      |     317731
Характеристики диапазона извлечения и сообщения об ошибках
Выбранный диапазон
     Имя файла D:\Загрузка\Pure...rock\CD 3\Various - Pure...rock 3.wav
     Пиковый уровень 99.8 %
     Скорость извлечения 2.7 X
     Качество диапазона 100.0 %
     CRC теста 57DF21A4
     CRC копии 57DF21A4
     Копирование... OK
Ошибок не произошло
AccurateRip: сводка
Трек  1  отсутствует в базе данных
Трек  2  отсутствует в базе данных
Трек  3  отсутствует в базе данных
Трек  4  отсутствует в базе данных
Трек  5  отсутствует в базе данных
Трек  6  отсутствует в базе данных
Трек  7  отсутствует в базе данных
Трек  8  отсутствует в базе данных
Трек  9  отсутствует в базе данных
Трек 10  отсутствует в базе данных
Трек 11  отсутствует в базе данных
Трек 12  отсутствует в базе данных
Трек 13  отсутствует в базе данных
Трек 14  отсутствует в базе данных
Трек 15  отсутствует в базе данных
Трек 16  отсутствует в базе данных
Трек 17  отсутствует в базе данных
Ни одного трека нет в базе AccurateRip
Конец отчёта

Отчёт auCDtect Task manager:

PERFORMER: auCDtect Task Manager, ver. 1.6.0 RC1 build 1.6.0.1
Copyright (c) 2008-2010 y-soft. All rights reserved
http://y-soft.org
ANALYZER: auCDtect: CD records authenticity detector, version 0.8.2
Copyright (c) 2004 Oleg Berngardt. All rights reserved.
Copyright (c) 2004 Alexander Djourik. All rights reserved.
FILE: Various - Pure...rock 3.flac
  Size: 480250400 Hash: 3053C797BA880A8B592AF4C61D4AD171 Accuracy: -m0
  Conclusion: CDDA 100%
  Signature: 158ED3EFA575E2728F53AE7089256B2268731D47

CD 4

Продолжительноcть: 01:13:29
Треклист:
01. David Bowie - New Killer Star (Album Version) (2003) - 4:40
02. Jeff Buckley - Grace (Album Version) (1994) - 5:22
03. Soul Asylum - Misery (Single Version) (1995) - 4:26
04. Train - Calling All Angels (Album Version) (2003) - 4:02
05. The Calling - Our Lives (2004) - 3:56
06. Daughtry - No Surprise (2009) - 4:11
07. The Fray - You Found Me (Album Version) (2008) - 4:04
08. Live - Wings (Album Version) (2006) - 3:52
09. Screaming Trees - Dollar Bill (Album Version) (1992) - 4:34
10. 3 Colours Red - Pure (Album Version) (1997) - 3:08
11. Steve Vai - The Crying Machine (Album Version) (1996) - 4:51
12. Bonham - Wait For You (1989) - 5:02
13. Warrant - Heaven (Album Version) (1989) - 3:57
14. Lita Ford - Shot Of Poison (1991) - 3:30
15. Bonnie Tyler - Total Eclipse Of The Heart (Single Version) (1983) - 4:27
16. Bad English - Time Stood Still (Album Version) (1991) - 5:23
17. Bruce Hornsby And The Range - The Way It Is (Edited Version) (1986) - 3:58

Отчёт ЕАС:

Exact Audio Copy V1.0 beta 3 from 29. August 2011
Отчёт EAC об извлечении, выполненном 7. июня 2013, 20:25
Various / Pure...rock
Дисковод: MATSHITADVD-RAM UJ890AS   Adapter: 0  ID: 1
Режим чтения                 : Достоверность
Использование точного потока : Да
Отключение кэша аудио        : Да
Использование указателей C2  : Нет
Коррекция смещения при чтении                     : 102
Способность читать области Lead-in и Lead-out     : Нет
Заполнение пропущенных сэмплов тишиной            : Да
Удаление блоков с тишиной в начале и конце        : Нет
При вычислениях CRC использовались нулевые сэмплы : Да
Интерфейс                                         : Встроенный Win32-интерфейс для Win NT/2000
Выходной формат : Внутренние WAV-операции
Формат сэмплов  : 44.100 Гц; 16 бит; стерео
TOC извлечённого CD
     Трек |   Старт  | Длительность | Начальный сектор | Конечный сектор
    ---------------------------------------------------------------------
       1  |  0:00.00 |    4:40.37   |           0      |      21036
       2  |  4:40.37 |    5:22.42   |       21037      |      45228
       3  | 10:03.04 |    4:26.08   |       45229      |      65186
       4  | 14:29.12 |    4:02.19   |       65187      |      83355
       5  | 18:31.31 |    3:56.21   |       83356      |     101076
       6  | 22:27.52 |    4:11.01   |      101077      |     119902
       7  | 26:38.53 |    4:03.70   |      119903      |     138197
       8  | 30:42.48 |    3:52.14   |      138198      |     155611
       9  | 34:34.62 |    4:34.40   |      155612      |     176201
      10  | 39:09.27 |    3:08.35   |      176202      |     190336
      11  | 42:17.62 |    4:51.58   |      190337      |     212219
      12  | 47:09.45 |    5:02.26   |      212220      |     234895
      13  | 52:11.71 |    3:56.69   |      234896      |     252664
      14  | 56:08.65 |    3:30.39   |      252665      |     268453
      15  | 59:39.29 |    4:27.22   |      268454      |     288500
      16  | 64:06.51 |    5:23.27   |      288501      |     312752
      17  | 69:30.03 |    3:58.58   |      312753      |     330660
Характеристики диапазона извлечения и сообщения об ошибках
Выбранный диапазон
     Имя файла D:\Загрузка\Pure...rock\CD 4\Various - Pure...rock b4.wav
     Пиковый уровень 100.0 %
     Скорость извлечения 2.8 X
     Качество диапазона 100.0 %
     CRC теста A4FB5ED4
     CRC копии A4FB5ED4
     Копирование... OK
Ошибок не произошло
AccurateRip: сводка
Трек  1  отсутствует в базе данных
Трек  2  отсутствует в базе данных
Трек  3  отсутствует в базе данных
Трек  4  отсутствует в базе данных
Трек  5  отсутствует в базе данных
Трек  6  отсутствует в базе данных
Трек  7  отсутствует в базе данных
Трек  8  отсутствует в базе данных
Трек  9  отсутствует в базе данных
Трек 10  отсутствует в базе данных
Трек 11  отсутствует в базе данных
Трек 12  отсутствует в базе данных
Трек 13  отсутствует в базе данных
Трек 14  отсутствует в базе данных
Трек 15  отсутствует в базе данных
Трек 16  отсутствует в базе данных
Трек 17  отсутствует в базе данных
Ни одного трека нет в базе AccurateRip
Конец отчёта

Отчёт auCDtect Task manager:

PERFORMER: auCDtect Task Manager, ver. 1.6.0 RC1 build 1.6.0.1
Copyright (c) 2008-2010 y-soft. All rights reserved
http://y-soft.org
ANALYZER: auCDtect: CD records authenticity detector, version 0.8.2
Copyright (c) 2004 Oleg Berngardt. All rights reserved.
Copyright (c) 2004 Alexander Djourik. All rights reserved.
FILE: Various - Pure...rock b4.flac
  Size: 549657094 Hash: 1195C490055D297D26DCB521EB12C389 Accuracy: -m0
  Conclusion: CDDA 100%
  Signature: A1AFEE55C0657675335F9D302F41C4868E018072
--
[Профиль] [ЛС]
Показать сообщения:    

Текущее время: Сегодня 00:34

Часовой пояс: GMT



Вы не можете начинать темы
Вы не можете отвечать на сообщения
Вы не можете редактировать свои сообщения
Вы не можете удалять свои сообщения
Вы не можете голосовать в опросах
Вы не можете прикреплять файлы к сообщениям
Вы не можете скачивать файлы