(Pop, Ethnopop, House, Pop Latino) VA - One Love, One Rhythm: The 2014 FIFA World Cup™ Official Album - 2014, FLAC (tracks), lossless

 
Автор Сообщение

sergej644 ®

Пол:

Стаж: 4 года 11 месяцев

Сообщений: 6035

Откуда: Soviet Union



Награды: Нет

Торрент-статистика

Создавать темы 10-Июн-2014 11:01

[Цитировать]

-VA - One Love, One Rhythm: The 2014 FIFA World Cup™ Official Album
Страна: EU
Жанр: Pop, Ethnopop, House, Pop Latino
Год выпуска: 2014
Издатель (лейбл): Sony Music Entertainment Brasil
Номер по каталогу: 88843066102
Формат: FLAC (tracks)
Битрейт аудио: lossless
Продолжительность: 00:59:20
- -

trecklist

01. Pitbull feat. Jennifer Lopez & Cláudia Leitte - We Are One (Ole Ola) (The Official 2014 FIFA World Cup Song) (03:43)
02. Santana & Wyclef feat. Avicii & Alexandre Pires - Dar um jeito (We Will Find A Way) (The Official 2014 FIFA World Cup Anthem) (03:48)
03. Arlindo Cruz - Tatu bom de bola (The Official 2014 World Cup Mascot Song) (03:20)
04. Ricky Martin - Vida (Spanglish Version) (03:25)
05. Aloe Blacc x David Correy - The World Is Ours (Coca-Cola 2014 World's Cup Anthem) (02:54)
06. Psirico - Lepo lepo (03:21)
07. Sérgio Mendes & Carlinhos Brown - One Nation (03:32)
08. Shakira feat. Carlinhos Brown - La la la (Brazil 2014) (03:17)
09. The Isley Brothers with Studio Rio - It's Your Thing (Studio Rio Version) (03:07)
10. Bebel Gilberto and Lang Lang - Tico tico (02:48)
11. Adelén - Olé (Stadium Anthem Mix) (03:20)
12. Magic! - This Is Our Time (Agora é a nossa hora) (03:08)
13. Baha Men - Night & Day (Carnival Mix) (03:54)
14. Rodrigo Alexey feat. Preta Gil - Go, gol (02:58)
15. Mika Nakashima x Miliyah Kato - Fighter (Tachytelic World Cup Brazil 2014 Remix) (04:51)
16. Pitbull feat. Jennifer Lopez & Cláudia Leitte - We Are One (Ole Ola) (Olodum Mix) (The Official 2014 FIFA World Cup Song) (03:58)
17. Arlindo Cruz - Tatu bom de bola (DJ Memê Remix) (The Official 2014 World Cup Mascot Song) (03:46)
- -

лог создания рипа

Exact Audio Copy V1.0 beta 3 from 29. August 2011
EAC extraction logfile from 16. May 2014, 19:25
Various Artists / One Love, One Rhythm: The 2014 FIFA World Cup Official Album
Used drive  : ASUS    DRW-24B3ST   Adapter: 1  ID: 1
Read mode               : Secure
Utilize accurate stream : Yes
Defeat audio cache      : Yes
Make use of C2 pointers : No
Read offset correction                      : 6
Overread into Lead-In and Lead-Out          : No
Fill up missing offset samples with silence : Yes
Delete leading and trailing silent blocks   : No
Null samples used in CRC calculations       : Yes
Used interface                              : Native Win32 interface for Win NT & 2000
Gap handling                                : Appended to previous track
Used output format              : User Defined Encoder
Selected bitrate                : 1024 kBit/s
Quality                         : High
Add ID3 tag                     : No
Command line compressor         : C:\Program Files (x86)\Exact Audio Copy\Flac\flac.exe
Additional command line options : -8 -V -T "ARTIST=%artist%" -T "TITLE=%title%" -T "ALBUM=%albumtitle%" -T "DATE=%year%" -T "TRACKNUMBER=%tracknr%" -T "GENRE=%genre%" -T"PERFORMER=%albuminterpret%" -T "COMPOSER=%composer%" %haslyrics%--tag-from-file=LYRICS="%lyricsfile%"%haslyrics% -T "ALBUMARTIST=%albumartist%" -T "DISCNUMBER=%cdnumber%" -T "TOTALDISCS=%totalcds%" -T "TOTALTRACKS=%numtracks%" -T "COMMENT=%comment%" %source% -o %dest%
TOC of the extracted CD
     Track |   Start  |  Length  | Start sector | End sector
    ---------------------------------------------------------
        1  |  0:00.00 |  3:43.59 |         0    |    16783
        2  |  3:43.59 |  3:48.24 |     16784    |    33907
        3  |  7:32.08 |  3:20.74 |     33908    |    48981
        4  | 10:53.07 |  3:25.68 |     48982    |    64424
        5  | 14:19.00 |  2:54.66 |     64425    |    77540
        6  | 17:13.66 |  3:21.15 |     77541    |    92630
        7  | 20:35.06 |  3:32.05 |     92631    |   108535
        8  | 24:07.11 |  3:17.51 |    108536    |   123361
        9  | 27:24.62 |  3:07.52 |    123362    |   137438
       10  | 30:32.39 |  2:48.52 |    137439    |   150090
       11  | 33:21.16 |  3:20.57 |    150091    |   165147
       12  | 36:41.73 |  3:08.31 |    165148    |   179278
       13  | 39:50.29 |  3:54.02 |    179279    |   196830
       14  | 43:44.31 |  2:58.67 |    196831    |   210247
       15  | 46:43.23 |  4:51.24 |    210248    |   232096
       16  | 51:34.47 |  3:58.51 |    232097    |   249997
       17  | 55:33.23 |  3:46.06 |    249998    |   266953
Track  1
     Filename C:\VA-One_Love_One_Rhythm_The_2014_FIFA_World_Cup_Official_Album-CD-FLAC-2014-1nDD\(01) [Pitbull Feat. Jennifer Lopez & Claudia Leitte] We Are One (Ole Ola) (The Official 2014 FIFA World Cup Song).wav
     Pre-gap length  0:00:02.00
     Peak level 95.3 %
     Extraction speed 2.7 X
     Track quality 99.9 %
     Test CRC 4682B0CC
     Copy CRC 4682B0CC
     Track not present in AccurateRip database
     Copy OK
Track  2
     Filename C:\VA-One_Love_One_Rhythm_The_2014_FIFA_World_Cup_Official_Album-CD-FLAC-2014-1nDD\(02) [Santana & Wyclef Feat. Avicii & Alexandre Pires] Dar Um Jeito (We Will Find A Way) (The Official 2014 FIFA World Cup Anthem).wav
     Peak level 95.4 %
     Extraction speed 3.7 X
     Track quality 100.0 %
     Test CRC 800BE317
     Copy CRC 800BE317
     Track not present in AccurateRip database
     Copy OK
Track  3
     Filename C:\VA-One_Love_One_Rhythm_The_2014_FIFA_World_Cup_Official_Album-CD-FLAC-2014-1nDD\(03) [Arlindo Cruz] Tatu Bom De Bola (The Official 2014 FIFA World Cup Mascot Song).wav
     Peak level 98.0 %
     Extraction speed 4.0 X
     Track quality 100.0 %
     Test CRC C3D4527D
     Copy CRC C3D4527D
     Track not present in AccurateRip database
     Copy OK
Track  4
     Filename C:\VA-One_Love_One_Rhythm_The_2014_FIFA_World_Cup_Official_Album-CD-FLAC-2014-1nDD\(04) [Ricky Martin] Vida (Spanglish Version).wav
     Peak level 95.4 %
     Extraction speed 4.3 X
     Track quality 100.0 %
     Test CRC A2FAA596
     Copy CRC A2FAA596
     Track not present in AccurateRip database
     Copy OK
Track  5
     Filename C:\VA-One_Love_One_Rhythm_The_2014_FIFA_World_Cup_Official_Album-CD-FLAC-2014-1nDD\(05) [Aloe Blacc X David Correy] The World Is Ours (Coca-Cola 2014 World's Cup Anthem).wav
     Peak level 96.6 %
     Extraction speed 4.3 X
     Track quality 100.0 %
     Test CRC 41D5CC5D
     Copy CRC 41D5CC5D
     Track not present in AccurateRip database
     Copy OK
Track  6
     Filename C:\VA-One_Love_One_Rhythm_The_2014_FIFA_World_Cup_Official_Album-CD-FLAC-2014-1nDD\(06) [Psirico] Lepo Lepo.wav
     Peak level 100.0 %
     Extraction speed 3.6 X
     Track quality 99.9 %
     Test CRC 75FB234F
     Copy CRC 75FB234F
     Track not present in AccurateRip database
     Copy OK
Track  7
     Filename C:\VA-One_Love_One_Rhythm_The_2014_FIFA_World_Cup_Official_Album-CD-FLAC-2014-1nDD\(07) [Sergio Mendes & Carlinhos Brown] One Nation.wav
     Peak level 98.7 %
     Extraction speed 4.9 X
     Track quality 100.0 %
     Test CRC 48598CE2
     Copy CRC 48598CE2
     Track not present in AccurateRip database
     Copy OK
Track  8
     Filename C:\VA-One_Love_One_Rhythm_The_2014_FIFA_World_Cup_Official_Album-CD-FLAC-2014-1nDD\(08) [Shakira] La La La (Brazil 2014).wav
     Peak level 96.6 %
     Extraction speed 5.1 X
     Track quality 100.0 %
     Test CRC 550B65BB
     Copy CRC 550B65BB
     Track not present in AccurateRip database
     Copy OK
Track  9
     Filename C:\VA-One_Love_One_Rhythm_The_2014_FIFA_World_Cup_Official_Album-CD-FLAC-2014-1nDD\(09) [The Isley Brothers with Studio Rio] It's Your Thing (Studio Rio Version).wav
     Peak level 98.8 %
     Extraction speed 5.2 X
     Track quality 100.0 %
     Test CRC BF3793CE
     Copy CRC BF3793CE
     Track not present in AccurateRip database
     Copy OK
Track 10
     Filename C:\VA-One_Love_One_Rhythm_The_2014_FIFA_World_Cup_Official_Album-CD-FLAC-2014-1nDD\(10) [Rebel Gilberto & Lang Lang] Tico Tico.wav
     Peak level 99.9 %
     Extraction speed 5.3 X
     Track quality 100.0 %
     Test CRC 3F8AD149
     Copy CRC 3F8AD149
     Track not present in AccurateRip database
     Copy OK
Track 11
     Filename C:\VA-One_Love_One_Rhythm_The_2014_FIFA_World_Cup_Official_Album-CD-FLAC-2014-1nDD\(11) [Adelen] Ole (Stadium Anthem Mix).wav
     Peak level 96.6 %
     Extraction speed 5.5 X
     Track quality 100.0 %
     Test CRC D5174D9E
     Copy CRC D5174D9E
     Track not present in AccurateRip database
     Copy OK
Track 12
     Filename C:\VA-One_Love_One_Rhythm_The_2014_FIFA_World_Cup_Official_Album-CD-FLAC-2014-1nDD\(12) [Magic] This Is Our Time (Agora e A Nossa Hora).wav
     Peak level 95.5 %
     Extraction speed 5.7 X
     Track quality 100.0 %
     Test CRC 68F78737
     Copy CRC 68F78737
     Track not present in AccurateRip database
     Copy OK
Track 13
     Filename C:\VA-One_Love_One_Rhythm_The_2014_FIFA_World_Cup_Official_Album-CD-FLAC-2014-1nDD\(13) [Baha Men] Night & Day (Carnival Mix).wav
     Peak level 100.0 %
     Extraction speed 4.8 X
     Track quality 99.9 %
     Test CRC 55AF85DA
     Copy CRC 55AF85DA
     Track not present in AccurateRip database
     Copy OK
Track 14
     Filename C:\VA-One_Love_One_Rhythm_The_2014_FIFA_World_Cup_Official_Album-CD-FLAC-2014-1nDD\(14) [Rodrigo Alexey Feat. Preta Gil] Go, Gol.wav
     Peak level 99.9 %
     Extraction speed 6.0 X
     Track quality 100.0 %
     Test CRC BD091E5E
     Copy CRC BD091E5E
     Track not present in AccurateRip database
     Copy OK
Track 15
     Filename C:\VA-One_Love_One_Rhythm_The_2014_FIFA_World_Cup_Official_Album-CD-FLAC-2014-1nDD\(15) [Mika Nakashima X Miliyah Kato] Fighter (Tachytelic World Cup Brazil 2014 Remix).wav
     Peak level 95.5 %
     Extraction speed 6.6 X
     Track quality 100.0 %
     Test CRC BE55EBC4
     Copy CRC BE55EBC4
     Track not present in AccurateRip database
     Copy OK
Track 16
     Filename C:\VA-One_Love_One_Rhythm_The_2014_FIFA_World_Cup_Official_Album-CD-FLAC-2014-1nDD\(16) [Pitbull Feat. Jennifer Lopez & Claudia Leitte] We Are One (Ole Ola) (The Official 2014 FIFA World Cup Song) (Olodum Mix) (Bonus Track).wav
     Peak level 95.3 %
     Extraction speed 5.2 X
     Track quality 99.9 %
     Test CRC 728DA88D
     Copy CRC 728DA88D
     Track not present in AccurateRip database
     Copy OK
Track 17
     Filename C:\VA-One_Love_One_Rhythm_The_2014_FIFA_World_Cup_Official_Album-CD-FLAC-2014-1nDD\(17) [Arlindo Cruz] Tatu Bom De Bola (The Official 2014 FIFA World Cup Mascot Song) (DJ Meme Remix) (Bonus Track).wav
     Peak level 95.4 %
     Extraction speed 5.3 X
     Track quality 99.9 %
     Test CRC 72008E7A
     Copy CRC 72008E7A
     Track not present in AccurateRip database
     Copy OK
None of the tracks are present in the AccurateRip database
No errors occurred
End of status report

содержание индексной карты *cue

REM GENRE Pop
REM DATE 2014
REM DISCID DB0DE711
REM COMMENT "ExactAudioCopy v1.0b3"
CATALOG 0888430661028
PERFORMER "Various Artists"
TITLE "One Love, One Rhythm: The 2014 FIFA World Cup Official Album"
FILE "(01) [Pitbull Feat. Jennifer Lopez & Claudia Leitte] We Are One (Ole Ola) (The Official 2014 FIFA World Cup Song).wav" WAVE
  TRACK 01 AUDIO
    TITLE "We Are One (Ole Ola) (The Official 2014 FIFA World Cup Song)"
    PERFORMER "Pitbull Feat. Jennifer Lopez & Claudia Leitte"
    ISRC USRC11400285
    INDEX 01 00:00:00
FILE "(02) [Santana & Wyclef Feat. Avicii & Alexandre Pires] Dar Um Jeito (We Will Find A Way) (The Official 2014 FIFA World Cup Anthem).wav" WAVE
  TRACK 02 AUDIO
    TITLE "Dar Um Jeito (We Will Find A Way) (The Official 2014 FIFA World Cup Anthem)"
    PERFORMER "Santana & Wyclef Feat. Avicii & Alexandre Pires"
    ISRC USRC11400622
    INDEX 01 00:00:00
FILE "(03) [Arlindo Cruz] Tatu Bom De Bola (The Official 2014 FIFA World Cup Mascot Song).wav" WAVE
  TRACK 03 AUDIO
    TITLE "Tatu Bom De Bola (The Official 2014 FIFA World Cup Mascot Song)"
    PERFORMER "Arlindo Cruz"
    ISRC BRSME1200801
    INDEX 01 00:00:00
FILE "(04) [Ricky Martin] Vida (Spanglish Version).wav" WAVE
  TRACK 04 AUDIO
    TITLE "Vida (Spanglish Version)"
    PERFORMER "Ricky Martin"
    ISRC BRSME1400007
    INDEX 01 00:00:00
FILE "(05) [Aloe Blacc X David Correy] The World Is Ours (Coca-Cola 2014 World's Cup Anthem).wav" WAVE
  TRACK 05 AUDIO
    TITLE "The World Is Ours (Coca-Cola 2014 World's Cup Anthem)"
    PERFORMER "Aloe Blacc X David Correy"
    ISRC BRSME1400266
    INDEX 01 00:00:00
FILE "(06) [Psirico] Lepo Lepo.wav" WAVE
  TRACK 06 AUDIO
    TITLE "Lepo Lepo"
    PERFORMER "Psirico"
    ISRC BRL1V1300017
    INDEX 01 00:00:00
FILE "(07) [Sergio Mendes & Carlinhos Brown] One Nation.wav" WAVE
  TRACK 07 AUDIO
    TITLE "One Nation"
    PERFORMER "Sergio Mendes & Carlinhos Brown"
    ISRC USSM11401535
    INDEX 01 00:00:00
FILE "(08) [Shakira] La La La (Brazil 2014).wav" WAVE
  TRACK 08 AUDIO
    TITLE "La La La (Brazil 2014)"
    PERFORMER "Shakira"
    ISRC USRC11400478
    INDEX 01 00:00:00
FILE "(09) [The Isley Brothers with Studio Rio] It's Your Thing (Studio Rio Version).wav" WAVE
  TRACK 09 AUDIO
    TITLE "It's Your Thing (Studio Rio Version)"
    PERFORMER "The Isley Brothers with Studio Rio"
    ISRC USSM11307690
    INDEX 01 00:00:00
FILE "(10) [Rebel Gilberto & Lang Lang] Tico Tico.wav" WAVE
  TRACK 10 AUDIO
    TITLE "Tico Tico"
    PERFORMER "Rebel Gilberto & Lang Lang"
    ISRC USSM11401453
    INDEX 01 00:00:00
FILE "(11) [Adelen] Ole (Stadium Anthem Mix).wav" WAVE
  TRACK 11 AUDIO
    TITLE "Olй (Stadium Anthem Mix)"
    PERFORMER "Adelйn"
    ISRC NOYEL1405010
    INDEX 01 00:00:00
FILE "(12) [Magic] This Is Our Time (Agora e A Nossa Hora).wav" WAVE
  TRACK 12 AUDIO
    TITLE "This Is Our Time (Agora й A Nossa Hora)"
    PERFORMER "Magic!"
    ISRC CAV161400004
    INDEX 01 00:00:00
FILE "(13) [Baha Men] Night & Day (Carnival Mix).wav" WAVE
  TRACK 13 AUDIO
    TITLE "Night & Day (Carnival Mix)"
    PERFORMER "Baha Men"
    ISRC USSD11400073
    INDEX 01 00:00:00
FILE "(14) [Rodrigo Alexey Feat. Preta Gil] Go, Gol.wav" WAVE
  TRACK 14 AUDIO
    TITLE "Go, Gol"
    PERFORMER "Rodrigo Alexey Feat. Preta Gil"
    ISRC BRSME1400233
    INDEX 01 00:00:00
FILE "(15) [Mika Nakashima X Miliyah Kato] Fighter (Tachytelic World Cup Brazil 2014 Remix).wav" WAVE
  TRACK 15 AUDIO
    TITLE "Fighter (Tachytelic World Cup Brazil 2014 Remix)"
    PERFORMER "Mika Nakashima X Miliyah Kato"
    ISRC JPSR01400182
    INDEX 01 00:00:00
FILE "(16) [Pitbull Feat. Jennifer Lopez & Claudia Leitte] We Are One (Ole Ola) (The Official 2014 FIFA World Cup Song) (Olodum Mix) (Bonus Track).wav" WAVE
  TRACK 16 AUDIO
    TITLE "We Are One (Ole Ola) (The Official 2014 FIFA World Cup Song) (Olodum Mix) (Bo..."
    PERFORMER "Pitbull Feat. Jennifer Lopez & Claudia Leitte"
    ISRC USRC11400628
    INDEX 01 00:00:00
FILE "(17) [Arlindo Cruz] Tatu Bom De Bola (The Official 2014 FIFA World Cup Mascot Song) (DJ Meme Remix) (Bonus Track).wav" WAVE
  TRACK 17 AUDIO
    TITLE "Tatu Bom De Bola (The Official 2014 FIFA World Cup Mascot Song) (DJ Memк Remi..."
    PERFORMER "Arlindo Cruz"
    ISRC BRSME1400234
    INDEX 01 00:00:00
[Профиль] [ЛС]

Создавать темы 13-Авг-2015 11:32 (спустя 1 год 2 месяца)

Топик был перенесен из форума Сборники в форум Music from other genres
sergej644
 
Кто просматривает тему:

Показать сообщения:    

Текущее время: Сегодня 11:55

Часовой пояс: GMT



Вы не можете начинать темы
Вы не можете отвечать на сообщения
Вы не можете редактировать свои сообщения
Вы не можете удалять свои сообщения
Вы не можете голосовать в опросах
Вы не можете прикреплять файлы к сообщениям
Вы не можете скачивать файлы