(Pop, Dance) VA - NRJ 200% Hits (2CD) - 2015 [FLAC, tracks+.cue, lossless]

 
Автор Сообщение

sergej644 ®

Пол:

Стаж: 4 года 11 месяцев

Сообщений: 6045

Откуда: Soviet Union



Награды: Нет

Торрент-статистика

Создавать темы 25-Май-2015 13:49

[Цитировать]

-NRJ 200% Hits (2CD)-- Год издания: 2015
Страна: N/A
Жанр: Pop, Dance
Продолжительность: 02:27:52-Лейбл издания: Sony Music France
Тип альбома: Compilation
Страна-выпуска диска: France
Номер по каталогу: 88875067972
Формат: FLAC
Битрейт аудио: lossless
Тип рипа: tracks+.cue
Наличие сканов в содержимом раздачи: да
---

Трэклист

CD 1 || 01:13:17

01.Mark Ronson Feat. Bruno Mars - Uptown Funk (04:31)
02.Sia - Elactic Heart (04:18)
03.Hozier - Take Me To Church (04:02)
04.Calvin Harris Feat. Ellie Goulding - Outside (03:47)
05.Aronchupa - I'm An Albatraoz (02:46)
06.Black M - On S'Fait Du Mal (03:35)
07.Will Sparks Feat. Wiley & Elen Levon - Ah Yeah So What (Radio Edit) (03:15)
08.Lost Frequencies - Are You With Me (Radio Edit) (02:19)
09.Ariana Grande Feat. The Weeknd - Love Me Harder (03:57)
10.OMI - Cheerleader (Felix Jaehn Remix) (Radio Edit) (03:02)
11.David Carreira - Rien a Envier (03:13)
12.Sophia Del Carmen Feat. Pitbull - Lipstick (Radio Edit) (03:40)
13.Shanz Feat. Maitre Gims - A Contre Sens (Original Mix) (03:36)
14.Hardwell Feat. Harrison - Sally (Clean Radio Edit) (03:28)
15.Shy'M - L'effet De Serre (03:23)
16.George Ezra - Blame It On Me (03:17)
17.Global Deejays & Envegas - Always Hardcore (Radio Edit) (03:37)
18.London Grammar - Hey Now (J'adore Dior Remix by The Shoes) (03:04)
19.Pharrell Williams - Gust Of Wind (04:45)
20.Meghan Trainor - Lips Are Movin (03:02)
21.Kendji Girac - Andalouse (02:50)

CD 2 || 01:14:36

01.Christine And The Queens - Saint Claude (Domenicotorti Remix) (03:42)
02.David Guetta Feat. Sam Martin - Dangerous (03:24)
03.Ella Henderson - Ghost (03:35)
04.Josef Salvat - Diamonds (04:06)
05.Soprano Feat. Uncle Phil - Fresh Prince (03:19)
06.Robin Schulz Feat. Jasmine Thompson - Sun Goes Down (Radio Mix) (03:00)
07.One Direction - Night Changes (03:47)
08.The Script - Superheroes (04:04)
09.ZHU - Faded (03:44)
10.Olivier Dion - Si J'etais Son Soleil (Radio Edit) (03:28)
11.Tom Odell - Real Love (02:20)
12.H-Magnum - Prohibe (03:35)
13.Nicole Scherzinger - Run (03:27)
14.Nico & Vinz - In Your Arms (Dans Tes Bras) (03:37)
15.Labrinth - Jealous (04:47)
16.Chawki Feat. Dr. Alban - It's My Life (C'est Ma Vie) (03:32)
17.Coldplay - True Love (04:08)
18.Jul - Je Trouve Pas Le Sommeil (03:27)
19.Mr. Probz - Nothing Really Matters (03:44)
20.Blacko - Le Temps Est Compte (03:13)
21.Timmy Trumpet & Savage - Freaks (Freaks Radio Edit) (02:49)
--

Лог создания рипа

CD 1

Exact Audio Copy V1.0 beta 3 from 29. August 2011
EAC extraction logfile from 23. February 2015, 19:39
Various Artists / NRJ 200% Hits 2015
Used drive  : ASUS    DRW-24B3ST   Adapter: 3  ID: 0
Read mode               : Secure
Utilize accurate stream : Yes
Defeat audio cache      : Yes
Make use of C2 pointers : No
Read offset correction                      : 6
Overread into Lead-In and Lead-Out          : No
Fill up missing offset samples with silence : Yes
Delete leading and trailing silent blocks   : No
Null samples used in CRC calculations       : Yes
Used interface                              : Native Win32 interface for Win NT & 2000
Gap handling                                : Appended to previous track
Used output format              : User Defined Encoder
Selected bitrate                : 1024 kBit/s
Quality                         : High
Add ID3 tag                     : No
Command line compressor         : C:\Program Files (x86)\Exact Audio Copy\FLAC\flac.exe
Additional command line options : -8 -V -T "ARTIST=%artist%" -T "TITLE=%title%" -T "ALBUM=%albumtitle%" -T "DATE=%year%" -T "TRACKNUMBER=%tracknr%" -T "GENRE=%genre%" -T "PERFORMER=%albuminterpret%" -T "COMPOSER=%composer%" %haslyrics%--tag-from-file=LYRICS="%lyricsfile%"%haslyrics% -T "ALBUMARTIST=%albumartist%" -T "DISCNUMBER=%cdnumber%" -T "TOTALDISCS=%totalcds%" -T "TOTALTRACKS=%numtracks%" -T "COMMENT=%comment%" %source% -o %dest%
TOC of the extracted CD
     Track |   Start  |  Length  | Start sector | End sector
    ---------------------------------------------------------
        1  |  0:00.00 |  4:30.43 |         0    |    20292
        2  |  4:30.43 |  4:17.23 |     20293    |    39590
        3  |  8:47.66 |  4:01.36 |     39591    |    57701
        4  | 12:49.27 |  3:46.33 |     57702    |    74684
        5  | 16:35.60 |  2:45.58 |     74685    |    87117
        6  | 19:21.43 |  3:34.26 |     87118    |   103193
        7  | 22:55.69 |  3:14.39 |    103194    |   117782
        8  | 26:10.33 |  2:18.72 |    117783    |   128204
        9  | 28:29.30 |  3:56.02 |    128205    |   145906
       10  | 32:25.32 |  3:01.01 |    145907    |   159482
       11  | 35:26.33 |  3:12.30 |    159483    |   173912
       12  | 38:38.63 |  3:39.11 |    173913    |   190348
       13  | 42:17.74 |  3:35.45 |    190349    |   206518
       14  | 45:53.44 |  3:27.66 |    206519    |   222109
       15  | 49:21.35 |  3:22.39 |    222110    |   237298
       16  | 52:43.74 |  3:16.27 |    237299    |   252025
       17  | 56:00.26 |  3:36.63 |    252026    |   268288
       18  | 59:37.14 |  3:03.56 |    268289    |   282069
       19  | 62:40.70 |  4:44.71 |    282070    |   303440
       20  | 67:25.66 |  3:01.04 |    303441    |   317019
       21  | 70:26.70 |  2:49.11 |    317020    |   329705
Track  1
     Filename C:\VA-NRJ_200_percent_Hits_2015-2CD-FLAC-2015-1nDD\(101) [Mark Ronson Feat. Bruno Mars] Uptown Funk.wav
     Pre-gap length  0:00:02.00
     Peak level 99.9 %
     Extraction speed 3.3 X
     Track quality 99.9 %
     Test CRC 1E049B77
     Copy CRC 1E049B77
     Track not present in AccurateRip database
     Copy OK
Track  2
     Filename C:\VA-NRJ_200_percent_Hits_2015-2CD-FLAC-2015-1nDD\(102) [Sia] Elactic Heart.wav
     Peak level 99.9 %
     Extraction speed 3.5 X
     Track quality 99.9 %
     Test CRC 54E5C427
     Copy CRC 54E5C427
     Track not present in AccurateRip database
     Copy OK
Track  3
     Filename C:\VA-NRJ_200_percent_Hits_2015-2CD-FLAC-2015-1nDD\(103) [Hozier] Take Me To Church.wav
     Peak level 99.9 %
     Extraction speed 4.6 X
     Track quality 100.0 %
     Test CRC 241FA369
     Copy CRC 241FA369
     Track not present in AccurateRip database
     Copy OK
Track  4
     Filename C:\VA-NRJ_200_percent_Hits_2015-2CD-FLAC-2015-1nDD\(104) [Calvin Harris Feat. Ellie Goulding] Outside.wav
     Peak level 99.9 %
     Extraction speed 4.8 X
     Track quality 100.0 %
     Test CRC BFF4660C
     Copy CRC BFF4660C
     Track not present in AccurateRip database
     Copy OK
Track  5
     Filename C:\VA-NRJ_200_percent_Hits_2015-2CD-FLAC-2015-1nDD\(105) [Aronchupa] I'm An Albatraoz.wav
     Peak level 99.9 %
     Extraction speed 4.9 X
     Track quality 100.0 %
     Test CRC C77100E5
     Copy CRC C77100E5
     Track not present in AccurateRip database
     Copy OK
Track  6
     Filename C:\VA-NRJ_200_percent_Hits_2015-2CD-FLAC-2015-1nDD\(106) [Black M] On S'Fait Du Mal.wav
     Peak level 99.9 %
     Extraction speed 5.3 X
     Track quality 100.0 %
     Test CRC 3F50280A
     Copy CRC 3F50280A
     Track not present in AccurateRip database
     Copy OK
Track  7
     Filename C:\VA-NRJ_200_percent_Hits_2015-2CD-FLAC-2015-1nDD\(107) [Will Sparks Feat. Wiley & Elen Levon] Ah Yeah So What (Radio Edit).wav
     Peak level 99.9 %
     Extraction speed 4.2 X
     Track quality 99.9 %
     Test CRC F662A4C3
     Copy CRC F662A4C3
     Track not present in AccurateRip database
     Copy OK
Track  8
     Filename C:\VA-NRJ_200_percent_Hits_2015-2CD-FLAC-2015-1nDD\(108) [Lost Frequencies] Are You With Me (Radio Edit).wav
     Peak level 99.9 %
     Extraction speed 5.3 X
     Track quality 100.0 %
     Test CRC 1C770ABB
     Copy CRC 1C770ABB
     Track not present in AccurateRip database
     Copy OK
Track  9
     Filename C:\VA-NRJ_200_percent_Hits_2015-2CD-FLAC-2015-1nDD\(109) [Ariana Grande Feat. The Weeknd] Love Me Harder.wav
     Peak level 99.9 %
     Extraction speed 4.7 X
     Track quality 99.9 %
     Test CRC 51788CB4
     Copy CRC 51788CB4
     Track not present in AccurateRip database
     Copy OK
Track 10
     Filename C:\VA-NRJ_200_percent_Hits_2015-2CD-FLAC-2015-1nDD\(110) [OMI] Cheerleader (Felix Jaehn Remix) (Radio Edit).wav
     Peak level 99.9 %
     Extraction speed 5.9 X
     Track quality 100.0 %
     Test CRC 4B36D02B
     Copy CRC 4B36D02B
     Track not present in AccurateRip database
     Copy OK
Track 11
     Filename C:\VA-NRJ_200_percent_Hits_2015-2CD-FLAC-2015-1nDD\(111) [David Carreira] Rien a Envier.wav
     Peak level 99.9 %
     Extraction speed 6.2 X
     Track quality 100.0 %
     Test CRC 197FD35E
     Copy CRC 197FD35E
     Track not present in AccurateRip database
     Copy OK
Track 12
     Filename C:\VA-NRJ_200_percent_Hits_2015-2CD-FLAC-2015-1nDD\(112) [Sophia Del Carmen Feat. Pitbull] Lipstick (Radio Edit).wav
     Peak level 99.9 %
     Extraction speed 6.5 X
     Track quality 100.0 %
     Test CRC F2406F6E
     Copy CRC F2406F6E
     Track not present in AccurateRip database
     Copy OK
Track 13
     Filename C:\VA-NRJ_200_percent_Hits_2015-2CD-FLAC-2015-1nDD\(113) [Shanz Feat. Maitre Gims] A Contre Sens (Original Mix).wav
     Peak level 99.9 %
     Extraction speed 6.6 X
     Track quality 100.0 %
     Test CRC 5E59C00D
     Copy CRC 5E59C00D
     Track not present in AccurateRip database
     Copy OK
Track 14
     Filename C:\VA-NRJ_200_percent_Hits_2015-2CD-FLAC-2015-1nDD\(114) [Hardwell Feat. Harrison] Sally (Clean Radio Edit).wav
     Peak level 99.9 %
     Extraction speed 6.7 X
     Track quality 100.0 %
     Test CRC 8FB8E819
     Copy CRC 8FB8E819
     Track not present in AccurateRip database
     Copy OK
Track 15
     Filename C:\VA-NRJ_200_percent_Hits_2015-2CD-FLAC-2015-1nDD\(115) [Shy'M] L'effet De Serre.wav
     Peak level 99.9 %
     Extraction speed 5.3 X
     Track quality 99.9 %
     Test CRC 20119A08
     Copy CRC 20119A08
     Track not present in AccurateRip database
     Copy OK
Track 16
     Filename C:\VA-NRJ_200_percent_Hits_2015-2CD-FLAC-2015-1nDD\(116) [George Ezra] Blame It On Me.wav
     Peak level 91.7 %
     Extraction speed 7.0 X
     Track quality 100.0 %
     Test CRC EE26C31C
     Copy CRC EE26C31C
     Track not present in AccurateRip database
     Copy OK
Track 17
     Filename C:\VA-NRJ_200_percent_Hits_2015-2CD-FLAC-2015-1nDD\(117) [Global Deejays & Envegas] Always Hardcore (Radio Edit).wav
     Peak level 99.9 %
     Extraction speed 7.3 X
     Track quality 100.0 %
     Test CRC 3CA1D2D3
     Copy CRC 3CA1D2D3
     Track not present in AccurateRip database
     Copy OK
Track 18
     Filename C:\VA-NRJ_200_percent_Hits_2015-2CD-FLAC-2015-1nDD\(118) [London Grammar] Hey Now (J'adore Dior Remix by The Shoes).wav
     Peak level 99.9 %
     Extraction speed 7.2 X
     Track quality 100.0 %
     Test CRC B8956E62
     Copy CRC B8956E62
     Track not present in AccurateRip database
     Copy OK
Track 19
     Filename C:\VA-NRJ_200_percent_Hits_2015-2CD-FLAC-2015-1nDD\(119) [Pharrell Williams] Gust Of Wind.wav
     Peak level 99.9 %
     Extraction speed 7.9 X
     Track quality 100.0 %
     Test CRC 7D07F8A0
     Copy CRC 7D07F8A0
     Track not present in AccurateRip database
     Copy OK
Track 20
     Filename C:\VA-NRJ_200_percent_Hits_2015-2CD-FLAC-2015-1nDD\(120) [Meghan Trainor] Lips Are Movin.wav
     Peak level 99.9 %
     Extraction speed 7.5 X
     Track quality 100.0 %
     Test CRC BBC429DD
     Copy CRC BBC429DD
     Track not present in AccurateRip database
     Copy OK
Track 21
     Filename C:\VA-NRJ_200_percent_Hits_2015-2CD-FLAC-2015-1nDD\(121) [Kendji Girac] Andalouse.wav
     Peak level 99.9 %
     Extraction speed 7.6 X
     Track quality 100.0 %
     Test CRC 03131158
     Copy CRC 03131158
     Track not present in AccurateRip database
     Copy OK
None of the tracks are present in the AccurateRip database
No errors occurred
End of status report
---- CUETools DB Plugin V2.1.3
[CTDB TOCID: Vw.WHkzUyPm1CkkPyRNFHeTbNDA-] found, Submit result: Vw.WHkzUyPm1CkkPyRNFHeTbNDA- has been confirmed
[2cd9c9d9] (2/2) Accurately ripped

CD 2

Exact Audio Copy V1.0 beta 3 from 29. August 2011
EAC extraction logfile from 24. February 2015, 11:25
Various Artists / NRJ 200% Hits 2015
Used drive  : ASUS    DRW-24B3ST   Adapter: 3  ID: 0
Read mode               : Secure
Utilize accurate stream : Yes
Defeat audio cache      : Yes
Make use of C2 pointers : No
Read offset correction                      : 6
Overread into Lead-In and Lead-Out          : No
Fill up missing offset samples with silence : Yes
Delete leading and trailing silent blocks   : No
Null samples used in CRC calculations       : Yes
Used interface                              : Native Win32 interface for Win NT & 2000
Gap handling                                : Appended to previous track
Used output format              : User Defined Encoder
Selected bitrate                : 1024 kBit/s
Quality                         : High
Add ID3 tag                     : No
Command line compressor         : C:\Program Files (x86)\Exact Audio Copy\FLAC\flac.exe
Additional command line options : -8 -V -T "ARTIST=%artist%" -T "TITLE=%title%" -T "ALBUM=%albumtitle%" -T "DATE=%year%" -T "TRACKNUMBER=%tracknr%" -T "GENRE=%genre%" -T "PERFORMER=%albuminterpret%" -T "COMPOSER=%composer%" %haslyrics%--tag-from-file=LYRICS="%lyricsfile%"%haslyrics% -T "ALBUMARTIST=%albumartist%" -T "DISCNUMBER=%cdnumber%" -T "TOTALDISCS=%totalcds%" -T "TOTALTRACKS=%numtracks%" -T "COMMENT=%comment%" %source% -o %dest%
TOC of the extracted CD
     Track |   Start  |  Length  | Start sector | End sector
    ---------------------------------------------------------
        1  |  0:00.00 |  3:41.15 |         0    |    16589
        2  |  3:41.15 |  3:23.72 |     16590    |    31886
        3  |  7:05.12 |  3:34.21 |     31887    |    47957
        4  | 10:39.33 |  4:05.02 |     47958    |    66334
        5  | 14:44.35 |  3:18.12 |     66335    |    81196
        6  | 18:02.47 |  2:59.13 |     81197    |    94634
        7  | 21:01.60 |  3:46.33 |     94635    |   111617
        8  | 24:48.18 |  4:03.73 |    111618    |   129915
        9  | 28:52.16 |  3:43.29 |    129916    |   146669
       10  | 32:35.45 |  3:27.41 |    146670    |   162235
       11  | 36:03.11 |  2:19.02 |    162236    |   172662
       12  | 38:22.13 |  3:34.05 |    172663    |   188717
       13  | 41:56.18 |  3:26.52 |    188718    |   204219
       14  | 45:22.70 |  3:36.01 |    204220    |   220420
       15  | 48:58.71 |  4:46.51 |    220421    |   241921
       16  | 53:45.47 |  3:31.17 |    241922    |   257763
       17  | 57:16.64 |  4:07.18 |    257764    |   276306
       18  | 61:24.07 |  3:26.14 |    276307    |   291770
       19  | 64:50.21 |  3:43.02 |    291771    |   308497
       20  | 68:33.23 |  3:12.73 |    308498    |   322970
       21  | 71:46.21 |  2:48.56 |    322971    |   335626
Track  1
     Filename C:\VA-NRJ_200_percent_Hits_2015-2CD-FLAC-2015-1nDD\(201) [Christine And The Queens] Saint Claude (Domenicotorti Remix).wav
     Pre-gap length  0:00:02.00
     Peak level 99.9 %
     Extraction speed 3.8 X
     Track quality 100.0 %
     Test CRC CD4B7071
     Copy CRC CD4B7071
     Track not present in AccurateRip database
     Copy OK
Track  2
     Filename C:\VA-NRJ_200_percent_Hits_2015-2CD-FLAC-2015-1nDD\(202) [David Guetta Feat. Sam Martin] Dangerous.wav
     Peak level 99.9 %
     Extraction speed 4.1 X
     Track quality 100.0 %
     Test CRC 10DB2400
     Copy CRC 10DB2400
     Track not present in AccurateRip database
     Copy OK
Track  3
     Filename C:\VA-NRJ_200_percent_Hits_2015-2CD-FLAC-2015-1nDD\(203) [Ella Henderson] Ghost.wav
     Peak level 99.9 %
     Extraction speed 4.4 X
     Track quality 100.0 %
     Test CRC D16B87A2
     Copy CRC D16B87A2
     Track not present in AccurateRip database
     Copy OK
Track  4
     Filename C:\VA-NRJ_200_percent_Hits_2015-2CD-FLAC-2015-1nDD\(204) [Josef Salvat] Diamonds.wav
     Peak level 99.9 %
     Extraction speed 3.9 X
     Track quality 99.9 %
     Test CRC EB44415D
     Copy CRC EB44415D
     Track not present in AccurateRip database
     Copy OK
Track  5
     Filename C:\VA-NRJ_200_percent_Hits_2015-2CD-FLAC-2015-1nDD\(205) [Soprano Feat. Uncle Phil] Fresh Prince.wav
     Peak level 99.9 %
     Extraction speed 4.9 X
     Track quality 100.0 %
     Test CRC 86A5BB0D
     Copy CRC 86A5BB0D
     Track not present in AccurateRip database
     Copy OK
Track  6
     Filename C:\VA-NRJ_200_percent_Hits_2015-2CD-FLAC-2015-1nDD\(206) [Robin Schulz Feat. Jasmine Thompson] Sun Goes Down (Radio Mix).wav
     Peak level 99.9 %
     Extraction speed 5.1 X
     Track quality 100.0 %
     Test CRC 85CCBB80
     Copy CRC 85CCBB80
     Track not present in AccurateRip database
     Copy OK
Track  7
     Filename C:\VA-NRJ_200_percent_Hits_2015-2CD-FLAC-2015-1nDD\(207) [One Direction] Night Changes.wav
     Peak level 99.9 %
     Extraction speed 5.4 X
     Track quality 100.0 %
     Test CRC FAE3A382
     Copy CRC FAE3A382
     Track not present in AccurateRip database
     Copy OK
Track  8
     Filename C:\VA-NRJ_200_percent_Hits_2015-2CD-FLAC-2015-1nDD\(208) [The Script] Superheroes.wav
     Peak level 99.9 %
     Extraction speed 5.8 X
     Track quality 100.0 %
     Test CRC 7C0D9A49
     Copy CRC 7C0D9A49
     Track not present in AccurateRip database
     Copy OK
Track  9
     Filename C:\VA-NRJ_200_percent_Hits_2015-2CD-FLAC-2015-1nDD\(209) [ZHU] Faded.wav
     Peak level 99.9 %
     Extraction speed 5.9 X
     Track quality 100.0 %
     Test CRC B092F57D
     Copy CRC B092F57D
     Track not present in AccurateRip database
     Copy OK
Track 10
     Filename C:\VA-NRJ_200_percent_Hits_2015-2CD-FLAC-2015-1nDD\(210) [Olivier Dion] Si J'etais Son Soleil (Radio Edit).wav
     Peak level 99.9 %
     Extraction speed 6.1 X
     Track quality 100.0 %
     Test CRC 51570868
     Copy CRC 51570868
     Track not present in AccurateRip database
     Copy OK
Track 11
     Filename C:\VA-NRJ_200_percent_Hits_2015-2CD-FLAC-2015-1nDD\(211) [Tom Odell] Real Love.wav
     Peak level 99.9 %
     Extraction speed 5.8 X
     Track quality 100.0 %
     Test CRC 143D7F3E
     Copy CRC 143D7F3E
     Track not present in AccurateRip database
     Copy OK
Track 12
     Filename C:\VA-NRJ_200_percent_Hits_2015-2CD-FLAC-2015-1nDD\(212) [H-Magnum] Prohibe.wav
     Peak level 99.9 %
     Extraction speed 6.4 X
     Track quality 100.0 %
     Test CRC AA4D1D1C
     Copy CRC AA4D1D1C
     Track not present in AccurateRip database
     Copy OK
Track 13
     Filename C:\VA-NRJ_200_percent_Hits_2015-2CD-FLAC-2015-1nDD\(213) [Nicole Scherzinger] Run.wav
     Peak level 99.9 %
     Extraction speed 6.5 X
     Track quality 100.0 %
     Test CRC 883E3A30
     Copy CRC 883E3A30
     Track not present in AccurateRip database
     Copy OK
Track 14
     Filename C:\VA-NRJ_200_percent_Hits_2015-2CD-FLAC-2015-1nDD\(214) [Nico & Vinz] In Your Arms (Dans Tes Bras).wav
     Peak level 99.9 %
     Extraction speed 6.8 X
     Track quality 100.0 %
     Test CRC 13268B03
     Copy CRC 13268B03
     Track not present in AccurateRip database
     Copy OK
Track 15
     Filename C:\VA-NRJ_200_percent_Hits_2015-2CD-FLAC-2015-1nDD\(215) [Labrinth] Jealous.wav
     Peak level 99.9 %
     Extraction speed 7.2 X
     Track quality 100.0 %
     Test CRC B56F3CA3
     Copy CRC B56F3CA3
     Track not present in AccurateRip database
     Copy OK
Track 16
     Filename C:\VA-NRJ_200_percent_Hits_2015-2CD-FLAC-2015-1nDD\(216) [Chawki Feat. Dr. Alban] It's My Life (C'est Ma Vie).wav
     Peak level 99.9 %
     Extraction speed 7.2 X
     Track quality 100.0 %
     Test CRC 14A97158
     Copy CRC 14A97158
     Track not present in AccurateRip database
     Copy OK
Track 17
     Filename C:\VA-NRJ_200_percent_Hits_2015-2CD-FLAC-2015-1nDD\(217) [Coldplay] True Love.wav
     Peak level 99.9 %
     Extraction speed 7.5 X
     Track quality 100.0 %
     Test CRC 415ABAED
     Copy CRC 415ABAED
     Track not present in AccurateRip database
     Copy OK
Track 18
     Filename C:\VA-NRJ_200_percent_Hits_2015-2CD-FLAC-2015-1nDD\(218) [Jul] Je Trouve Pas Le Sommeil.wav
     Peak level 99.9 %
     Extraction speed 5.8 X
     Track quality 99.9 %
     Test CRC DD923A45
     Copy CRC DD923A45
     Track not present in AccurateRip database
     Copy OK
Track 19
     Filename C:\VA-NRJ_200_percent_Hits_2015-2CD-FLAC-2015-1nDD\(219) [Mr. Probz] Nothing Really Matters.wav
     Peak level 99.9 %
     Extraction speed 7.6 X
     Track quality 100.0 %
     Test CRC AD28BDF1
     Copy CRC AD28BDF1
     Track not present in AccurateRip database
     Copy OK
Track 20
     Filename C:\VA-NRJ_200_percent_Hits_2015-2CD-FLAC-2015-1nDD\(220) [Blacko] Le Temps Est Compte.wav
     Peak level 99.9 %
     Extraction speed 7.7 X
     Track quality 100.0 %
     Test CRC 94CB2194
     Copy CRC 94CB2194
     Track not present in AccurateRip database
     Copy OK
Track 21
     Filename C:\VA-NRJ_200_percent_Hits_2015-2CD-FLAC-2015-1nDD\(221) [Timmy Trumpet & Savage] Freaks (Freaks Radio Edit).wav
     Peak level 99.9 %
     Extraction speed 7.6 X
     Track quality 100.0 %
     Test CRC 4C4A7BDC
     Copy CRC 4C4A7BDC
     Track not present in AccurateRip database
     Copy OK
None of the tracks are present in the AccurateRip database
No errors occurred
End of status report
---- CUETools DB Plugin V2.1.3
[CTDB TOCID: BXXP4cFlRhg0e407gx7257ojktY-] found, Submit result: BXXP4cFlRhg0e407gx7257ojktY- has been confirmed
[e605428e] (1/1) Accurately ripped

Индексная карта (non-compilant .cue)

CD 1

REM GENRE Dance
REM DATE 2015
REM DISCID 45112C15
REM COMMENT ExactAudioCopy v1.0b3
PERFORMER "VA"
TITLE "NRJ 200% Hits 2015"
FILE "01. Mark Ronson feat. Bruno Mars - Uptown Funk.flac" WAVE
  TRACK 01 AUDIO
    TITLE "Uptown Funk"
    PERFORMER "Mark Ronson feat. Bruno Mars"
    ISRC GBARL1401524
    FLAGS DCP
    INDEX 01 00:00:00
FILE "02. Sia - Elactic Heart.flac" WAVE
  TRACK 02 AUDIO
    TITLE "Elactic Heart"
    PERFORMER "Sia"
    ISRC USRC11400976
    FLAGS DCP
    INDEX 01 00:00:00
FILE "03. Hozier - Take Me To Church.flac" WAVE
  TRACK 03 AUDIO
    TITLE "Take Me To Church"
    PERFORMER "Hozier"
    ISRC IEACJ1300031
    FLAGS DCP
    INDEX 01 00:00:00
FILE "04. Calvin Harris feat. Ellie Goulding - Outside.flac" WAVE
  TRACK 04 AUDIO
    TITLE "Outside"
    PERFORMER "Calvin Harris feat. Ellie Goulding"
    ISRC GBARL1401201
    FLAGS DCP
    INDEX 01 00:00:00
FILE "05. Aronchupa - I'm An Albatraoz.flac" WAVE
  TRACK 05 AUDIO
    TITLE "I'm An Albatraoz"
    PERFORMER "Aronchupa"
    ISRC SEYOK1406001
    FLAGS DCP
    INDEX 01 00:00:00
FILE "06. Black M - On S'Fait Du Mal.flac" WAVE
  TRACK 06 AUDIO
    TITLE "On S'Fait Du Mal"
    PERFORMER "Black M"
    ISRC FR7U61400544
    FLAGS DCP
    INDEX 01 00:00:00
FILE "07. Will Sparks feat. Wiley & Elen Levon - Ah Yeah So What (Radio Edit).flac" WAVE
  TRACK 07 AUDIO
    TITLE "Ah Yeah So What (Radio Edit)"
    PERFORMER "Will Sparks feat. Wiley & Elen Levon"
    ISRC AUNV01400779
    FLAGS DCP
    INDEX 01 00:00:00
FILE "08. Lost Frequencies - Are You With Me (Radio Edit).flac" WAVE
  TRACK 08 AUDIO
    TITLE "Are You With Me (Radio Edit)"
    PERFORMER "Lost Frequencies"
    ISRC NLF711403495
    FLAGS DCP
    INDEX 01 00:00:00
FILE "09. Ariana Grande feat. The Weeknd - Love Me Harder.flac" WAVE
  TRACK 09 AUDIO
    TITLE "Love Me Harder"
    PERFORMER "Ariana Grande feat. The Weeknd"
    ISRC USUM71409728
    FLAGS DCP
    INDEX 01 00:00:00
FILE "10. OMI - Cheerleader (Felix Jaehn Remix) (Radio Edit).flac" WAVE
  TRACK 10 AUDIO
    TITLE "Cheerleader (Felix Jaehn Remix) (Radio Edit)"
    PERFORMER "OMI"
    ISRC USUS11202574
    FLAGS DCP
    INDEX 01 00:00:00
FILE "11. David Carreira - Rien a Envier.flac" WAVE
  TRACK 11 AUDIO
    TITLE "Rien a Envier"
    PERFORMER "David Carreira"
    ISRC FRZ041400303
    FLAGS DCP
    INDEX 01 00:00:00
FILE "12. Sophia Del Carmen feat. Pitbull - Lipstick (Radio Edit).flac" WAVE
  TRACK 12 AUDIO
    TITLE "Lipstick (Radio Edit)"
    PERFORMER "Sophia Del Carmen feat. Pitbull"
    ISRC QMT2X1300049
    FLAGS DCP
    INDEX 01 00:00:00
FILE "13. Shanz feat. Maitre Gims - A Contre Sens (Original Mix).flac" WAVE
  TRACK 13 AUDIO
    TITLE "A Contre Sens (Original Mix)"
    PERFORMER "Shanz feat. Maitre Gims"
    ISRC FR2PY1404600
    FLAGS DCP
    INDEX 01 00:00:00
FILE "14. Hardwell feat. Harrison - Sally (Clean Radio Edit).flac" WAVE
  TRACK 14 AUDIO
    TITLE "Sally (Clean Radio Edit)"
    PERFORMER "Hardwell feat. Harrison"
    ISRC NLS241402225
    FLAGS DCP
    INDEX 01 00:00:00
FILE "15. Shy'M - L'effet De Serre.flac" WAVE
  TRACK 15 AUDIO
    TITLE "L'effet De Serre"
    PERFORMER "Shy'M"
    ISRC FRZ041400484
    FLAGS DCP
    INDEX 01 00:00:00
FILE "16. George Ezra - Blame It On Me.flac" WAVE
  TRACK 16 AUDIO
    TITLE "Blame It On Me"
    PERFORMER "George Ezra"
    ISRC GBARL1400476
    FLAGS DCP
    INDEX 01 00:00:00
FILE "17. Global Deejays & Envegas - Always Hardcore (Radio Edit).flac" WAVE
  TRACK 17 AUDIO
    TITLE "Always Hardcore (Radio Edit)"
    PERFORMER "Global Deejays & Envegas"
    ISRC DEAX11400065
    FLAGS DCP
    INDEX 01 00:00:00
FILE "18. London Grammar - Hey Now (J'adore Dior Remix by The Shoes).flac" WAVE
  TRACK 18 AUDIO
    TITLE "Hey Now (J'adore Dior Remix by The Shoes)"
    PERFORMER "London Grammar"
    ISRC GBCEN1400893
    FLAGS DCP
    INDEX 01 00:00:00
FILE "19. Pharrell Williams - Gust Of Wind.flac" WAVE
  TRACK 19 AUDIO
    TITLE "Gust Of Wind"
    PERFORMER "Pharrell Williams"
    ISRC USSM11400862
    FLAGS DCP
    INDEX 01 00:00:00
FILE "20. Meghan Trainor - Lips Are Movin.flac" WAVE
  TRACK 20 AUDIO
    TITLE "Lips Are Movin"
    PERFORMER "Meghan Trainor"
    ISRC USSM11408349
    FLAGS DCP
    INDEX 01 00:00:00
FILE "21. Kendji Girac - Andalouse.flac" WAVE
  TRACK 21 AUDIO
    TITLE "Andalouse"
    PERFORMER "Kendji Girac"
    ISRC FRUM71401766
    FLAGS DCP
    INDEX 01 00:00:00

CD 2

REM GENRE Dance
REM DATE 2015
REM DISCID 30117B15
REM COMMENT "ExactAudioCopy v1.0b3"
PERFORMER "VA"
TITLE "NRJ 200% Hits 2015"
FILE "01. Christine And The Queens - Saint Claude (Domenicotorti Remix).flac" WAVE
  TRACK 01 AUDIO
    TITLE "Saint Claude (Domenicotorti Remix)"
    PERFORMER "Christine And The Queens"
    ISRC FR6P11403060
    FLAGS DCP
    INDEX 01 00:00:00
FILE "02. David Guetta feat. Sam Martin - Dangerous.flac" WAVE
  TRACK 02 AUDIO
    TITLE "Dangerous"
    PERFORMER "David Guetta feat. Sam Martin"
    ISRC GB28K1400036
    FLAGS DCP
    INDEX 01 00:00:00
FILE "03. Ella Henderson - Ghost.flac" WAVE
  TRACK 03 AUDIO
    TITLE "Ghost"
    PERFORMER "Ella Henderson"
    ISRC GBHMU1400029
    FLAGS DCP
    INDEX 01 00:00:00
FILE "04. Josef Salvat - Diamonds.flac" WAVE
  TRACK 04 AUDIO
    TITLE "Diamonds"
    PERFORMER "Josef Salvat"
    ISRC GBARL1401157
    FLAGS DCP
    INDEX 01 00:00:00
FILE "05. Soprano feat. Uncle Phil - Fresh Prince.flac" WAVE
  TRACK 05 AUDIO
    TITLE "Fresh Prince"
    PERFORMER "Soprano feat. Uncle Phil"
    ISRC FRZ111400725
    FLAGS DCP
    INDEX 01 00:00:00
FILE "06. Robin Schulz feat. Jasmine Thompson - Sun Goes Down (Radio Mix).flac" WAVE
  TRACK 06 AUDIO
    TITLE "Sun Goes Down (Radio Mix)"
    PERFORMER "Robin Schulz feat. Jasmine Thompson"
    ISRC DEA621400666
    FLAGS DCP
    INDEX 01 00:00:00
FILE "07. One Direction - Night Changes.flac" WAVE
  TRACK 07 AUDIO
    TITLE "Night Changes"
    PERFORMER "One Direction"
    ISRC GBHMU1400165
    FLAGS DCP
    INDEX 01 00:00:00
FILE "08. The Script - Superheroes.flac" WAVE
  TRACK 08 AUDIO
    TITLE "Superheroes"
    PERFORMER "The Script"
    ISRC GBARL1400978
    FLAGS DCP
    INDEX 01 00:00:00
FILE "09. ZHU - Faded.flac" WAVE
  TRACK 09 AUDIO
    TITLE "Faded"
    PERFORMER "ZHU"
    ISRC QMALR1400001
    FLAGS DCP
    INDEX 01 00:00:00
FILE "10. Olivier Dion - Si J'etais Son Soleil (Radio Edit).flac" WAVE
  TRACK 10 AUDIO
    TITLE "Si J'etais Son Soleil (Radio Edit)"
    PERFORMER "Olivier Dion"
    ISRC CAQ661468005
    FLAGS DCP
    INDEX 01 00:00:00
FILE "11. Tom Odell - Real Love.flac" WAVE
  TRACK 11 AUDIO
    TITLE "Real Love"
    PERFORMER "Tom Odell"
    ISRC GBARL1401541
    FLAGS DCP
    INDEX 01 00:00:00
FILE "12. H-Magnum - Prohibe.flac" WAVE
  TRACK 12 AUDIO
    TITLE "Prohibe"
    PERFORMER "H-Magnum"
    ISRC FR2PY1405900
    FLAGS DCP
    INDEX 01 00:00:00
FILE "13. Nicole Scherzinger - Run.flac" WAVE
  TRACK 13 AUDIO
    TITLE "Run"
    PERFORMER "Nicole Scherzinger"
    ISRC GBARL1401185
    FLAGS DCP
    INDEX 01 00:00:00
FILE "14. Nico & Vinz - In Your Arms (Dans Tes Bras).flac" WAVE
  TRACK 14 AUDIO
    TITLE "In Your Arms (Dans Tes Bras)"
    PERFORMER "Nico & Vinz"
    ISRC USWB11403421
    FLAGS DCP
    INDEX 01 00:00:00
FILE "15. Labrinth - Jealous.flac" WAVE
  TRACK 15 AUDIO
    TITLE "Jealous"
    PERFORMER "Labrinth"
    ISRC GBHMU1400291
    FLAGS DCP
    INDEX 01 00:00:00
FILE "16. Chawki feat. Dr. Alban - It's My Life (C'est Ma Vie).flac" WAVE
  TRACK 16 AUDIO
    TITLE "It's My Life (C'est Ma Vie)"
    PERFORMER "Chawki feat. Dr. Alban"
    ISRC QMT2X1400021
    FLAGS DCP
    INDEX 01 00:00:00
FILE "17. Coldplay - True Love.flac" WAVE
  TRACK 17 AUDIO
    TITLE "True Love"
    PERFORMER "Coldplay"
    ISRC GBAYE1400214
    FLAGS DCP
    INDEX 01 00:00:00
FILE "18. Jul - Je Trouve Pas Le Sommeil.flac" WAVE
  TRACK 18 AUDIO
    TITLE "Je Trouve Pas Le Sommeil"
    PERFORMER "Jul"
    ISRC FR0U91402305
    FLAGS DCP
    INDEX 01 00:00:00
FILE "19. Mr. Probz - Nothing Really Matters.flac" WAVE
  TRACK 19 AUDIO
    TITLE "Nothing Really Matters"
    PERFORMER "Mr. Probz"
    ISRC NLB8R1400010
    FLAGS DCP
    INDEX 01 00:00:00
FILE "20. Blacko - Le Temps Est Compte.flac" WAVE
  TRACK 20 AUDIO
    TITLE "Le Temps Est Compte"
    PERFORMER "Blacko"
    ISRC FR1HP1400010
    FLAGS DCP
    INDEX 01 00:00:00
FILE "21. Timmy Trumpet & Savage - Freaks (Freaks Radio Edit).flac" WAVE
  TRACK 21 AUDIO
    TITLE "Freaks (Freaks Radio Edit)"
    PERFORMER "Timmy Trumpet & Savage"
    ISRC AUNV01400450
    FLAGS DCP
    INDEX 01 00:00:00

Лог Audiochecker

CD 1

AUDIOCHECKER v2.0 beta (build 457) - by Dester - opdester@freemail.hu
~~~~~~~~~~~~~~~~~~~~~~~~~~~~~~~~~~
Started at: понедельник, 25. 05. 2015. - 12:56.36
21 files found
01 -===- D:\Torrent files\VA - NRJ 200% Hits 2015 (2CD)(Flac+.cue)\CD1\01. Mark Ronson feat. Bruno Mars - Uptown Funk.flac
  Extracted successfully
  Conclusion: this track is CDDA with probability 100%
  Tempfile successfully deleted.
02 -===- D:\Torrent files\VA - NRJ 200% Hits 2015 (2CD)(Flac+.cue)\CD1\02. Sia - Elactic Heart.flac
  Extracted successfully
  Conclusion: this track is CDDA with probability 100%
  Tempfile successfully deleted.
03 -===- D:\Torrent files\VA - NRJ 200% Hits 2015 (2CD)(Flac+.cue)\CD1\03. Hozier - Take Me To Church.flac
  Extracted successfully
  Conclusion: this track is CDDA with probability 100%
  Tempfile successfully deleted.
04 -===- D:\Torrent files\VA - NRJ 200% Hits 2015 (2CD)(Flac+.cue)\CD1\04. Calvin Harris feat. Ellie Goulding - Outside.flac
  Extracted successfully
  Conclusion: this track is CDDA with probability 100%
  Tempfile successfully deleted.
05 -===- D:\Torrent files\VA - NRJ 200% Hits 2015 (2CD)(Flac+.cue)\CD1\05. Aronchupa - I'm An Albatraoz.flac
  Extracted successfully
  Conclusion: this track is CDDA with probability 100%
  Tempfile successfully deleted.
06 -===- D:\Torrent files\VA - NRJ 200% Hits 2015 (2CD)(Flac+.cue)\CD1\06. Black M - On S'Fait Du Mal.flac
  Extracted successfully
  Conclusion: this track is CDDA with probability 100%
  Tempfile successfully deleted.
07 -===- D:\Torrent files\VA - NRJ 200% Hits 2015 (2CD)(Flac+.cue)\CD1\07. Will Sparks feat. Wiley & Elen Levon - Ah Yeah So What (Radio Edit).flac
  Extracted successfully
  Conclusion: this track is CDDA with probability 100%
  Tempfile successfully deleted.
08 -===- D:\Torrent files\VA - NRJ 200% Hits 2015 (2CD)(Flac+.cue)\CD1\08. Lost Frequencies - Are You With Me (Radio Edit).flac
  Extracted successfully
  Conclusion: this track is CDDA with probability 94%
  Tempfile successfully deleted.
09 -===- D:\Torrent files\VA - NRJ 200% Hits 2015 (2CD)(Flac+.cue)\CD1\09. Ariana Grande feat. The Weeknd - Love Me Harder.flac
  Extracted successfully
  Conclusion: this track is CDDA with probability 100%
  Tempfile successfully deleted.
10 -===- D:\Torrent files\VA - NRJ 200% Hits 2015 (2CD)(Flac+.cue)\CD1\10. OMI - Cheerleader (Felix Jaehn Remix) (Radio Edit).flac
  Extracted successfully
  Conclusion: this track is CDDA with probability 100%
  Tempfile successfully deleted.
11 -===- D:\Torrent files\VA - NRJ 200% Hits 2015 (2CD)(Flac+.cue)\CD1\11. David Carreira - Rien a Envier.flac
  Extracted successfully
  Conclusion: this track is CDDA with probability 100%
  Tempfile successfully deleted.
12 -===- D:\Torrent files\VA - NRJ 200% Hits 2015 (2CD)(Flac+.cue)\CD1\12. Sophia Del Carmen feat. Pitbull - Lipstick (Radio Edit).flac
  Extracted successfully
  Conclusion: this track is CDDA with probability 100%
  Tempfile successfully deleted.
13 -===- D:\Torrent files\VA - NRJ 200% Hits 2015 (2CD)(Flac+.cue)\CD1\13. Shanz feat. Maitre Gims - A Contre Sens (Original Mix).flac
  Extracted successfully
  Conclusion: this track is CDDA with probability 100%
  Tempfile successfully deleted.
14 -===- D:\Torrent files\VA - NRJ 200% Hits 2015 (2CD)(Flac+.cue)\CD1\14. Hardwell feat. Harrison - Sally (Clean Radio Edit).flac
  Extracted successfully
  Conclusion: this track is CDDA with probability 100%
  Tempfile successfully deleted.
15 -===- D:\Torrent files\VA - NRJ 200% Hits 2015 (2CD)(Flac+.cue)\CD1\15. Shy'M - L'effet De Serre.flac
  Extracted successfully
  Conclusion: this track is CDDA with probability 100%
  Tempfile successfully deleted.
16 -===- D:\Torrent files\VA - NRJ 200% Hits 2015 (2CD)(Flac+.cue)\CD1\16. George Ezra - Blame It On Me.flac
  Extracted successfully
  Conclusion: this track is CDDA with probability 99%
  Tempfile successfully deleted.
17 -===- D:\Torrent files\VA - NRJ 200% Hits 2015 (2CD)(Flac+.cue)\CD1\17. Global Deejays & Envegas - Always Hardcore (Radio Edit).flac
  Extracted successfully
  Conclusion: this track is CDDA with probability 100%
  Tempfile successfully deleted.
18 -===- D:\Torrent files\VA - NRJ 200% Hits 2015 (2CD)(Flac+.cue)\CD1\18. London Grammar - Hey Now (J'adore Dior Remix by The Shoes).flac
  Extracted successfully
  Conclusion: this track is CDDA with probability 100%
  Tempfile successfully deleted.
19 -===- D:\Torrent files\VA - NRJ 200% Hits 2015 (2CD)(Flac+.cue)\CD1\19. Pharrell Williams - Gust Of Wind.flac
  Extracted successfully
  Conclusion: this track is CDDA with probability 100%
  Tempfile successfully deleted.
20 -===- D:\Torrent files\VA - NRJ 200% Hits 2015 (2CD)(Flac+.cue)\CD1\20. Meghan Trainor - Lips Are Movin.flac
  Extracted successfully
  Conclusion: this track is CDDA with probability 100%
  Tempfile successfully deleted.
21 -===- D:\Torrent files\VA - NRJ 200% Hits 2015 (2CD)(Flac+.cue)\CD1\21. Kendji Girac - Andalouse.flac
  Extracted successfully
  Conclusion: this track is CDDA with probability 100%
  Tempfile successfully deleted.
Finished at: понедельник, 25. 05. 2015. - 13:00.32 (operation time: 0:03.56)

CD 2

AUDIOCHECKER v2.0 beta (build 457) - by Dester - opdester@freemail.hu
~~~~~~~~~~~~~~~~~~~~~~~~~~~~~~~~~~
Started at: понедельник, 25. 05. 2015. - 13:00.51
21 files found
01 -===- D:\Torrent files\VA - NRJ 200% Hits 2015 (2CD)(Flac+.cue)\CD2\01. Christine And The Queens - Saint Claude (Domenicotorti Remix).flac
  Extracted successfully
  Conclusion: this track is CDDA with probability 100%
  Tempfile successfully deleted.
02 -===- D:\Torrent files\VA - NRJ 200% Hits 2015 (2CD)(Flac+.cue)\CD2\02. David Guetta feat. Sam Martin - Dangerous.flac
  Extracted successfully
  Conclusion: this track is CDDA with probability 100%
  Tempfile successfully deleted.
03 -===- D:\Torrent files\VA - NRJ 200% Hits 2015 (2CD)(Flac+.cue)\CD2\03. Ella Henderson - Ghost.flac
  Extracted successfully
  Conclusion: this track is CDDA with probability 100%
  Tempfile successfully deleted.
04 -===- D:\Torrent files\VA - NRJ 200% Hits 2015 (2CD)(Flac+.cue)\CD2\04. Josef Salvat - Diamonds.flac
  Extracted successfully
  Conclusion: this track is CDDA with probability 100%
  Tempfile successfully deleted.
05 -===- D:\Torrent files\VA - NRJ 200% Hits 2015 (2CD)(Flac+.cue)\CD2\05. Soprano feat. Uncle Phil - Fresh Prince.flac
  Extracted successfully
  Conclusion: this track is CDDA with probability 100%
  Tempfile successfully deleted.
06 -===- D:\Torrent files\VA - NRJ 200% Hits 2015 (2CD)(Flac+.cue)\CD2\06. Robin Schulz feat. Jasmine Thompson - Sun Goes Down (Radio Mix).flac
  Extracted successfully
  Conclusion: this track is CDDA with probability 100%
  Tempfile successfully deleted.
07 -===- D:\Torrent files\VA - NRJ 200% Hits 2015 (2CD)(Flac+.cue)\CD2\07. One Direction - Night Changes.flac
  Extracted successfully
  Conclusion: this track is CDDA with probability 100%
  Tempfile successfully deleted.
08 -===- D:\Torrent files\VA - NRJ 200% Hits 2015 (2CD)(Flac+.cue)\CD2\08. The Script - Superheroes.flac
  Extracted successfully
  Conclusion: this track is CDDA with probability 99%
  Tempfile successfully deleted.
09 -===- D:\Torrent files\VA - NRJ 200% Hits 2015 (2CD)(Flac+.cue)\CD2\09. ZHU - Faded.flac
  Extracted successfully
  Conclusion: this track is CDDA with probability 100%
  Tempfile successfully deleted.
10 -===- D:\Torrent files\VA - NRJ 200% Hits 2015 (2CD)(Flac+.cue)\CD2\10. Olivier Dion - Si J'etais Son Soleil (Radio Edit).flac
  Extracted successfully
  Conclusion: this track is CDDA with probability 100%
  Tempfile successfully deleted.
11 -===- D:\Torrent files\VA - NRJ 200% Hits 2015 (2CD)(Flac+.cue)\CD2\11. Tom Odell - Real Love.flac
  Extracted successfully
  Conclusion: this track is CDDA with probability 100%
  Tempfile successfully deleted.
12 -===- D:\Torrent files\VA - NRJ 200% Hits 2015 (2CD)(Flac+.cue)\CD2\12. H-Magnum - Prohibe.flac
  Extracted successfully
  Conclusion: this track is CDDA with probability 100%
  Tempfile successfully deleted.
13 -===- D:\Torrent files\VA - NRJ 200% Hits 2015 (2CD)(Flac+.cue)\CD2\13. Nicole Scherzinger - Run.flac
  Extracted successfully
  Conclusion: this track is CDDA with probability 99%
  Tempfile successfully deleted.
14 -===- D:\Torrent files\VA - NRJ 200% Hits 2015 (2CD)(Flac+.cue)\CD2\14. Nico & Vinz - In Your Arms (Dans Tes Bras).flac
  Extracted successfully
  Conclusion: this track is CDDA with probability 100%
  Tempfile successfully deleted.
15 -===- D:\Torrent files\VA - NRJ 200% Hits 2015 (2CD)(Flac+.cue)\CD2\15. Labrinth - Jealous.flac
  Extracted successfully
  Conclusion: this track is CDDA with probability 92%
  Tempfile successfully deleted.
16 -===- D:\Torrent files\VA - NRJ 200% Hits 2015 (2CD)(Flac+.cue)\CD2\16. Chawki feat. Dr. Alban - It's My Life (C'est Ma Vie).flac
  Extracted successfully
  Conclusion: this track is CDDA with probability 100%
  Tempfile successfully deleted.
17 -===- D:\Torrent files\VA - NRJ 200% Hits 2015 (2CD)(Flac+.cue)\CD2\17. Coldplay - True Love.flac
  Extracted successfully
  Conclusion: this track is CDDA with probability 100%
  Tempfile successfully deleted.
18 -===- D:\Torrent files\VA - NRJ 200% Hits 2015 (2CD)(Flac+.cue)\CD2\18. Jul - Je Trouve Pas Le Sommeil.flac
  Extracted successfully
  Conclusion: this track is CDDA with probability 100%
  Tempfile successfully deleted.
19 -===- D:\Torrent files\VA - NRJ 200% Hits 2015 (2CD)(Flac+.cue)\CD2\19. Mr. Probz - Nothing Really Matters.flac
  Extracted successfully
  Conclusion: this track is CDDA with probability 100%
  Tempfile successfully deleted.
20 -===- D:\Torrent files\VA - NRJ 200% Hits 2015 (2CD)(Flac+.cue)\CD2\20. Blacko - Le Temps Est Compte.flac
  Extracted successfully
  Conclusion: this track is CDDA with probability 100%
  Tempfile successfully deleted.
21 -===- D:\Torrent files\VA - NRJ 200% Hits 2015 (2CD)(Flac+.cue)\CD2\21. Timmy Trumpet & Savage - Freaks (Freaks Radio Edit).flac
  Extracted successfully
  Conclusion: this track is CDDA with probability 100%
  Tempfile successfully deleted.
Finished at: понедельник, 25. 05. 2015. - 13:04.45 (operation time: 0:03.53)

Скриншот спектра частот

--Не забываем говорить
[Профиль] [ЛС]

Создавать темы 13-Авг-2015 11:15 (спустя 2 месяца 18 дней)

Топик был перенесен из форума Сборники в форум World Pop
sergej644
 
Показать сообщения:    

Текущее время: Сегодня 20:24

Часовой пояс: GMT



Вы не можете начинать темы
Вы не можете отвечать на сообщения
Вы не можете редактировать свои сообщения
Вы не можете удалять свои сообщения
Вы не можете голосовать в опросах
Вы не можете прикреплять файлы к сообщениям
Вы не можете скачивать файлы