VA - Modern Talking Árnyékában 1. (2009) [FLAC|Lossless]<EuroDisco>

 
Автор Сообщение

sergej644 ®

Пол:

Стаж: 4 года 11 месяцев

Сообщений: 6038

Откуда: Soviet Union



Награды: Нет

Торрент-статистика

Создавать темы 24-Дек-2014 22:37

[Цитировать]

-VA - Modern Talking Árnyékában 1. (2009)- Год: 2009
Лейбл: Hargent Media
Каталог #: HGEU752
Жанр: EuroDisco
Продолжительность: 01:17:31
Кодек: FLAC
Битрейт: Lossless
Тип битрейта: image+.cue
Треклист:
01. K.B.Caps - Do You Really Need Me (Maxi Version) (6:39)
02. Solid Strangers - Music In The Night (Maxi Version) (5:24)
03. New Baccara - Call Me Up (Maxi Version) (5:04)
04. Grant Miller - Doctor For My Heart (Maxi Version) (5:16)
05. C.C. Catch - Strangers By Night (Maxi Version) (5:46)
06. Lift Up - Diamonds Never Made A Lady (Maxi Cut) (5:10)
07. Patty Ryan - Stay With Me Tonight (Maxi Version) (5:42)
08. Lian Ross - It's Up To You (Maxi Version) (5:38)
09. Bad Boys Blue - For Your Love (Album Maxi Version) (5:58)
10. T-Ark - Undercover Lover (Maxi Version) (6:14)
11. Chris Norman - Hunters Of The Night (4:09)
12. Systems In Blue - Every Little Thing (4:04)
13. Mark Ashley - Marilyn's Dream (3:45)
14. Key West - Sorry Sorry Sorry (Club Version) (5:15)
15. Patty Ryan & Systems In Blue - I Gave You All My Love (3:56)

Отчёт ЕАС&#58;

Exact Audio Copy V1.0 beta 3 from 29. August 2011
Отчёт EAC об извлечении, выполненном 25. сентября 2012, 8:14
Various / Modern Talking Árnyékában 1.
Дисковод: ASUS DRW-2014S1T Adapter: 11 ID: 0
Режим чтения : Достоверность
Использование точного потока : Да
Отключение кэша аудио : Да
Использование указателей C2 : Нет
Коррекция смещения при чтении : 6
Способность читать области Lead-in и Lead-out : Нет
Заполнение пропущенных сэмплов тишиной : Да
Удаление блоков с тишиной в начале и конце : Нет
При вычислениях CRC использовались нулевые сэмплы : Да
Интерфейс : Установленный внешний ASPI-интерфейс
Выходной формат : Внутренние WAV-операции
Формат сэмплов : 44.100 Гц; 16 бит; стерео
TOC извлечённого CD
Трек | Старт | Длительность | Начальный сектор | Конечный сектор
---------------------------------------------------------------------
1 | 0:00.00 | 6:38.73 | 0 | 29922
2 | 6:38.73 | 5:23.71 | 29923 | 54218
3 | 12:02.69 | 5:03.70 | 54219 | 77013
4 | 17:06.64 | 5:16.30 | 77014 | 100743
5 | 22:23.19 | 5:46.30 | 100744 | 126723
6 | 28:09.49 | 5:10.13 | 126724 | 149986
7 | 33:19.62 | 5:41.63 | 149987 | 175624
8 | 39:01.50 | 5:38.15 | 175625 | 200989
9 | 44:39.65 | 5:58.00 | 200990 | 227839
10 | 50:37.65 | 6:13.38 | 227840 | 255852
11 | 56:51.28 | 4:08.40 | 255853 | 274492
12 | 60:59.68 | 4:03.74 | 274493 | 292791
13 | 65:03.67 | 3:45.10 | 292792 | 309676
14 | 68:49.02 | 5:14.48 | 309677 | 333274
15 | 74:03.50 | 3:55.46 | 333275 | 350945
Характеристики диапазона извлечения и сообщения об ошибках
Выбранный диапазон
Имя файла Z:\Temp\Various - Modern Talking Árnyékában 1..wav
Пиковый уровень 100.0 %
Скорость извлечения 9.6 X
Качество диапазона 100.0 %
CRC теста 23A239AB
CRC копии 23A239AB
Копирование... OK
Ошибок не произошло
AccurateRip: сводка
Трек 1 отсутствует в базе данных
Трек 2 отсутствует в базе данных
Трек 3 отсутствует в базе данных
Трек 4 отсутствует в базе данных
Трек 5 отсутствует в базе данных
Трек 6 отсутствует в базе данных
Трек 7 отсутствует в базе данных
Трек 8 отсутствует в базе данных
Трек 9 отсутствует в базе данных
Трек 10 отсутствует в базе данных
Трек 11 отсутствует в базе данных
Трек 12 отсутствует в базе данных
Трек 13 отсутствует в базе данных
Трек 14 отсутствует в базе данных
Трек 15 отсутствует в базе данных
Ни одного трека нет в базе AccurateRip
Конец отчёта
---- CUETools DB Plugin V2.1.3
[CTDB TOCID: anQMgFxTVuJT_b2.6WXKOCj6M74-] found, Submit result: already submitted
[51aa136f] (1/1) Accurately ripped
==== Контрольная сумма отчёта 9A443BA94272833668FB696A360CE4EF5F9C46AFE6720DC670345F5B42FF425E ====

Отчёт auCDtect Task manager&#58;

-----------------------
DON'T MODIFY THIS FILE
-----------------------
PERFORMER: auCDtect Task Manager, ver. 1.5.1RC4 build 1.5.1.5
Copyright (c) 2008-2010 y-soft. All rights reserved
http://y-soft.org
ANALYZER: auCDtect: CD records authenticity detector, version 0.8.2
Copyright (c) 2004 Oleg Berngardt. All rights reserved.
Copyright (c) 2004 Alexander Djourik. All rights reserved.
FILE: Various - Modern Talking Arnyekaban 1..flac
  Size: 572130337 Hash: 7A217402AA7DFBE4753EEEC7FEACCA5D Accuracy: -m0
  Conclusion: CDDA 99%
  Signature: D80E26912F404D32770097F7E7BF777448B58852

Содержание индексной карты (.CUE&#41;&#58;

REM GENRE EuroDisco
REM DATE 2009
REM DISCID B112470F
REM COMMENT "ExactAudioCopy v1.0b3"
PERFORMER "Various"
TITLE "Modern Talking Arnyekaban 1."
FILE "Various - Modern Talking Arnyekaban 1..flac" WAVE
  TRACK 01 AUDIO
    TITLE "Do You Really Need Me (Maxi Version)"
    PERFORMER "K.B.Caps"
    FLAGS DCP
    INDEX 01 00:00:00
  TRACK 02 AUDIO
    TITLE "Music In The Night (Maxi Version)"
    PERFORMER "Solid Strangers"
    FLAGS DCP
    INDEX 00 06:36:73
    INDEX 01 06:38:73
  TRACK 03 AUDIO
    TITLE "Call Me Up (Maxi Version)"
    PERFORMER "New Baccara"
    FLAGS DCP
    INDEX 00 12:00:69
    INDEX 01 12:02:69
  TRACK 04 AUDIO
    TITLE "Doctor For My Heart (Maxi Version)"
    PERFORMER "Grant Miller"
    FLAGS DCP
    INDEX 00 17:04:64
    INDEX 01 17:06:64
  TRACK 05 AUDIO
    TITLE "Strangers By Night (Maxi Version)"
    PERFORMER "C.C. Catch"
    FLAGS DCP
    INDEX 00 22:21:19
    INDEX 01 22:23:19
  TRACK 06 AUDIO
    TITLE "Diamonds Never Made A Lady (Maxi Cut)"
    PERFORMER "Lift Up"
    FLAGS DCP
    INDEX 00 28:07:49
    INDEX 01 28:09:49
  TRACK 07 AUDIO
    TITLE "Stay With Me Tonight (Maxi Version)"
    PERFORMER "Patty Ryan"
    FLAGS DCP
    INDEX 00 33:17:62
    INDEX 01 33:19:62
  TRACK 08 AUDIO
    TITLE "It's Up To You (Maxi Version)"
    PERFORMER "Lian Ross "
    FLAGS DCP
    INDEX 00 38:59:50
    INDEX 01 39:01:50
  TRACK 09 AUDIO
    TITLE "For Your Love (Album Maxi Version)"
    PERFORMER "Bad Boys Blue"
    FLAGS DCP
    INDEX 00 44:37:65
    INDEX 01 44:39:65
  TRACK 10 AUDIO
    TITLE "Undercover Lover (Maxi Version)"
    PERFORMER "T-Ark"
    FLAGS DCP
    INDEX 00 50:35:65
    INDEX 01 50:37:65
  TRACK 11 AUDIO
    TITLE "Hunters Of The Night"
    PERFORMER "Chris Norman"
    FLAGS DCP
    INDEX 00 56:49:28
    INDEX 01 56:51:28
  TRACK 12 AUDIO
    TITLE "Every Little Thing"
    PERFORMER "Systems In Blue"
    FLAGS DCP
    INDEX 00 60:57:68
    INDEX 01 60:59:68
  TRACK 13 AUDIO
    TITLE "Marilyn's Dream"
    PERFORMER "Mark Ashley"
    FLAGS DCP
    INDEX 00 65:01:67
    INDEX 01 65:03:67
  TRACK 14 AUDIO
    TITLE "Sorry Sorry Sorry (Club Version)"
    PERFORMER "Key West"
    FLAGS DCP
    INDEX 00 68:47:02
    INDEX 01 68:49:02
  TRACK 15 AUDIO
    TITLE "I Gave You All My Love"
    PERFORMER "Patty Ryan & Systems In Blue"
    FLAGS DCP
    INDEX 00 74:01:50
    INDEX 01 74:03:50
[Профиль] [ЛС]

Создавать темы 13-Авг-2015 11:14 (спустя 7 месяцев 20 дней)

Топик был перенесен из форума Сборники в форум Technopop, Eurodance, Disco
sergej644
 
Кто просматривает тему:

Форум Тема Автор Размер
Drum & Bass, Breakbeat, Dubstep (Drum & Bass) VA - Modern Soul Lp (Vandal Ltd [VDLLTDLP001]) - 2015, MP3, 320 kbps Kuzmich47 170 MB
Показать сообщения:    

Текущее время: Сегодня 22:11

Часовой пояс: GMT



Вы не можете начинать темы
Вы не можете отвечать на сообщения
Вы не можете редактировать свои сообщения
Вы не можете удалять свои сообщения
Вы не можете голосовать в опросах
Вы не можете прикреплять файлы к сообщениям
Вы не можете скачивать файлы