VA - Italo Maxi Hits (1985) 2CD /2010/[FLAC|Lossless]<Italo-Disco>

 
Автор Сообщение

sergej644 ®

Пол:

Стаж: 4 года 11 месяцев

Сообщений: 6035

Откуда: Soviet Union



Награды: Нет

Торрент-статистика

Создавать темы 24-Дек-2014 22:33

[Цитировать]

-VA - Italo Maxi Hits (1985) /2010/-
Год: 1985 (переиздание 2010)
Лейбл: ESonCD
Каталог #: 201001-2
Жанр: Italo-Disco
Продолжительность: 01:28:43
Кодек: FLAC
Битрейт: Lossless
Тип битрейта: image+.cue

CD 1

Треклист:
01. Scotch - Delirio Mind 5:24
02. Paul J.Qualley - Please Please 4:31
03. Rewind - Rosalie (Pop & Go !) 6:04
04. Orlando Johnson - With Just A Kiss 6:08
05. Twilight - My Mind 7:48
06. Stage - Voodoo Dance 7:06
07. A.I.M. - So Evil (Close To The Edge) 7:50
Продолжительноcть - 00:45:07

Отчёт ЕАС&#58;

Exact Audio Copy V0.99 prebeta 5 from 4. May 2009
Отчёт EAC об извлечении, выполненном 26. июля 2010, 13:20
Various / Italo Maxi-Hits CD 1
Дисковод: Optiarc DVD RW AD-5200A Adapter: 0 ID: 0
Режим чтения : Достоверность
Использование точного потока : Да
Отключение кэша аудио : Да
Использование указателей C2 : Нет
Коррекция смещения при чтении : 48
Способность читать области Lead-in и Lead-out : Нет
Заполнение пропущенных сэмплов тишиной : Да
Удаление блоков с тишиной в начале и конце : Нет
При вычислениях CRC использовались нулевые сэмплы : Да
Интерфейс : Встроенный Win32-интерфейс для Win NT/2000
Выходной формат : Внутренние WAV-операции
Формат сэмплов : 44.100 Гц; 16 бит; стерео
TOC извлечённого CD
Трек | Старт | Длительность | Начальный сектор | Конечный сектор
---------------------------------------------------------------------
1 | 0:00.00 | 5:24.41 | 0 | 24340
2 | 5:24.41 | 4:30.38 | 24341 | 44628
3 | 9:55.04 | 6:05.67 | 44629 | 72070
4 | 16:00.71 | 6:10.05 | 72071 | 99825
5 | 22:11.01 | 7:49.34 | 99826 | 135034
6 | 30:00.35 | 7:04.18 | 135035 | 166852
7 | 37:04.53 | 8:03.08 | 166853 | 203085
Характеристики диапазона извлечения и сообщения об ошибках
Выбранный диапазон
Имя файла D:\All\Music\! Various - Italo Maxi-Hits (ESonCD)\Various - Italo Maxi-Hits CD 1\Various - Italo Maxi-Hits CD 1.wav
Пиковый уровень 97.7 %
Качество диапазона 100.0 %
CRC теста FF43B78A
CRC копии FF43B78A
Копирование... OK
Ошибок не произошло
AccurateRip: сводка
Трек 1 нет в базе данных
Трек 2 нет в базе данных
Трек 3 нет в базе данных
Трек 4 нет в базе данных
Трек 5 нет в базе данных
Трек 6 нет в базе данных
Трек 7 нет в базе данных
Ни одного трека нет в базе AccurateRip
Конец отчёта

Отчёт auCDtect Task manager&#58;

-----------------------
DON'T MODIFY THIS FILE
-----------------------
PERFORMER: auCDtect Task Manager, ver. 1.5.1RC4 build 1.5.1.5
Copyright (c) 2008-2010 y-soft. All rights reserved
http://y-soft.org
ANALYZER: auCDtect: CD records authenticity detector, version 0.8.2
Copyright (c) 2004 Oleg Berngardt. All rights reserved.
Copyright (c) 2004 Alexander Djourik. All rights reserved.
FILE: Various - Italo Maxi-Hits CD 1.flac
  Size: 337015337 Hash: 314D7CCFE4BCBF6580DAE9D73C869D2E Accuracy: -m0
  Conclusion: CDDA 99%
  Signature: CEC00B114B68F6275DE4E4B72ACD00B7A6CBE88B

Содержание индексной карты (.CUE&#41;&#58;

REM GENRE Italo-Disco
REM DATE 2010
REM DISCID 540A9307
REM COMMENT "ExactAudioCopy v0.99pb5"
PERFORMER "Various"
TITLE "Italo Maxi-Hits CD 1"
FILE "Various - Italo Maxi-Hits CD 1.flac" WAVE
  TRACK 01 AUDIO
    TITLE "Delirio Mind"
    PERFORMER "Scotch"
    INDEX 01 00:00:00
  TRACK 02 AUDIO
    TITLE "Please Please"
    PERFORMER "Paul J.Qualley"
    INDEX 00 05:22:41
    INDEX 01 05:24:41
  TRACK 03 AUDIO
    TITLE "Rosalie (Pop & Go!)"
    PERFORMER "Rewind"
    INDEX 00 09:53:04
    INDEX 01 09:55:04
  TRACK 04 AUDIO
    TITLE "With Just A Kiss"
    PERFORMER "Orlando Johnson"
    INDEX 00 15:58:71
    INDEX 01 16:00:71
  TRACK 05 AUDIO
    TITLE "My Mind"
    PERFORMER "Twilight"
    INDEX 00 22:09:01
    INDEX 01 22:11:01
  TRACK 06 AUDIO
    TITLE "Voodoo Dance"
    PERFORMER "Stage"
    INDEX 00 29:58:35
    INDEX 01 30:00:35
  TRACK 07 AUDIO
    TITLE "So Evil (Close To The Edge)"
    PERFORMER "A.I.M."
    INDEX 00 37:02:53
    INDEX 01 37:04:53

CD 2

Треклиcт:
01. Raggio Di Luna - Comanchero 7:33
02. Bolero - I Wish 7:52
03. Fawzia - Please, Don't Be Sad 7:20
04. Miko Mission - The World Is You 4:20
05. Sign System - Stay With Me 4:20
06. Danny Keith - Keep On Music 6:38
07. La Nuova Fattoria - Disco Pollo 5:50
Продолжительноcть - 00:43:59

Отчёт ЕАС&#58;

Exact Audio Copy V0.99 prebeta 5 from 4. May 2009
Отчёт EAC об извлечении, выполненном 26. июля 2010, 13:44
Various / Italo Maxi-Hits CD 2
Дисковод: Optiarc DVD RW AD-5200A Adapter: 0 ID: 0
Режим чтения : Достоверность
Использование точного потока : Да
Отключение кэша аудио : Да
Использование указателей C2 : Нет
Коррекция смещения при чтении : 48
Способность читать области Lead-in и Lead-out : Нет
Заполнение пропущенных сэмплов тишиной : Да
Удаление блоков с тишиной в начале и конце : Нет
При вычислениях CRC использовались нулевые сэмплы : Да
Интерфейс : Встроенный Win32-интерфейс для Win NT/2000
Выходной формат : Внутренние WAV-операции
Формат сэмплов : 44.100 Гц; 16 бит; стерео
TOC извлечённого CD
Трек | Старт | Длительность | Начальный сектор | Конечный сектор
---------------------------------------------------------------------
1 | 0:00.00 | 7:33.00 | 0 | 33974
2 | 7:33.00 | 7:54.36 | 33975 | 69560
3 | 15:27.36 | 7:21.28 | 69561 | 102663
4 | 22:48.64 | 4:21.53 | 102664 | 122291
5 | 27:10.42 | 4:20.34 | 122292 | 141825
6 | 31:31.01 | 6:39.67 | 141826 | 171817
7 | 38:10.68 | 5:48.52 | 171818 | 197969
Характеристики диапазона извлечения и сообщения об ошибках
Выбранный диапазон
Имя файла D:\All\Music\! Various - Italo Maxi-Hits (ESonCD)\Various - Italo Maxi-Hits CD 2\Various - Italo Maxi-Hits CD 2.wav
Пиковый уровень 97.7 %
Качество диапазона 99.9 %
CRC теста 1EEA3CCE
CRC копии 1EEA3CCE
Копирование... OK
Ошибок не произошло
AccurateRip: сводка
Трек 1 нет в базе данных
Трек 2 нет в базе данных
Трек 3 нет в базе данных
Трек 4 нет в базе данных
Трек 5 нет в базе данных
Трек 6 нет в базе данных
Трек 7 нет в базе данных
Ни одного трека нет в базе AccurateRip
Конец отчёта

Отчёт auCDtect Task manager&#58;

-----------------------
PERFORMER: auCDtect Task Manager, ver. 1.5.1RC4 build 1.5.1.5
Copyright (c) 2008-2010 y-soft. All rights reserved
http://y-soft.org
ANALYZER: auCDtect: CD records authenticity detector, version 0.8.2
Copyright (c) 2004 Oleg Berngardt. All rights reserved.
Copyright (c) 2004 Alexander Djourik. All rights reserved.
FILE: Various - Italo Maxi-Hits CD 2.flac
  Size: 321229853 Hash: C5399963DF536A212833FD4D606DE2A0 Accuracy: -m0
  Conclusion: CDDA 100%
  Signature: 7FC892F00B504BC7F536D328F9C45BEBE3F79965

Содержание индексной карты (.CUE&#41;&#58;

REM GENRE Italo-Disco
REM DATE 2010
REM DISCID 5F0A4F07
REM COMMENT "ExactAudioCopy v0.99pb5"
PERFORMER "Various "
TITLE "Italo Maxi-Hits CD 2"
FILE "Various - Italo Maxi-Hits CD 2.flac" WAVE
  TRACK 01 AUDIO
    TITLE "Comanchero"
    PERFORMER "Raggio Di Luna"
    INDEX 01 00:00:00
  TRACK 02 AUDIO
    TITLE "I Wish"
    PERFORMER "Bolero"
    INDEX 00 07:31:00
    INDEX 01 07:33:00
  TRACK 03 AUDIO
    TITLE "Please, Don't Be Sad"
    PERFORMER "Fawzia"
    INDEX 00 15:25:36
    INDEX 01 15:27:36
  TRACK 04 AUDIO
    TITLE "The World Is You"
    PERFORMER "Miko Mission"
    INDEX 00 22:46:64
    INDEX 01 22:48:64
  TRACK 05 AUDIO
    TITLE "Stay With Me"
    PERFORMER "Sign System"
    INDEX 00 27:08:42
    INDEX 01 27:10:42
  TRACK 06 AUDIO
    TITLE "Keep On Music"
    PERFORMER "Danny Keith"
    INDEX 00 31:29:01
    INDEX 01 31:31:01
  TRACK 07 AUDIO
    TITLE "Disco Pollo"
    PERFORMER "La Nuova Fattoria"
    INDEX 00 38:08:68
    INDEX 01 38:10:68
[Профиль] [ЛС]

Создавать темы 13-Авг-2015 11:14 (спустя 7 месяцев 20 дней)

Топик был перенесен из форума Сборники в форум Technopop, Eurodance, Disco
sergej644
 
Показать сообщения:    

Текущее время: Сегодня 18:19

Часовой пояс: GMT



Вы не можете начинать темы
Вы не можете отвечать на сообщения
Вы не можете редактировать свои сообщения
Вы не можете удалять свои сообщения
Вы не можете голосовать в опросах
Вы не можете прикреплять файлы к сообщениям
Вы не можете скачивать файлы