VA - I Love You Disco (2010)(4CD) [FLAC|Lossless]<Disco>

 
Автор Сообщение

sergej644 ®

Пол:

Стаж: 4 года 11 месяцев

Сообщений: 6045

Откуда: Soviet Union



Награды: Нет

Торрент-статистика

Создавать темы 24-Дек-2014 23:02

[Цитировать]

-VA - I Love You Disco (2010)(4CD)- Год: 2010
Жанр: Disco
Продолжительность: 05:05:54-Кодек: FLAC
Тип рипа: image+.cue
Битрейт: Lossless-Треклист:

I Love You Disco Vol.1

01. Bad Boys Blue - I Wanna Hear Your Heartbeat (Sunday Girl)
02. Diux - Comet
03. Joe Lockwood - Hey You
04. Raf - Self Control
05. Ryan Simmons - The Night Is Yours, The Night Is Mine
06. Bad Boys Blue - A World Without You (Michelle)
07. Secret Lovers - Another Minute
08. Chester - Hold The Line
09. Danuta - Touch My Heart
10. Bad Boys Blue - Gimme Gimme Your Lovin' (Little Lady)
11. Camaro's Gang - Fuerza Major
12. The Hurricanes - Only One Night
13. Gina T. - Tokio By Night
14. Psychic Interface - Tribal Stomp-Пpодолжительность: 01:19:41

Отчёт ЕАС&#58;

Exact Audio Copy V0.99 prebeta 5 from 4. May 2009
Отчёт EAC об извлечении, выполненном 8. октября 2010, 15:54
Various Artists / I Love You Disco Vol.1
Дисковод: HL-DT-STDVDRAM GH20NS10   Adapter: 2  ID: 1
Режим чтения                 : Достоверность
Использование точного потока : Да
Отключение кэша аудио        : Да
Использование указателей C2  : Нет
Коррекция смещения при чтении                     : 667
Способность читать области Lead-in и Lead-out     : Нет
Заполнение пропущенных сэмплов тишиной            : Да
Удаление блоков с тишиной в начале и конце        : Нет
При вычислениях CRC использовались нулевые сэмплы : Да
Интерфейс                                         : Встроенный Win32-интерфейс для Win NT/2000
Выходной формат          : Пользовательский кодировщик
Выбранный битрейт        : 1024 kBit/s
Качество                 : Высокий
Добавление ID3-тэга      : Нет
Утилита сжатия           : C:\Program Files\Exact Audio Copy\FLAC\FLAC.EXE
Дополнительные параметры : -6 -V -T "ARTIST=%a" -T "TITLE=%t" -T "ALBUM=%g" -T "DATE=%y" -T "TRACKNUMBER=%n" -T "GENRE=%m" -T "COMMENT=%e" %s -o %d
TOC извлечённого CD
     Трек |   Старт  | Длительность | Начальный сектор | Конечный сектор
    ---------------------------------------------------------------------
       1  |  0:00.00 |    6:25.40   |           0      |      28914
       2  |  6:25.40 |    6:06.09   |       28915      |      56373
       3  | 12:31.49 |    6:55.40   |       56374      |      87538
       4  | 19:27.14 |    6:06.09   |       87539      |     114997
       5  | 25:33.23 |    6:33.53   |      114998      |     144525
       6  | 32:07.01 |    5:44.02   |      144526      |     170327
       7  | 37:51.03 |    3:58.03   |      170328      |     188180
       8  | 41:49.06 |    5:47.20   |      188181      |     214225
       9  | 47:36.26 |    5:07.74   |      214226      |     237324
      10  | 52:44.25 |    5:10.30   |      237325      |     260604
      11  | 57:54.55 |    5:01.57   |      260605      |     283236
      12  | 62:56.37 |    5:51.55   |      283237      |     309616
      13  | 68:48.17 |    5:46.60   |      309617      |     335626
      14  | 74:35.02 |    5:06.09   |      335627      |     358585
Характеристики диапазона извлечения и сообщения об ошибках
Выбранный диапазон
     Имя файла E:\Music\Lossless\Disco,Dance,Pop\Various Artists - I Love You Disco (4CD) 2010\Various Artists - I Love You Disco Vol.1.wav
     Пиковый уровень 100.0 %
     Качество диапазона 100.0 %
     CRC теста 4D62724D
     CRC копии 4D62724D
     Копирование... OK
Ошибок не произошло
AccurateRip: сводка
Трек  1  нет в базе данных
Трек  2  нет в базе данных
Трек  3  нет в базе данных
Трек  4  нет в базе данных
Трек  5  нет в базе данных
Трек  6  нет в базе данных
Трек  7  нет в базе данных
Трек  8  нет в базе данных
Трек  9  нет в базе данных
Трек 10  нет в базе данных
Трек 11  нет в базе данных
Трек 12  нет в базе данных
Трек 13  нет в базе данных
Трек 14  нет в базе данных
Ни одного трека нет в базе AccurateRip
Конец отчёта

Отчёт auCDtect Task manager&#58;

-----------------------
DON'T MODIFY THIS FILE
-----------------------
PERFORMER: auCDtect Task Manager, ver. 1.6.0 RC1 build 1.6.0.1
Copyright (c) 2008-2010 y-soft. All rights reserved
http://y-soft.org
ANALYZER: auCDtect: CD records authenticity detector, version 0.8.2
Copyright (c) 2004 Oleg Berngardt. All rights reserved.
Copyright (c) 2004 Alexander Djourik. All rights reserved.
FILE: Various Artists - I Love You Disco Vol.1.flac
  Size: 595962258 Hash: 6D07F22A02CEE9FB8FA9D18A3BAF83B7 Accuracy: -m0
  Conclusion: CDDA 100%
  Signature: 2DFED417A8599894AF7B2FC68B64FDE56932E730

I Love You Disco Vol.2

Треклист:-01. Lian Ross - Fantasy
02. Lift Up - Diamonds Never Made A Lady
03. Patty Ryan - Stay With Me Tonight
04. Bad Boys Blue - Kisses And Tears (My One And Only)
05. Mauro - Buona Sera (Ciao Ciao)
06. Mr. Black - Monnalisa
07. Rose - Magic Carillon
08. Susanne Meals - Forever
09. Jessica - Chinese Magic
10. Mike Rogers - Just A Story
11. Solid Strangers - Music In The Night
12. Joy Peters - Don't Lose Your Heart Tonight
13. Bad Boys Blue - Hungry For Love-Пpодолжительность: 01:18:57

Отчёт ЕАС&#58;

Exact Audio Copy V0.99 prebeta 5 from 4. May 2009
Отчёт EAC об извлечении, выполненном 8. октября 2010, 16:38
Various Artists / I Love You Disco Vol.2
Дисковод: HL-DT-STDVDRAM GH20NS10   Adapter: 2  ID: 1
Режим чтения                 : Достоверность
Использование точного потока : Да
Отключение кэша аудио        : Да
Использование указателей C2  : Нет
Коррекция смещения при чтении                     : 667
Способность читать области Lead-in и Lead-out     : Нет
Заполнение пропущенных сэмплов тишиной            : Да
Удаление блоков с тишиной в начале и конце        : Нет
При вычислениях CRC использовались нулевые сэмплы : Да
Интерфейс                                         : Встроенный Win32-интерфейс для Win NT/2000
Выходной формат          : Пользовательский кодировщик
Выбранный битрейт        : 1024 kBit/s
Качество                 : Высокий
Добавление ID3-тэга      : Нет
Утилита сжатия           : C:\Program Files\Exact Audio Copy\FLAC\FLAC.EXE
Дополнительные параметры : -6 -V -T "ARTIST=%a" -T "TITLE=%t" -T "ALBUM=%g" -T "DATE=%y" -T "TRACKNUMBER=%n" -T "GENRE=%m" -T "COMMENT=%e" %s -o %d
TOC извлечённого CD
     Трек |   Старт  | Длительность | Начальный сектор | Конечный сектор
    ---------------------------------------------------------------------
       1  |  0:00.00 |    6:54.53   |           0      |      31102
       2  |  6:54.53 |    6:33.60   |       31103      |      60637
       3  | 13:28.38 |    5:41.04   |       60638      |      86216
       4  | 19:09.42 |    5:37.04   |       86217      |     111495
       5  | 24:46.46 |    7:24.18   |      111496      |     144813
       6  | 32:10.64 |    5:14.71   |      144814      |     168434
       7  | 37:25.60 |    6:00.14   |      168435      |     195448
       8  | 43:25.74 |    6:57.16   |      195449      |     226739
       9  | 50:23.15 |    5:14.36   |      226740      |     250325
      10  | 55:37.51 |    6:46.12   |      250326      |     280787
      11  | 62:23.63 |    5:19.17   |      280788      |     304729
      12  | 67:43.05 |    5:22.08   |      304730      |     328887
      13  | 73:05.13 |    5:52.01   |      328888      |     355288
Характеристики диапазона извлечения и сообщения об ошибках
Выбранный диапазон
     Имя файла E:\Music\Lossless\Disco,Dance,Pop\Various Artists - I Love You Disco (4CD) 2010\Various Artists - I Love You Disco Vol.2.wav
     Пиковый уровень 100.0 %
     Качество диапазона 100.0 %
     CRC теста 8D29D67A
     CRC копии 8D29D67A
     Копирование... OK
Ошибок не произошло
AccurateRip: сводка
Трек  1  нет в базе данных
Трек  2  нет в базе данных
Трек  3  нет в базе данных
Трек  4  нет в базе данных
Трек  5  нет в базе данных
Трек  6  нет в базе данных
Трек  7  нет в базе данных
Трек  8  нет в базе данных
Трек  9  нет в базе данных
Трек 10  нет в базе данных
Трек 11  нет в базе данных
Трек 12  нет в базе данных
Трек 13  нет в базе данных
Ни одного трека нет в базе AccurateRip
Конец отчёта

Отчёт auCDtect Task manager&#58;

-----------------------
DON'T MODIFY THIS FILE
-----------------------
PERFORMER: auCDtect Task Manager, ver. 1.6.0 RC1 build 1.6.0.1
Copyright (c) 2008-2010 y-soft. All rights reserved
http://y-soft.org
ANALYZER: auCDtect: CD records authenticity detector, version 0.8.2
Copyright (c) 2004 Oleg Berngardt. All rights reserved.
Copyright (c) 2004 Alexander Djourik. All rights reserved.
FILE: Various Artists - I Love You Disco Vol.2.flac
  Size: 585859888 Hash: 90FF20F544A3B809E8019AE9F155E312 Accuracy: -m0
  Conclusion: CDDA 100%
  Signature: 9D18E2C2D3DD0D0F36D2072502F67CB123921A71

I Love You Disco Vol.3

Треклист:-01. Deborah Kinley - All For You
02. K.B. Caps - Do You Really Need Me
03. Paul Parker - Desire
04. Tension - My Dream
05. Bad Boys Blue - Pretty Young Girl
06. Hank Shostak - Don't Tell Me
07. Lian Ross - Say You'll Never
08. New Baccara - Call Me Up (Special D.J. Mix)
09. Sonia Belolo - Life Dance
10. Joy - Touch By Touch
11. Laban - Love In Siberia
12. Heath Hunter & The Pleasure Company - Revolution In Paradise-Пpодолжительность: 01:14:32

Отчёт ЕАС&#58;

Exact Audio Copy V0.99 prebeta 5 from 4. May 2009
Отчёт EAC об извлечении, выполненном 8. октября 2010, 17:13
Various Artists / I Love You Disco Vol.3
Дисковод: HL-DT-STDVDRAM GH20NS10   Adapter: 2  ID: 1
Режим чтения                 : Достоверность
Использование точного потока : Да
Отключение кэша аудио        : Да
Использование указателей C2  : Нет
Коррекция смещения при чтении                     : 667
Способность читать области Lead-in и Lead-out     : Нет
Заполнение пропущенных сэмплов тишиной            : Да
Удаление блоков с тишиной в начале и конце        : Нет
При вычислениях CRC использовались нулевые сэмплы : Да
Интерфейс                                         : Встроенный Win32-интерфейс для Win NT/2000
Выходной формат          : Пользовательский кодировщик
Выбранный битрейт        : 1024 kBit/s
Качество                 : Высокий
Добавление ID3-тэга      : Нет
Утилита сжатия           : C:\Program Files\Exact Audio Copy\FLAC\FLAC.EXE
Дополнительные параметры : -6 -V -T "ARTIST=%a" -T "TITLE=%t" -T "ALBUM=%g" -T "DATE=%y" -T "TRACKNUMBER=%n" -T "GENRE=%m" -T "COMMENT=%e" %s -o %d
TOC извлечённого CD
     Трек |   Старт  | Длительность | Начальный сектор | Конечный сектор
    ---------------------------------------------------------------------
       1  |  0:00.00 |    6:36.02   |           0      |      29701
       2  |  6:36.02 |    6:34.69   |       29702      |      59320
       3  | 13:10.71 |    8:36.65   |       59321      |      98085
       4  | 21:47.61 |    5:42.40   |       98086      |     123775
       5  | 27:30.26 |    5:45.03   |      123776      |     149653
       6  | 33:15.29 |    6:29.12   |      149654      |     178840
       7  | 39:44.41 |    6:36.30   |      178841      |     208570
       8  | 46:20.71 |    5:02.03   |      208571      |     231223
       9  | 51:22.74 |    9:19.59   |      231224      |     273207
      10  | 60:42.58 |    5:20.60   |      273208      |     297267
      11  | 66:03.43 |    4:59.19   |      297268      |     319711
      12  | 71:02.62 |    3:29.16   |      319712      |     335402
Характеристики диапазона извлечения и сообщения об ошибках
Выбранный диапазон
     Имя файла E:\Music\Lossless\Disco,Dance,Pop\Various Artists - I Love You Disco (4CD) 2010\Various Artists - I Love You Disco Vol.3.wav
     Пиковый уровень 100.0 %
     Качество диапазона 100.0 %
     CRC теста 6EF0EB57
     CRC копии 6EF0EB57
     Копирование... OK
Ошибок не произошло
AccurateRip: сводка
Трек  1  нет в базе данных
Трек  2  нет в базе данных
Трек  3  нет в базе данных
Трек  4  нет в базе данных
Трек  5  нет в базе данных
Трек  6  нет в базе данных
Трек  7  нет в базе данных
Трек  8  нет в базе данных
Трек  9  нет в базе данных
Трек 10  нет в базе данных
Трек 11  нет в базе данных
Трек 12  нет в базе данных
Ни одного трека нет в базе AccurateRip
Конец отчёта

Отчёт auCDtect Task manager&#58;

-----------------------
DON'T MODIFY THIS FILE
-----------------------
PERFORMER: auCDtect Task Manager, ver. 1.6.0 RC1 build 1.6.0.1
Copyright (c) 2008-2010 y-soft. All rights reserved
http://y-soft.org
ANALYZER: auCDtect: CD records authenticity detector, version 0.8.2
Copyright (c) 2004 Oleg Berngardt. All rights reserved.
Copyright (c) 2004 Alexander Djourik. All rights reserved.
FILE: Various Artists - I Love You Disco Vol.3.flac
  Size: 566540026 Hash: 2A0BB54BA8C9816EC4964125616C2E8C Accuracy: -m0
  Conclusion: CDDA 100%
  Signature: 08E118BE02AFCF3E23E86517718A44906D20F4DB

I Love You Disco Vol.4

Треклист:-01. Mr. Zivago - Little Russian
02. Saxophone - Souvenir
03. Grant Miller - Colder Than Ice
04. Koto - Visitors
05. New Baccara - Fantasy Boy
06. Angie Care - Your Mind
07. Bad Boys Blue - Come Back And Stay
08. Eddy Huntington - Up & Down
09. Koto - Dragon's Legend
10. Danny Keith - Keep On Music
11. Heath Hunter & The Pleasure Company - Walking On Clouds-Пpодолжительность: 01:12:44

Отчёт ЕАС&#58;

Exact Audio Copy V0.99 prebeta 5 from 4. May 2009
Отчёт EAC об извлечении, выполненном 8. октября 2010, 17:39
Various Artists / I Love You Disco Vol.4
Дисковод: HL-DT-STDVDRAM GH20NS10   Adapter: 2  ID: 1
Режим чтения                 : Достоверность
Использование точного потока : Да
Отключение кэша аудио        : Да
Использование указателей C2  : Нет
Коррекция смещения при чтении                     : 667
Способность читать области Lead-in и Lead-out     : Нет
Заполнение пропущенных сэмплов тишиной            : Да
Удаление блоков с тишиной в начале и конце        : Нет
При вычислениях CRC использовались нулевые сэмплы : Да
Интерфейс                                         : Встроенный Win32-интерфейс для Win NT/2000
Выходной формат          : Пользовательский кодировщик
Выбранный битрейт        : 1024 kBit/s
Качество                 : Высокий
Добавление ID3-тэга      : Нет
Утилита сжатия           : C:\Program Files\Exact Audio Copy\FLAC\FLAC.EXE
Дополнительные параметры : -6 -V -T "ARTIST=%a" -T "TITLE=%t" -T "ALBUM=%g" -T "DATE=%y" -T "TRACKNUMBER=%n" -T "GENRE=%m" -T "COMMENT=%e" %s -o %d
TOC извлечённого CD
     Трек |   Старт  | Длительность | Начальный сектор | Конечный сектор
    ---------------------------------------------------------------------
       1  |  0:00.00 |    7:38.20   |           0      |      34369
       2  |  7:38.20 |    6:11.45   |       34370      |      62239
       3  | 13:49.65 |    5:33.67   |       62240      |      87281
       4  | 19:23.57 |    6:08.48   |       87282      |     114929
       5  | 25:32.30 |    7:00.00   |      114930      |     146429
       6  | 32:32.30 |    7:03.74   |      146430      |     178228
       7  | 39:36.29 |    7:34.69   |      178229      |     212347
       8  | 47:11.23 |    6:32.17   |      212348      |     241764
       9  | 53:43.40 |    6:51.34   |      241765      |     272623
      10  | 60:34.74 |    6:40.09   |      272624      |     302632
      11  | 67:15.08 |    5:28.73   |      302633      |     327305
Характеристики диапазона извлечения и сообщения об ошибках
Выбранный диапазон
     Имя файла E:\Music\Lossless\Disco,Dance,Pop\Various Artists - I Love You Disco (4CD) 2010\Various Artists - I Love You Disco Vol.4.wav
     Пиковый уровень 100.0 %
     Качество диапазона 100.0 %
     CRC теста 9997A55B
     CRC копии 9997A55B
     Копирование... OK
Ошибок не произошло
AccurateRip: сводка
Трек  1  нет в базе данных
Трек  2  нет в базе данных
Трек  3  нет в базе данных
Трек  4  нет в базе данных
Трек  5  нет в базе данных
Трек  6  нет в базе данных
Трек  7  нет в базе данных
Трек  8  нет в базе данных
Трек  9  нет в базе данных
Трек 10  нет в базе данных
Трек 11  нет в базе данных
Ни одного трека нет в базе AccurateRip
Конец отчёта

Отчёт auCDtect Task manager&#58;

-----------------------
DON'T MODIFY THIS FILE
-----------------------
PERFORMER: auCDtect Task Manager, ver. 1.6.0 RC1 build 1.6.0.1
Copyright (c) 2008-2010 y-soft. All rights reserved
http://y-soft.org
ANALYZER: auCDtect: CD records authenticity detector, version 0.8.2
Copyright (c) 2004 Oleg Berngardt. All rights reserved.
Copyright (c) 2004 Alexander Djourik. All rights reserved.
FILE: Various Artists - I Love You Disco Vol.4.flac
  Size: 546615266 Hash: 7CD6E37E24AAE4D0283C2DBA7388E1B7 Accuracy: -m0
  Conclusion: CDDA 100%
  Signature: AB570B11EF297DEE1E1A81AB8FBD4AC1B2FB65B5
Время раздачи: 07:00 до 21:00
[Профиль] [ЛС]

Создавать темы 13-Авг-2015 11:14 (спустя 7 месяцев 19 дней)

Топик был перенесен из форума Сборники в форум Technopop, Eurodance, Disco
sergej644
 
Показать сообщения:    

Текущее время: Сегодня 18:31

Часовой пояс: GMT



Вы не можете начинать темы
Вы не можете отвечать на сообщения
Вы не можете редактировать свои сообщения
Вы не можете удалять свои сообщения
Вы не можете голосовать в опросах
Вы не можете прикреплять файлы к сообщениям
Вы не можете скачивать файлы