VA - I Love Tocata 80's (2012) 2CD [FLAC|Lossless]<Italo-Disco, Hi-NRG, Synthpop>

 
Автор Сообщение

sergej644 ®

Пол:

Стаж: 4 года 11 месяцев

Сообщений: 6045

Откуда: Soviet Union



Награды: Нет

Торрент-статистика

Создавать темы 25-Дек-2014 00:04

[Цитировать]

-VA - I Love Tocata 80's (2012)- -Год: 2012 • Жанр: Italo-Disco, Hi-NRG, Synthpop • Продолжительность: 02:36:54
Лейбл: Blanco Y NegroКаталожный №: MXCD 2361 (CB) • Сканы: Комплект
Кодек: FLAC (image+.cue) • Битрейт: Lossless
-

CD 1

Пpодолжительность: 01:19:11
Треклист:
01. Atlanta - Romantic Break [5:06]
02. Modern Talking - You're My Heart, You're My Soul [5:33]
03. Spagna - Easy Lady [6:53]
04. Baltimora - Woody Boogie [5:51]
05. Lime - I Don't Wanna Lose You [7:35]
06. Trans-X - Living On Video (Remix) [6:44]
07. Ivan - Fotonovela [6:09]
08. Casal - Embrujada [4:32]
09. Ole Ole - No Controles [4:00]
10. Alaska Y Dinarama - A Quien Le Importa (Club Mix) [7:18]
11. Desireless - Voyage, Voyage (Remix) [7:07]
12. Chicasss - Ma.ana [6:40]
13. Loco Mia - Loco Mia [5:45]

Содержимое индексной карты (.cue&#41;&#58;

REM GENRE Disco
REM DATE 2012
REM DISCID A2128F0D
REM COMMENT "ExactAudioCopy v1.0b3"
PERFORMER "VA"
TITLE "I Love Tocata 80s - CD1"
FILE "VA - I Love Tocata 80s - CD1.flac" WAVE
  TRACK 01 AUDIO
    TITLE "Romantic Break"
    PERFORMER "Atlanta"
    FLAGS DCP
    INDEX 01 00:00:00
  TRACK 02 AUDIO
    TITLE "You're My Heart, You're My Soul"
    PERFORMER "Modern Talking"
    FLAGS DCP
    INDEX 01 05:05:50
  TRACK 03 AUDIO
    TITLE "Easy Lady"
    PERFORMER "Spagna"
    FLAGS DCP
    INDEX 01 10:38:56
  TRACK 04 AUDIO
    TITLE "Woody Boogie"
    PERFORMER "Baltimora"
    FLAGS DCP
    INDEX 01 17:32:01
  TRACK 05 AUDIO
    TITLE "I Don't Wanna Lose You"
    PERFORMER "Lime"
    FLAGS DCP
    INDEX 01 23:22:46
  TRACK 06 AUDIO
    TITLE "Living On Video (Remix)"
    PERFORMER "Trans-X"
    FLAGS DCP
    INDEX 01 30:57:11
  TRACK 07 AUDIO
    TITLE "Fotonovela"
    PERFORMER "Ivan"
    FLAGS DCP
    INDEX 01 37:41:41
  TRACK 08 AUDIO
    TITLE "Embrujada"
    PERFORMER "Casal"
    FLAGS DCP
    INDEX 01 43:50:42
  TRACK 09 AUDIO
    TITLE "No Controles"
    PERFORMER "Ole Ole"
    FLAGS DCP
    INDEX 01 48:22:18
  TRACK 10 AUDIO
    TITLE "A Quien Le Importa (Club Mix)"
    PERFORMER "Alaska Y Dinarama"
    FLAGS DCP
    INDEX 01 52:22:10
  TRACK 11 AUDIO
    TITLE "Voyage, Voyage (Remix)"
    PERFORMER "Desireless"
    FLAGS DCP
    INDEX 01 59:39:69
  TRACK 12 AUDIO
    TITLE "Ma.ana"
    PERFORMER "Chicasss"
    FLAGS DCP
    INDEX 01 66:46:47
  TRACK 13 AUDIO
    TITLE "Loco Mia"
    PERFORMER "Loco Mia"
    FLAGS DCP
    INDEX 01 73:26:14

Отчёт ЕАС&#58;

Exact Audio Copy V1.0 beta 3 from 29. August 2011
EAC extraction logfile from 10. October 2013, 13:10
VA / I Love Tocata 80s - CD1
Used drive  : TSSTcorpCDDVDW SH-224BB   Adapter: 4  ID: 1
Read mode               : Secure
Utilize accurate stream : Yes
Defeat audio cache      : Yes
Make use of C2 pointers : No
Read offset correction                      : 6
Overread into Lead-In and Lead-Out          : No
Fill up missing offset samples with silence : Yes
Delete leading and trailing silent blocks   : No
Null samples used in CRC calculations       : Yes
Used interface                              : Native Win32 interface for Win NT & 2000
Used output format              : User Defined Encoder
Selected bitrate                : 1024 kBit/s
Quality                         : High
Add ID3 tag                     : No
Command line compressor         : D:\EAC---强版\Exact Audio Copy\FLAC\FLAC.EXE
Additional command line options : -6 -V -T "ARTIST=%artist%" -T "TITLE=%title%" -T "ALBUM=%albumtitle%" -T "DATE=%year%" -T "TRACKNUMBER=%tracknr%" -T "GENRE=%genre%" -T "COMMENT=%comment%" -T "BAND=%albuminterpret%" -T "ALBUMARTIST=%albuminterpret%" -T "COMPOSER=%composer%" %haslyrics%--tag-from-file=LYRICS="%lyricsfile%"%haslyrics% -T "DISCNUMBER=%cdnumber%" -T "TOTALDISCS=%totalcds%" -T "TOTALTRACKS=%numtracks%" %hascover%--picture="%coverfile%"%hascover% %source% -o %dest%
TOC of the extracted CD
     Track |   Start  |  Length  | Start sector | End sector
    ---------------------------------------------------------
        1  |  0:00.00 |  5:05.50 |         0    |    22924
        2  |  5:05.50 |  5:33.06 |     22925    |    47905
        3  | 10:38.56 |  6:53.20 |     47906    |    78900
        4  | 17:32.01 |  5:50.45 |     78901    |   105195
        5  | 23:22.46 |  7:34.40 |    105196    |   139285
        6  | 30:57.11 |  6:44.30 |    139286    |   169615
        7  | 37:41.41 |  6:09.01 |    169616    |   197291
        8  | 43:50.42 |  4:31.51 |    197292    |   217667
        9  | 48:22.18 |  3:59.67 |    217668    |   235659
       10  | 52:22.10 |  7:17.59 |    235660    |   268493
       11  | 59:39.69 |  7:06.53 |    268494    |   300496
       12  | 66:46.47 |  6:39.42 |    300497    |   330463
       13  | 73:26.14 |  5:45.20 |    330464    |   356358
Range status and errors
Selected range
     Filename E:\VA - I Love Tocata 80s - CD1.wav
     Peak level 100.0 %
     Extraction speed 8.8 X
     Range quality 100.0 %
     Copy CRC 97A90E26
     Copy OK
No errors occurred
AccurateRip summary
Track  1  not present in database
Track  2  not present in database
Track  3  not present in database
Track  4  not present in database
Track  5  not present in database
Track  6  not present in database
Track  7  not present in database
Track  8  not present in database
Track  9  not present in database
Track 10  not present in database
Track 11  not present in database
Track 12  not present in database
Track 13  not present in database
None of the tracks are present in the AccurateRip database
End of status report

Отчёт auCDtect Task Manager&#58;

-----------------------
DON'T MODIFY THIS FILE
-----------------------
PERFORMER: auCDtect Task Manager, ver. 1.6.0 RC1 build 1.6.0.1
Copyright (c) 2008-2010 y-soft. All rights reserved
http://y-soft.org
ANALYZER: auCDtect: CD records authenticity detector, version 0.8.2
Copyright (c) 2004 Oleg Berngardt. All rights reserved.
Copyright (c) 2004 Alexander Djourik. All rights reserved.
FILE: VA - I Love Tocata 80s - CD1.flac
  Size: 581104159 Hash: FEAA8C25DB70487498D6ED0A07C2EA94 Accuracy: -m0
  Conclusion: CDDA 99%
  Signature: D614454DCCC6220120D66F0C83C85347193AF899

CD 2

Пpодолжительность: 01:17:43
Тpеклист:
01. Shannon - Let The Music Play [5:44]
02. Indeep - Last Night A D.J. Saved My Life [5:38]
03. Nacho - Da Da Da [6:12]
04. Cinemaspop - Zorba El Griego [5:14]
05. Azul Y Negro - The Night [6:09]
06. F.R. David - Pick Up The Phone [3:56]
07. Berlin - Sex (I'm A...) [8:07]
08. Sylvester - Rock The Box [5:01]
09. Billy Ocean - Loverboy [8:07]
10. C.C. Catch - Cause You Are Young [4:54]
11. Loui$ - Computer Soul [6:50]
12. Carlos PЁ¦rez - Soltero [5:43]
13. Dynamic Seven - Shame, Shame, Shame [6:07]

Содержимое индексной карты (.cue&#41;&#58;

REM GENRE Disco
REM DISCID C712360D
REM COMMENT "ExactAudioCopy v1.0b3"
PERFORMER "VA"
TITLE "I Love Tocata 80s - CD2"
FILE "VA - I Love Tocata 80s - CD2.flac" WAVE
  TRACK 01 AUDIO
    TITLE "Let The Music Play"
    PERFORMER "Shannon"
    FLAGS DCP
    INDEX 01 00:00:00
  TRACK 02 AUDIO
    TITLE "Last Night A D.J. Saved My Life"
    PERFORMER "Indeep"
    FLAGS DCP
    INDEX 01 05:44:37
  TRACK 03 AUDIO
    TITLE "Da Da Da"
    PERFORMER "Nacho"
    FLAGS DCP
    INDEX 01 11:22:21
  TRACK 04 AUDIO
    TITLE "Zorba El Griego"
    PERFORMER "Cinemaspop"
    FLAGS DCP
    INDEX 01 17:34:41
  TRACK 05 AUDIO
    TITLE "The Night"
    PERFORMER "Azul Y Negro"
    FLAGS DCP
    INDEX 01 22:48:07
  TRACK 06 AUDIO
    TITLE "Pick Up The Phone"
    PERFORMER "F.R. David"
    FLAGS DCP
    INDEX 01 28:57:37
  TRACK 07 AUDIO
    TITLE "Sex (I'm A...)"
    PERFORMER "Berlin"
    FLAGS DCP
    INDEX 01 32:53:70
  TRACK 08 AUDIO
    TITLE "Rock The Box"
    PERFORMER "Sylvester"
    FLAGS DCP
    INDEX 01 41:00:45
  TRACK 09 AUDIO
    TITLE "Loverboy"
    PERFORMER "Billy Ocean"
    FLAGS DCP
    INDEX 01 46:01:25
  TRACK 10 AUDIO
    TITLE "Cause You Are Young"
    PERFORMER "C.C. Catch"
    FLAGS DCP
    INDEX 01 54:08:48
  TRACK 11 AUDIO
    TITLE "Computer Soul"
    PERFORMER "Loui$"
    FLAGS DCP
    INDEX 01 59:02:33
  TRACK 12 AUDIO
    TITLE "Soltero"
    PERFORMER "Carlos PЁ¦rez"
    FLAGS DCP
    INDEX 01 65:52:35
  TRACK 13 AUDIO
    TITLE "Shame, Shame, Shame"
    PERFORMER "Dynamic Seven"
    FLAGS DCP
    INDEX 01 71:35:15

Отчёт ЕАС&#58;

Exact Audio Copy V1.0 beta 3 from 29. August 2011
EAC extraction logfile from 10. October 2013, 13:22
VA / I Love Tocata 80s - CD2
Used drive  : TSSTcorpCDDVDW SH-224BB   Adapter: 4  ID: 1
Read mode               : Secure
Utilize accurate stream : Yes
Defeat audio cache      : Yes
Make use of C2 pointers : No
Read offset correction                      : 6
Overread into Lead-In and Lead-Out          : No
Fill up missing offset samples with silence : Yes
Delete leading and trailing silent blocks   : No
Null samples used in CRC calculations       : Yes
Used interface                              : Native Win32 interface for Win NT & 2000
Used output format              : User Defined Encoder
Selected bitrate                : 1024 kBit/s
Quality                         : High
Add ID3 tag                     : No
Command line compressor         : D:\EAC---强版\Exact Audio Copy\FLAC\FLAC.EXE
Additional command line options : -6 -V -T "ARTIST=%artist%" -T "TITLE=%title%" -T "ALBUM=%albumtitle%" -T "DATE=%year%" -T "TRACKNUMBER=%tracknr%" -T "GENRE=%genre%" -T "COMMENT=%comment%" -T "BAND=%albuminterpret%" -T "ALBUMARTIST=%albuminterpret%" -T "COMPOSER=%composer%" %haslyrics%--tag-from-file=LYRICS="%lyricsfile%"%haslyrics% -T "DISCNUMBER=%cdnumber%" -T "TOTALDISCS=%totalcds%" -T "TOTALTRACKS=%numtracks%" %hascover%--picture="%coverfile%"%hascover% %source% -o %dest%
TOC of the extracted CD
     Track |   Start  |  Length  | Start sector | End sector
    ---------------------------------------------------------
        1  |  0:00.00 |  5:44.37 |         0    |    25836
        2  |  5:44.37 |  5:37.59 |     25837    |    51170
        3  | 11:22.21 |  6:12.20 |     51171    |    79090
        4  | 17:34.41 |  5:13.41 |     79091    |   102606
        5  | 22:48.07 |  6:09.30 |    102607    |   130311
        6  | 28:57.37 |  3:56.33 |    130312    |   148044
        7  | 32:53.70 |  8:06.50 |    148045    |   184544
        8  | 41:00.45 |  5:00.55 |    184545    |   207099
        9  | 46:01.25 |  8:07.23 |    207100    |   243647
       10  | 54:08.48 |  4:53.60 |    243648    |   265682
       11  | 59:02.33 |  6:50.02 |    265683    |   296434
       12  | 65:52.35 |  5:42.55 |    296435    |   322139
       13  | 71:35.15 |  6:07.26 |    322140    |   349690
Range status and errors
Selected range
     Filename E:\VA - I Love Tocata 80s - CD2.wav
     Peak level 100.0 %
     Extraction speed 8.4 X
     Range quality 100.0 %
     Copy CRC 2BBD6DD4
     Copy OK
No errors occurred
AccurateRip summary
Track  1  not present in database
Track  2  not present in database
Track  3  not present in database
Track  4  not present in database
Track  5  not present in database
Track  6  not present in database
Track  7  not present in database
Track  8  not present in database
Track  9  not present in database
Track 10  not present in database
Track 11  not present in database
Track 12  not present in database
Track 13  not present in database
None of the tracks are present in the AccurateRip database
End of status report

Отчёт auCDtect Task Manager&#58;

-----------------------
DON'T MODIFY THIS FILE
-----------------------
PERFORMER: auCDtect Task Manager, ver. 1.6.0 RC1 build 1.6.0.1
Copyright (c) 2008-2010 y-soft. All rights reserved
http://y-soft.org
ANALYZER: auCDtect: CD records authenticity detector, version 0.8.2
Copyright (c) 2004 Oleg Berngardt. All rights reserved.
Copyright (c) 2004 Alexander Djourik. All rights reserved.
FILE: VA - I Love Tocata 80s - CD2.flac
  Size: 566534671 Hash: 1002FD4BC54A9B9D5E7EE47025C67CF9 Accuracy: -m0
  Conclusion: CDDA 100%
  Signature: 5762EAAD41CB0B92C35C29BE25A9975C7FE51FB3
-
[Профиль] [ЛС]

Создавать темы 13-Авг-2015 11:37 (спустя 7 месяцев 19 дней)

Топик был перенесен из форума Неофициальные и внежанровые сборники 70х-80х-90х (Ретро) в форум Other genres
sergej644
 
Показать сообщения:    

Текущее время: Сегодня 16:21

Часовой пояс: GMT



Вы не можете начинать темы
Вы не можете отвечать на сообщения
Вы не можете редактировать свои сообщения
Вы не можете удалять свои сообщения
Вы не можете голосовать в опросах
Вы не можете прикреплять файлы к сообщениям
Вы не можете скачивать файлы