VA - I Love Disco UK 80's (2012) 2CD [FLAC|Lossless]<Italo-Disco, Hi-NRG, Synthpop>

 
Автор Сообщение

sergej644 ®

Пол:

Стаж: 4 года 11 месяцев

Сообщений: 6041

Откуда: Soviet Union



Награды: Нет

Торрент-статистика

Создавать темы 25-Дек-2014 00:09

[Цитировать]

-VA - I Love Disco UK 80's (2012)- -Год: 2012 • Жанр: Italo-Disco, Hi-NRG, Synthpop • Продолжительность: 02:25:22
Лейбл: Blanco Y NegroКаталожный №: MXCD 2432 (CB) • Сканы: Комплект
Кодек: FLAC (image+.cue) • Битрейт: Lossless
-

CD 1

Пpодолжительность: 01:13:16
Треклист:
01. Eurythmics - Sweet Dreams (Are Made Of This) [4:52]
02. Imagination - Just An Illusion (Claps Mix) [8:15]
03. Pet Shop Boys - West End Girls (Original Extended) [7:51]
04. Dead Or Alive - You Spin Me Round (Like A Record) (Performance Mix) [7:24]
05. Samantha Fox - Touch Me (I Want Your Body) (Blue Mix) [5:51]
06. Bros - When Will I Be Famous? [5:41]
07. Jason Donovan - Too Many Broken Hearts (Extended Mix) [5:43]
08. Mandy Smith - I Just Can't Wait [7:17]
09. Sinitta - Toy Boy (Bicep Mix) [7:35]
10. Shooting Party - Safe In The Arms Of Love (Original Extended) [6:33]
11. Princess - Say I'm Your Number One (Original Extended) [6:14]

Содержимое индексной карты (.cue&#41;&#58;

REM GENRE Disco
REM DATE 2012
REM DISCID 96112C0B
REM COMMENT "ExactAudioCopy v1.0b3"
PERFORMER "VA"
TITLE "I Love Disco UK 80's - CD1"
FILE "VA - I Love Disco UK 80's - CD1.flac" WAVE
  TRACK 01 AUDIO
    TITLE "Sweet Dreams (Are Made Of This)"
    PERFORMER "Eurythmics"
    FLAGS DCP
    INDEX 01 00:00:00
  TRACK 02 AUDIO
    TITLE "Just An Illusion (Claps Mix)"
    PERFORMER "Imagination"
    FLAGS DCP
    INDEX 01 04:51:46
  TRACK 03 AUDIO
    TITLE "West End Girls (Original Extended)"
    PERFORMER "Pet Shop Boys"
    FLAGS DCP
    INDEX 01 13:06:23
  TRACK 04 AUDIO
    TITLE "You Spin Me Round (Like A Record) (Performance Mix)"
    PERFORMER "Dead Or Alive"
    FLAGS DCP
    INDEX 01 20:56:61
  TRACK 05 AUDIO
    TITLE "Touch Me (I Want Your Body) (Blue Mix)"
    PERFORMER "Samantha Fox"
    FLAGS DCP
    INDEX 01 28:21:14
  TRACK 06 AUDIO
    TITLE "When Will I Be Famous?"
    PERFORMER "Bros"
    FLAGS DCP
    INDEX 01 34:11:57
  TRACK 07 AUDIO
    TITLE "Too Many Broken Hearts (Extended Mix)"
    PERFORMER "Jason Donovan"
    FLAGS DCP
    INDEX 01 39:52:68
  TRACK 08 AUDIO
    TITLE "I Just Can't Wait"
    PERFORMER "Mandy Smith"
    FLAGS DCP
    INDEX 01 45:35:60
  TRACK 09 AUDIO
    TITLE "Toy Boy (Bicep Mix)"
    PERFORMER "Sinitta"
    FLAGS DCP
    INDEX 01 52:53:14
  TRACK 10 AUDIO
    TITLE "Safe In The Arms Of Love (Original Extended)"
    PERFORMER "Shooting Party"
    FLAGS DCP
    INDEX 01 60:28:24
  TRACK 11 AUDIO
    TITLE "Say I'm Your Number One (Original Extended)"
    PERFORMER "Princess"
    FLAGS DCP
    INDEX 01 67:01:49

Отчёт ЕАС&#58;

Exact Audio Copy V1.0 beta 3 from 29. August 2011
EAC extraction logfile from 10. October 2013, 20:36
VA / I Love Disco UK 80's - CD1
Used drive  : TSSTcorpCDDVDW SH-224BB   Adapter: 4  ID: 1
Read mode               : Secure
Utilize accurate stream : Yes
Defeat audio cache      : Yes
Make use of C2 pointers : No
Read offset correction                      : 6
Overread into Lead-In and Lead-Out          : No
Fill up missing offset samples with silence : Yes
Delete leading and trailing silent blocks   : No
Null samples used in CRC calculations       : Yes
Used interface                              : Native Win32 interface for Win NT & 2000
Used output format              : User Defined Encoder
Selected bitrate                : 1024 kBit/s
Quality                         : High
Add ID3 tag                     : No
Command line compressor         : D:\EAC---强版\Exact Audio Copy\FLAC\FLAC.EXE
Additional command line options : -6 -V -T "ARTIST=%artist%" -T "TITLE=%title%" -T "ALBUM=%albumtitle%" -T "DATE=%year%" -T "TRACKNUMBER=%tracknr%" -T "GENRE=%genre%" -T "COMMENT=%comment%" -T "BAND=%albuminterpret%" -T "ALBUMARTIST=%albuminterpret%" -T "COMPOSER=%composer%" %haslyrics%--tag-from-file=LYRICS="%lyricsfile%"%haslyrics% -T "DISCNUMBER=%cdnumber%" -T "TOTALDISCS=%totalcds%" -T "TOTALTRACKS=%numtracks%" %hascover%--picture="%coverfile%"%hascover% %source% -o %dest%
TOC of the extracted CD
     Track |   Start  |  Length  | Start sector | End sector
    ---------------------------------------------------------
        1  |  0:00.00 |  4:51.46 |         0    |    21870
        2  |  4:51.46 |  8:14.52 |     21871    |    58972
        3  | 13:06.23 |  7:50.38 |     58973    |    94260
        4  | 20:56.61 |  7:24.28 |     94261    |   127588
        5  | 28:21.14 |  5:50.43 |    127589    |   153881
        6  | 34:11.57 |  5:41.11 |    153882    |   179467
        7  | 39:52.68 |  5:42.67 |    179468    |   205184
        8  | 45:35.60 |  7:17.29 |    205185    |   237988
        9  | 52:53.14 |  7:35.10 |    237989    |   272123
       10  | 60:28.24 |  6:33.25 |    272124    |   301623
       11  | 67:01.49 |  6:14.27 |    301624    |   329700
Range status and errors
Selected range
     Filename E:\VA - I Love Disco UK 80's - CD1.wav
     Peak level 100.0 %
     Extraction speed 7.9 X
     Range quality 99.9 %
     Copy CRC 1D05F44D
     Copy OK
No errors occurred
AccurateRip summary
Track  1  accurately ripped (confidence 1)  [4E20AAD9]  (AR v2)
Track  2  accurately ripped (confidence 1)  [89396D6C]  (AR v2)
Track  3  accurately ripped (confidence 1)  [74A7280E]  (AR v2)
Track  4  accurately ripped (confidence 1)  [75967DA1]  (AR v2)
Track  5  accurately ripped (confidence 1)  [9F522508]  (AR v2)
Track  6  accurately ripped (confidence 1)  [15C53089]  (AR v2)
Track  7  accurately ripped (confidence 1)  [DD52BBF4]  (AR v2)
Track  8  accurately ripped (confidence 1)  [36531936]  (AR v2)
Track  9  accurately ripped (confidence 1)  [A6534E99]  (AR v2)
Track 10  accurately ripped (confidence 1)  [6AF05AE1]  (AR v2)
Track 11  accurately ripped (confidence 1)  [7560E773]  (AR v2)
All tracks accurately ripped
End of status report

Отчёт auCDtect Task Manager&#58;

-----------------------
DON'T MODIFY THIS FILE
-----------------------
PERFORMER: auCDtect Task Manager, ver. 1.6.0 RC1 build 1.6.0.1
Copyright (c) 2008-2010 y-soft. All rights reserved
http://y-soft.org
ANALYZER: auCDtect: CD records authenticity detector, version 0.8.2
Copyright (c) 2004 Oleg Berngardt. All rights reserved.
Copyright (c) 2004 Alexander Djourik. All rights reserved.
FILE: VA - I Love Disco UK 80's - CD1.flac
  Size: 553280914 Hash: 44DFD7277C05F49F1B706567F8E4E0E3 Accuracy: -m0
  Conclusion: CDDA 100%
  Signature: 475225FB62E4DE50A775B30BE2D26D448059E495

CD 2

Пpодолжительность: 01:12:06
Тpеклист:
01. Kylie Minogue - Kylie's Smiley Mix (Original Extended) [6:20]
02. Rick Astley - Rick's Hit Mix (Original Extended) [5:50]
03. Liza Minnelli - Losing My Mind (Extended Mix) [7:00]
04. Hazell Dean - They Say It's Gonna Rain (Zulu Mix) [7:06]
05. Divine - You Think You're A Man (Remix) [6:24]
06. Jakie Quartz - Ё¤ La Vie, Ё¤ L'Amour (Cannes Mix) [6:30]
07. Lana Pellay - I Can Make A Man Out Of You (Original Extended) [5:56]
08. Dollar - Oh L'Amour (Extended Mix) [6:51]
09. Carol Hitchcock - Get Ready (Remix) [7:40]
10. Kelly Marie - Feels Like I'm In Love (Remix) [6:52]
11. Lonnie Gordon - Happenin' All Over Again (Hip House Mix) [5:37]

Содержимое индексной карты (.cue&#41;&#58;

REM GENRE Disco
REM DATE 2012
REM DISCID A310E60B
REM COMMENT "ExactAudioCopy v1.0b3"
PERFORMER "VA"
TITLE "I Love Disco UK 80's - CD2"
FILE "VA - I Love Disco UK 80's - CD2.flac" WAVE
  TRACK 01 AUDIO
    TITLE "Kylie's Smiley Mix (Original Extended)"
    PERFORMER "Kylie Minogue"
    FLAGS DCP
    INDEX 01 00:00:00
  TRACK 02 AUDIO
    TITLE "Rick's Hit Mix (Original Extended)"
    PERFORMER "Rick Astley"
    FLAGS DCP
    INDEX 01 06:19:58
  TRACK 03 AUDIO
    TITLE "Losing My Mind (Extended Mix)"
    PERFORMER "Liza Minnelli"
    FLAGS DCP
    INDEX 01 12:10:03
  TRACK 04 AUDIO
    TITLE "They Say It's Gonna Rain (Zulu Mix)"
    PERFORMER "Hazell Dean"
    FLAGS DCP
    INDEX 01 19:10:14
  TRACK 05 AUDIO
    TITLE "You Think You're A Man (Remix)"
    PERFORMER "Divine"
    FLAGS DCP
    INDEX 01 26:16:01
  TRACK 06 AUDIO
    TITLE "Ё¤ La Vie, Ё¤ L'Amour (Cannes Mix)"
    PERFORMER "Jakie Quartz"
    FLAGS DCP
    INDEX 01 32:40:37
  TRACK 07 AUDIO
    TITLE "I Can Make A Man Out Of You (Original Extended)"
    PERFORMER "Lana Pellay"
    FLAGS DCP
    INDEX 01 39:10:41
  TRACK 08 AUDIO
    TITLE "Oh L'Amour (Extended Mix)"
    PERFORMER "Dollar"
    FLAGS DCP
    INDEX 01 45:06:69
  TRACK 09 AUDIO
    TITLE "Get Ready (Remix)"
    PERFORMER "Carol Hitchcock "
    FLAGS DCP
    INDEX 01 51:57:46
  TRACK 10 AUDIO
    TITLE "Feels Like I'm In Love (Remix)"
    PERFORMER "Kelly Marie"
    FLAGS DCP
    INDEX 01 59:37:22
  TRACK 11 AUDIO
    TITLE "Happenin' All Over Again (Hip House Mix)"
    PERFORMER "Lonnie Gordon"
    FLAGS DCP
    INDEX 01 66:29:33

Отчёт ЕАС&#58;

Exact Audio Copy V1.0 beta 3 from 29. August 2011
EAC extraction logfile from 10. October 2013, 20:52
VA / I Love Disco UK 80's - CD2
Used drive  : TSSTcorpCDDVDW SH-224BB   Adapter: 4  ID: 1
Read mode               : Secure
Utilize accurate stream : Yes
Defeat audio cache      : Yes
Make use of C2 pointers : No
Read offset correction                      : 6
Overread into Lead-In and Lead-Out          : No
Fill up missing offset samples with silence : Yes
Delete leading and trailing silent blocks   : No
Null samples used in CRC calculations       : Yes
Used interface                              : Native Win32 interface for Win NT & 2000
Used output format              : User Defined Encoder
Selected bitrate                : 1024 kBit/s
Quality                         : High
Add ID3 tag                     : No
Command line compressor         : D:\EAC---强版\Exact Audio Copy\FLAC\FLAC.EXE
Additional command line options : -6 -V -T "ARTIST=%artist%" -T "TITLE=%title%" -T "ALBUM=%albumtitle%" -T "DATE=%year%" -T "TRACKNUMBER=%tracknr%" -T "GENRE=%genre%" -T "COMMENT=%comment%" -T "BAND=%albuminterpret%" -T "ALBUMARTIST=%albuminterpret%" -T "COMPOSER=%composer%" %haslyrics%--tag-from-file=LYRICS="%lyricsfile%"%haslyrics% -T "DISCNUMBER=%cdnumber%" -T "TOTALDISCS=%totalcds%" -T "TOTALTRACKS=%numtracks%" %hascover%--picture="%coverfile%"%hascover% %source% -o %dest%
TOC of the extracted CD
     Track |   Start  |  Length  | Start sector | End sector
    ---------------------------------------------------------
        1  |  0:00.00 |  6:19.58 |         0    |    28482
        2  |  6:19.58 |  5:50.20 |     28483    |    54752
        3  | 12:10.03 |  7:00.11 |     54753    |    86263
        4  | 19:10.14 |  7:05.62 |     86264    |   118200
        5  | 26:16.01 |  6:24.36 |    118201    |   147036
        6  | 32:40.37 |  6:30.04 |    147037    |   176290
        7  | 39:10.41 |  5:56.28 |    176291    |   203018
        8  | 45:06.69 |  6:50.52 |    203019    |   233820
        9  | 51:57.46 |  7:39.51 |    233821    |   268296
       10  | 59:37.22 |  6:52.11 |    268297    |   299207
       11  | 66:29.33 |  5:36.64 |    299208    |   324471
Range status and errors
Selected range
     Filename E:\VA - I Love Disco UK 80's - CD2.wav
     Peak level 100.0 %
     Extraction speed 7.8 X
     Range quality 99.9 %
     Copy CRC 4FEDE82F
     Copy OK
No errors occurred
AccurateRip summary
Track  1  cannot be verified as accurate (confidence 1)  [2C4BF8C6], AccurateRip returned [78A80319]  (AR v2)
Track  2  cannot be verified as accurate (confidence 1)  [80418041], AccurateRip returned [EA42D7AA]  (AR v2)
Track  3  cannot be verified as accurate (confidence 1)  [F51D86C0], AccurateRip returned [44C87256]  (AR v2)
Track  4  cannot be verified as accurate (confidence 1)  [42BE439C], AccurateRip returned [1AD82E09]  (AR v2)
Track  5  cannot be verified as accurate (confidence 1)  [892A098C], AccurateRip returned [CB0FDCFF]  (AR v2)
Track  6  cannot be verified as accurate (confidence 1)  [E359B1B4], AccurateRip returned [72D59D3B]  (AR v2)
Track  7  cannot be verified as accurate (confidence 1)  [A7193CC3], AccurateRip returned [46B2B733]  (AR v2)
Track  8  cannot be verified as accurate (confidence 1)  [84EF6A96], AccurateRip returned [E67ABBA0]  (AR v2)
Track  9  cannot be verified as accurate (confidence 1)  [8AE269AC], AccurateRip returned [06CCC0D5]  (AR v2)
Track 10  cannot be verified as accurate (confidence 1)  [2BF212F3], AccurateRip returned [038BFD41]  (AR v2)
Track 11  cannot be verified as accurate (confidence 1)  [9C14CCC3], AccurateRip returned [5C78F256]  (AR v2)
No tracks could be verified as accurate
You may have a different pressing from the one(s) in the database
End of status report

Отчёт auCDtect Task Manager&#58;

-----------------------
DON'T MODIFY THIS FILE
-----------------------
PERFORMER: auCDtect Task Manager, ver. 1.6.0 RC1 build 1.6.0.1
Copyright (c) 2008-2010 y-soft. All rights reserved
http://y-soft.org
ANALYZER: auCDtect: CD records authenticity detector, version 0.8.2
Copyright (c) 2004 Oleg Berngardt. All rights reserved.
Copyright (c) 2004 Alexander Djourik. All rights reserved.
FILE: VA - I Love Disco UK 80's - CD2.flac
  Size: 546753966 Hash: 6FEB9F8A337F37211EE6686286899AFE Accuracy: -m0
  Conclusion: CDDA 100%
  Signature: B30A83A94F93FC1B4AA965D532BD63EB4AE894B0
-
[Профиль] [ЛС]

Создавать темы 13-Авг-2015 11:37 (спустя 7 месяцев 19 дней)

Топик был перенесен из форума Неофициальные и внежанровые сборники 70х-80х-90х (Ретро) в форум Other genres
sergej644
 
Показать сообщения:    

Текущее время: Сегодня 01:07

Часовой пояс: GMT



Вы не можете начинать темы
Вы не можете отвечать на сообщения
Вы не можете редактировать свои сообщения
Вы не можете удалять свои сообщения
Вы не можете голосовать в опросах
Вы не можете прикреплять файлы к сообщениям
Вы не можете скачивать файлы