VA - I Love Disco Germany 80's (2012) 2CD [FLAC|Lossless]<Italo-Disco, Hi-NRG, Synthpop>

 
Автор Сообщение

sergej644 ®

Пол:

Стаж: 4 года 11 месяцев

Сообщений: 6046

Откуда: Soviet Union



Награды: Нет

Торрент-статистика

Создавать темы 25-Дек-2014 00:06

[Цитировать]

-VA - I Love Disco Germany 80's (2012)- -Год: 2012 • Жанр: Italo-Disco, Hi-NRG, Synthpop • Продолжительность: 02:34:24
Лейбл: Blanco Y NegroКаталожный №: MXCD 2474 (CB) • Сканы: Комплект
Кодек: FLAC (image+.cue) • Битрейт: Lossless
-

CD 1

Пpодолжительность: 01:18:42
Треклист:
01. Falco - Der Kommissar (Extended Version) [6:27]
02. Trio - Da Da Da [6:33]
03. Nena - 99 Red Balloons [4:43]
04. Alphaville - Big In Japan [7:24]
05. Propaganda - P:Machinery [9:22]
06. Fox The Fox - Precious Little Diamond [7:26]
07. Modern Talking - You're My Heart, You're My Soul [5:33]
08. Twins, The - Face To Face, Heart To Heart [5:00]
09. Fancy - Turbo Dancer Remix [8:12]
10. Bad Boys Blue - You're A Woman [5:21]
11. Silent Circle - Touch In The Night [5:34]
12. Mike Mareen - Dancing In The Dark (Galactica Remix) [7:07]

Содержимое индексной карты (.cue&#41;&#58;

REM GENRE Disco
REM DATE 2012
REM DISCID B812710C
REM COMMENT "ExactAudioCopy v1.0b3"
PERFORMER "VA"
TITLE "I Love Disco Germany 80's - CD1"
FILE "VA - I Love Disco Germany 80's - CD1.flac" WAVE
  TRACK 01 AUDIO
    TITLE "Der Kommissar (Extended Version)"
    PERFORMER "Falco"
    FLAGS DCP
    INDEX 01 00:00:00
  TRACK 02 AUDIO
    TITLE "Da Da Da"
    PERFORMER "Trio"
    FLAGS DCP
    INDEX 01 06:27:06
  TRACK 03 AUDIO
    TITLE "99 Red Balloons"
    PERFORMER "Nena"
    FLAGS DCP
    INDEX 01 13:00:02
  TRACK 04 AUDIO
    TITLE "Big In Japan"
    PERFORMER "Alphaville"
    FLAGS DCP
    INDEX 01 17:42:49
  TRACK 05 AUDIO
    TITLE "P:Machinery"
    PERFORMER "Propaganda "
    FLAGS DCP
    INDEX 01 25:06:25
  TRACK 06 AUDIO
    TITLE "Precious Little Diamond"
    PERFORMER "Fox The Fox"
    FLAGS DCP
    INDEX 01 34:28:35
  TRACK 07 AUDIO
    TITLE "You're My Heart, You're My Soul"
    PERFORMER "Modern Talking"
    FLAGS DCP
    INDEX 01 41:54:46
  TRACK 08 AUDIO
    TITLE "Face To Face, Heart To Heart"
    PERFORMER "Twins, The "
    FLAGS DCP
    INDEX 01 47:27:52
  TRACK 09 AUDIO
    TITLE "Turbo Dancer Remix"
    PERFORMER "Fancy"
    FLAGS DCP
    INDEX 01 52:27:29
  TRACK 10 AUDIO
    TITLE "You're A Woman"
    PERFORMER "Bad Boys Blue"
    FLAGS DCP
    INDEX 01 60:39:57
  TRACK 11 AUDIO
    TITLE "Touch In The Night"
    PERFORMER "Silent Circle"
    FLAGS DCP
    INDEX 00 65:59:15
    INDEX 01 66:01:15
  TRACK 12 AUDIO
    TITLE "Dancing In The Dark (Galactica Remix)"
    PERFORMER "Mike Mareen"
    FLAGS DCP
    INDEX 01 71:35:17

Отчёт ЕАС&#58;

Exact Audio Copy V1.0 beta 3 from 29. August 2011
EAC extraction logfile from 13. October 2013, 22:07
VA / I Love Disco Germany 80's - CD1
Used drive  : TSSTcorpCDDVDW SH-224BB   Adapter: 4  ID: 1
Read mode               : Secure
Utilize accurate stream : Yes
Defeat audio cache      : Yes
Make use of C2 pointers : No
Read offset correction                      : 6
Overread into Lead-In and Lead-Out          : No
Fill up missing offset samples with silence : Yes
Delete leading and trailing silent blocks   : No
Null samples used in CRC calculations       : Yes
Used interface                              : Native Win32 interface for Win NT & 2000
Used output format              : User Defined Encoder
Selected bitrate                : 1024 kBit/s
Quality                         : High
Add ID3 tag                     : No
Command line compressor         : D:\EAC---强版\Exact Audio Copy\FLAC\FLAC.EXE
Additional command line options : -6 -V -T "ARTIST=%artist%" -T "TITLE=%title%" -T "ALBUM=%albumtitle%" -T "DATE=%year%" -T "TRACKNUMBER=%tracknr%" -T "GENRE=%genre%" -T "COMMENT=%comment%" -T "BAND=%albuminterpret%" -T "ALBUMARTIST=%albuminterpret%" -T "COMPOSER=%composer%" %haslyrics%--tag-from-file=LYRICS="%lyricsfile%"%haslyrics% -T "DISCNUMBER=%cdnumber%" -T "TOTALDISCS=%totalcds%" -T "TOTALTRACKS=%numtracks%" %hascover%--picture="%coverfile%"%hascover% %source% -o %dest%
TOC of the extracted CD
     Track |   Start  |  Length  | Start sector | End sector
    ---------------------------------------------------------
        1  |  0:00.00 |  6:27.06 |         0    |    29030
        2  |  6:27.06 |  6:32.71 |     29031    |    58501
        3  | 13:00.02 |  4:42.47 |     58502    |    79698
        4  | 17:42.49 |  7:23.51 |     79699    |   112974
        5  | 25:06.25 |  9:22.10 |    112975    |   155134
        6  | 34:28.35 |  7:26.11 |    155135    |   188595
        7  | 41:54.46 |  5:33.06 |    188596    |   213576
        8  | 47:27.52 |  4:59.52 |    213577    |   236053
        9  | 52:27.29 |  8:12.28 |    236054    |   272981
       10  | 60:39.57 |  5:21.33 |    272982    |   297089
       11  | 66:01.15 |  5:34.02 |    297090    |   322141
       12  | 71:35.17 |  7:06.47 |    322142    |   354138
Range status and errors
Selected range
     Filename E:\VA - I Love Disco Germany 80's - CD1.wav
     Peak level 98.8 %
     Extraction speed 8.8 X
     Range quality 100.0 %
     Copy CRC 52573999
     Copy OK
No errors occurred
AccurateRip summary
Track  1  accurately ripped (confidence 1)  [E2D3EAA5]  (AR v2)
Track  2  accurately ripped (confidence 1)  [1AD4BF8D]  (AR v2)
Track  3  accurately ripped (confidence 1)  [8A755E91]  (AR v2)
Track  4  accurately ripped (confidence 1)  [F10D5E2F]  (AR v2)
Track  5  accurately ripped (confidence 1)  [35099862]  (AR v2)
Track  6  accurately ripped (confidence 1)  [83C281DF]  (AR v2)
Track  7  accurately ripped (confidence 1)  [A8FD167E]  (AR v2)
Track  8  accurately ripped (confidence 1)  [3A2DA295]  (AR v2)
Track  9  accurately ripped (confidence 1)  [C4A82982]  (AR v2)
Track 10  accurately ripped (confidence 1)  [AA651B4C]  (AR v2)
Track 11  accurately ripped (confidence 1)  [312B5806]  (AR v2)
Track 12  accurately ripped (confidence 1)  [19FC8D52]  (AR v2)
All tracks accurately ripped
End of status report

Отчёт auCDtect Task Manager&#58;

-----------------------
DON'T MODIFY THIS FILE
-----------------------
PERFORMER: auCDtect Task Manager, ver. 1.6.0 RC1 build 1.6.0.1
Copyright (c) 2008-2010 y-soft. All rights reserved
http://y-soft.org
ANALYZER: auCDtect: CD records authenticity detector, version 0.8.2
Copyright (c) 2004 Oleg Berngardt. All rights reserved.
Copyright (c) 2004 Alexander Djourik. All rights reserved.
FILE: VA - I Love Disco Germany 80's - CD1.flac
  Size: 575180948 Hash: E9BD1D4FDB999FB864B882464978F91E Accuracy: -m0
  Conclusion: CDDA 99%
  Signature: 527D9789470FDDD3289362BEBB855855A3F180AE

CD 2

Пpодолжительность: 01:15:42
Тpеклист:
01. Milli Vanilli - Girl You Know It's True [8:48]
02. London Boys - London Nights [8:21]
03. Sandy Wilson - Gimme Your Love Tonight [5:28]
04. Les McKeown - She's A Lady [4:24]
05. Ryan Simmons - The Night Is Yours, The Night Is Mine [6:15]
06. Marc Harris - Airport [6:21]
07. Kenny Masters - Time To Fly (Sing My Song) [5:59]
08. Secret Star - Jump In My Car [4:31]
09. Lian Ross - Say You'll Never [6:41]
10. Solid Strangers - Music In The Night [5:19]
11. Bruce & Bongo - Geil (Der Remix) [7:13]
12. Silicon Dream - Marcello The Mastroianni [6:24]

Содержимое индексной карты (.cue&#41;&#58;

REM GENRE Disco
REM DATE 2012
REM DISCID AE11BE0C
REM COMMENT "ExactAudioCopy v1.0b3"
PERFORMER "VA"
TITLE "I Love Disco Germany 80's - CD2"
FILE "VA - I Love Disco Germany 80's - CD2.flac" WAVE
  TRACK 01 AUDIO
    TITLE "Girl You Know It's True"
    PERFORMER "Milli Vanilli"
    FLAGS DCP
    INDEX 01 00:00:00
  TRACK 02 AUDIO
    TITLE "London Nights"
    PERFORMER "London Boys"
    FLAGS DCP
    INDEX 01 08:47:47
  TRACK 03 AUDIO
    TITLE "Gimme Your Love Tonight"
    PERFORMER "Sandy Wilson"
    FLAGS DCP
    INDEX 01 17:08:19
  TRACK 04 AUDIO
    TITLE "She's A Lady"
    PERFORMER "Les McKeown"
    FLAGS DCP
    INDEX 01 22:36:22
  TRACK 05 AUDIO
    TITLE "The Night Is Yours, The Night Is Mine"
    PERFORMER "Ryan Simmons"
    FLAGS DCP
    INDEX 01 26:59:61
  TRACK 06 AUDIO
    TITLE "Airport"
    PERFORMER "Marc Harris "
    FLAGS DCP
    INDEX 01 33:14:34
  TRACK 07 AUDIO
    TITLE "Time To Fly (Sing My Song)"
    PERFORMER "Kenny Masters"
    FLAGS DCP
    INDEX 01 39:35:17
  TRACK 08 AUDIO
    TITLE "Jump In My Car"
    PERFORMER "Secret Star"
    FLAGS DCP
    INDEX 01 45:34:38
  TRACK 09 AUDIO
    TITLE "Say You'll Never"
    PERFORMER "Lian Ross "
    FLAGS DCP
    INDEX 01 50:05:08
  TRACK 10 AUDIO
    TITLE "Music In The Night"
    PERFORMER "Solid Strangers"
    FLAGS DCP
    INDEX 01 56:46:18
  TRACK 11 AUDIO
    TITLE "Geil (Der Remix)"
    PERFORMER "Bruce & Bongo"
    FLAGS DCP
    INDEX 01 62:05:08
  TRACK 12 AUDIO
    TITLE "Marcello The Mastroianni"
    PERFORMER "Silicon Dream"
    FLAGS DCP
    INDEX 01 69:17:55

Отчёт ЕАС&#58;

Exact Audio Copy V1.0 beta 3 from 29. August 2011
EAC extraction logfile from 13. October 2013, 22:20
VA / I Love Disco Germany 80's - CD2
Used drive  : TSSTcorpCDDVDW SH-224BB   Adapter: 4  ID: 1
Read mode               : Secure
Utilize accurate stream : Yes
Defeat audio cache      : Yes
Make use of C2 pointers : No
Read offset correction                      : 6
Overread into Lead-In and Lead-Out          : No
Fill up missing offset samples with silence : Yes
Delete leading and trailing silent blocks   : No
Null samples used in CRC calculations       : Yes
Used interface                              : Native Win32 interface for Win NT & 2000
Used output format              : User Defined Encoder
Selected bitrate                : 1024 kBit/s
Quality                         : High
Add ID3 tag                     : No
Command line compressor         : D:\EAC---强版\Exact Audio Copy\FLAC\FLAC.EXE
Additional command line options : -6 -V -T "ARTIST=%artist%" -T "TITLE=%title%" -T "ALBUM=%albumtitle%" -T "DATE=%year%" -T "TRACKNUMBER=%tracknr%" -T "GENRE=%genre%" -T "COMMENT=%comment%" -T "BAND=%albuminterpret%" -T "ALBUMARTIST=%albuminterpret%" -T "COMPOSER=%composer%" %haslyrics%--tag-from-file=LYRICS="%lyricsfile%"%haslyrics% -T "DISCNUMBER=%cdnumber%" -T "TOTALDISCS=%totalcds%" -T "TOTALTRACKS=%numtracks%" %hascover%--picture="%coverfile%"%hascover% %source% -o %dest%
TOC of the extracted CD
     Track |   Start  |  Length  | Start sector | End sector
    ---------------------------------------------------------
        1  |  0:00.00 |  8:47.47 |         0    |    39571
        2  |  8:47.47 |  8:20.47 |     39572    |    77118
        3  | 17:08.19 |  5:28.03 |     77119    |   101721
        4  | 22:36.22 |  4:23.39 |    101722    |   121485
        5  | 26:59.61 |  6:14.48 |    121486    |   149583
        6  | 33:14.34 |  6:20.58 |    149584    |   178141
        7  | 39:35.17 |  5:59.21 |    178142    |   205087
        8  | 45:34.38 |  4:30.45 |    205088    |   225382
        9  | 50:05.08 |  6:41.10 |    225383    |   255467
       10  | 56:46.18 |  5:18.65 |    255468    |   279382
       11  | 62:05.08 |  7:12.47 |    279383    |   311829
       12  | 69:17.55 |  6:24.25 |    311830    |   340654
Range status and errors
Selected range
     Filename E:\VA - I Love Disco Germany 80's - CD2.wav
     Peak level 100.0 %
     Extraction speed 8.2 X
     Range quality 100.0 %
     Copy CRC 137979C3
     Copy OK
No errors occurred
AccurateRip summary
Track  1  accurately ripped (confidence 1)  [8B923958]  (AR v2)
Track  2  accurately ripped (confidence 1)  [5712622F]  (AR v2)
Track  3  accurately ripped (confidence 1)  [0230AE7E]  (AR v2)
Track  4  accurately ripped (confidence 1)  [42C52B96]  (AR v2)
Track  5  accurately ripped (confidence 1)  [5450BCE2]  (AR v2)
Track  6  accurately ripped (confidence 1)  [CA2B7BDB]  (AR v2)
Track  7  accurately ripped (confidence 1)  [31614A7A]  (AR v2)
Track  8  accurately ripped (confidence 1)  [31FA72DD]  (AR v2)
Track  9  accurately ripped (confidence 1)  [F3995A4F]  (AR v2)
Track 10  accurately ripped (confidence 1)  [8F86ACEA]  (AR v2)
Track 11  accurately ripped (confidence 1)  [C0D8BA9D]  (AR v2)
Track 12  accurately ripped (confidence 1)  [05EFC597]  (AR v2)
All tracks accurately ripped
End of status report

Отчёт auCDtect Task Manager&#58;

-----------------------
DON'T MODIFY THIS FILE
-----------------------
PERFORMER: auCDtect Task Manager, ver. 1.6.0 RC1 build 1.6.0.1
Copyright (c) 2008-2010 y-soft. All rights reserved
http://y-soft.org
ANALYZER: auCDtect: CD records authenticity detector, version 0.8.2
Copyright (c) 2004 Oleg Berngardt. All rights reserved.
Copyright (c) 2004 Alexander Djourik. All rights reserved.
FILE: VA - I Love Disco Germany 80's - CD2.flac
  Size: 577386273 Hash: E7C997C5E6098BA543971E7B7687C961 Accuracy: -m0
  Conclusion: CDDA 100%
  Signature: BB51F5315435578F64CE7DD37051F4142CC422D3
-
[Профиль] [ЛС]

Создавать темы 13-Авг-2015 11:37 (спустя 7 месяцев 19 дней)

Топик был перенесен из форума Неофициальные и внежанровые сборники 70х-80х-90х (Ретро) в форум Other genres
sergej644
 
Показать сообщения:    

Текущее время: Сегодня 06:24

Часовой пояс: GMT



Вы не можете начинать темы
Вы не можете отвечать на сообщения
Вы не можете редактировать свои сообщения
Вы не можете удалять свои сообщения
Вы не можете голосовать в опросах
Вы не можете прикреплять файлы к сообщениям
Вы не можете скачивать файлы