(Pop) VA - Eurovision Song Contest Vienna (2CD) - 2015 [FLAC, tracks+.cue, lossless]

 
Автор Сообщение

sergej644 ®

Пол:

Стаж: 4 года 11 месяцев

Сообщений: 6035

Откуда: Soviet Union



Награды: Нет

Торрент-статистика

Создавать темы 20-Май-2015 06:31

[Цитировать]

Eurovision Song Contest Vienna (2CD)-- Год издания: 2015
Страна: N/A
Жанр: Pop
Продолжительность: 02:00:03-Лейбл издания: Universal Music Group
Тип альбома: Compilation
Страна-выпуска диска: EU
Номер по каталогу: 472 224 3
Формат: FLAC
Битрейт аудио: lossless
Тип рипа: tracks+.cue
Наличие сканов в содержимом раздачи: да
-

Трэклист

CD 1 / 00:58:55

01. Elhaida Dani - I'm Alive (03:09)
02. Genealogy - Face The Shadow (03:03)
03. The Makemakes - I Am Yours (03:03)
04. Guy Sebastian - Tonight Again (02:58)
05. Elnur Huseynov - Hour Of The Wolf (03:02)
06. Loic Nottet - Rhythm Inside (02:55)
07. Uzari & Maimuna - Time (03:03)
08. Melanie Rene - Time To Shine (03:05)
09. John Karayiannis - One Thing I Should Have Done (03:05)
10. Marta Jandova & Vaclav Noid Barta - Hope Never Dies (03:07)
11. Ann Sophie - Black Smoke (03:02)
12. Anti Social Media - The Way You Are (03:04)
13. Elina Born & Stig Rasta - Goodbye To Yesterday (03:02)
14. Edurne - Amanecer (03:07)
15. Pertti Kurikan Nimipaivat - Aina Mun Pitaa (01:31)
16. Lisa Angell - N'oubliez Pas (03:03)
17. Electro Velvet - Still In Love With You (02:51)
18. Nina Sublatti - Warrior (03:05)
19. Maria Elena Kyriakou - One Last Breath (02:50)
20. Boggie - Wars For Nothing (03:00)

CD 2 / 01:01:08

01. Molly Sterling - Playing With Numbers (03:03)
02. Nadav Guedj - Golden Boy (03:02)
03. Maria Olafs - Unbroken (03:02)
04. Il Volo - Grande Amore (03:04)
05. Monika Linkyte & Vaidas Baumila - This Time (03:04)
06. Aminata - Love Injected (03:02)
07. Eduard Romanyuta - I Want Your Love (03:03)
08. Knez - Adio (03:05)
09. Daniel Kajmakoski - Autumn Leaves (03:05)
10. Amber - Warrior (03:02)
11. Trijntje Oosterhuis - Walk Along (03:06)
12. Morland & Debrah Scarlett - A Monster Like Me (03:06)
13. Monika Kuszynska - In The Name Of Love (02:59)
14. Leonor Andrade - Ha Um Mar Que Nos Separa (03:02)
15. Voltaj - De La Capat (03:02)
16. Bojana Stamenov - Beauty Never Lies (03:02)
17. Polina Gagarina - A Million Voices (03:08)
18. Mans Zelmerlow - Heroes (03:14)
19. Maraaya - Here For You (03:02)
20. Anita Simoncini & Michele Perniola - Chain Of Lights (03:02)

Лог создания рипа

CD 1

Exact Audio Copy V1.0 beta 3 from 29. August 2011
EAC extraction logfile from 18. April 2015, 20:07
Various Artists / Eurovision Song Contest 2015 - Disc 1
Used drive  : PLEXTOR CD-R   PX-230A   Adapter: 3  ID: 0
Read mode               : Secure
Utilize accurate stream : Yes
Defeat audio cache      : Yes
Make use of C2 pointers : No
Read offset correction                      : 738
Overread into Lead-In and Lead-Out          : No
Fill up missing offset samples with silence : Yes
Delete leading and trailing silent blocks   : No
Null samples used in CRC calculations       : Yes
Used interface                              : Native Win32 interface for Win NT & 2000
Gap handling                                : Appended to previous track
Used output format              : User Defined Encoder
Selected bitrate                : 1024 kBit/s
Quality                         : High
Add ID3 tag                     : No
Command line compressor         : C:\Program Files (x86)\Exact Audio Copy\FLAC\FLAC.EXE
Additional command line options : -6 -V -T "ARTIST=%artist%" -T "TITLE=%title%" -T "ALBUM=%albumtitle%" -T "DATE=%year%" -T "TRACKNUMBER=%tracknr%" -T "GENRE=%genre%" -T "COMMENT=%comment%" -T "ALBUMARTIST=%albuminterpret%" -T "COMPOSER=%composer%" -T "DISCNUMBER=%cdnumber%" -T "TOTALDISCS=%totalcds%" -T "TOTALTRACKS=%numtracks%" %source% -o %dest%
TOC of the extracted CD
     Track |   Start  |  Length  | Start sector | End sector
    ---------------------------------------------------------
        1  |  0:00.00 |  3:08.22 |         0    |    14121
        2  |  3:08.22 |  3:02.36 |     14122    |    27807
        3  |  6:10.58 |  3:02.54 |     27808    |    41511
        4  |  9:13.37 |  2:57.64 |     41512    |    54850
        5  | 12:11.26 |  3:01.17 |     54851    |    68442
        6  | 15:12.43 |  2:54.11 |     68443    |    81503
        7  | 18:06.54 |  3:02.43 |     81504    |    95196
        8  | 21:09.22 |  3:04.36 |     95197    |   109032
        9  | 24:13.58 |  3:04.30 |    109033    |   122862
       10  | 27:18.13 |  3:06.67 |    122863    |   136879
       11  | 30:25.05 |  3:02.00 |    136880    |   150529
       12  | 33:27.05 |  3:03.05 |    150530    |   164259
       13  | 36:30.10 |  3:01.10 |    164260    |   177844
       14  | 39:31.20 |  3:06.34 |    177845    |   191828
       15  | 42:37.54 |  1:30.09 |    191829    |   198587
       16  | 44:07.63 |  3:02.37 |    198588    |   212274
       17  | 47:10.25 |  2:50.67 |    212275    |   225091
       18  | 50:01.17 |  3:04.10 |    225092    |   238901
       19  | 53:05.27 |  2:49.59 |    238902    |   251635
       20  | 55:55.11 |  2:59.55 |    251636    |   265115
Track  1
     Filename C:\Music\01 - Elhaida Dani - I'm Alive.wav
     Pre-gap length  0:00:02.00
     Peak level 97.7 %
     Extraction speed 5.3 X
     Track quality 100.0 %
     Test CRC A2C7FAEE
     Copy CRC A2C7FAEE
     Track not present in AccurateRip database
     Copy OK
Track  2
     Filename C:\Music\02 - Genealogy - Face The Shadow.wav
     Pre-gap length  0:00:01.74
     Peak level 97.7 %
     Extraction speed 5.2 X
     Track quality 100.0 %
     Test CRC 6BF53C39
     Copy CRC 6BF53C39
     Track not present in AccurateRip database
     Copy OK
Track  3
     Filename C:\Music\03 - The Makemakes - I Am Yours.wav
     Pre-gap length  0:00:01.74
     Peak level 97.7 %
     Extraction speed 5.2 X
     Track quality 100.0 %
     Test CRC 57B9F2F7
     Copy CRC 57B9F2F7
     Track not present in AccurateRip database
     Copy OK
Track  4
     Filename C:\Music\04 - Guy Sebastian - Tonight Again.wav
     Pre-gap length  0:00:01.74
     Peak level 100.0 %
     Extraction speed 5.2 X
     Track quality 100.0 %
     Test CRC DD4E0470
     Copy CRC DD4E0470
     Track not present in AccurateRip database
     Copy OK
Track  5
     Filename C:\Music\05 - Elnur Huseynov - Hour Of The Wolf.wav
     Pre-gap length  0:00:01.74
     Peak level 97.7 %
     Extraction speed 4.4 X
     Track quality 99.9 %
     Test CRC A73ED83E
     Copy CRC A73ED83E
     Track not present in AccurateRip database
     Copy OK
Track  6
     Filename C:\Music\06 - Loic Nottet - Rhythm Inside.wav
     Pre-gap length  0:00:01.74
     Peak level 97.7 %
     Extraction speed 5.2 X
     Track quality 100.0 %
     Test CRC 1C038E1D
     Copy CRC 1C038E1D
     Track not present in AccurateRip database
     Copy OK
Track  7
     Filename C:\Music\07 - Uzari & Maimuna - Time.wav
     Pre-gap length  0:00:01.74
     Peak level 97.7 %
     Extraction speed 4.4 X
     Track quality 99.9 %
     Test CRC AE2BDAD3
     Copy CRC AE2BDAD3
     Track not present in AccurateRip database
     Copy OK
Track  8
     Filename C:\Music\08 - Melanie Rene - Time To Shine.wav
     Pre-gap length  0:00:01.74
     Peak level 100.0 %
     Extraction speed 5.3 X
     Track quality 100.0 %
     Test CRC E5EBD5C4
     Copy CRC E5EBD5C4
     Track not present in AccurateRip database
     Copy OK
Track  9
     Filename C:\Music\09 - John Karayiannis - One Thing I Should Have Done.wav
     Pre-gap length  0:00:01.74
     Peak level 97.7 %
     Extraction speed 5.2 X
     Track quality 100.0 %
     Test CRC D9D4FA10
     Copy CRC D9D4FA10
     Track not present in AccurateRip database
     Copy OK
Track 10
     Filename C:\Music\10 - Marta Jandova & Vaclav Noid Barta - Hope Never Dies.wav
     Pre-gap length  0:00:01.74
     Peak level 97.7 %
     Extraction speed 4.5 X
     Track quality 99.9 %
     Test CRC 3BC4CB8A
     Copy CRC 3BC4CB8A
     Track not present in AccurateRip database
     Copy OK
Track 11
     Filename C:\Music\11 - Ann Sophie - Black Smoke.wav
     Pre-gap length  0:00:01.74
     Peak level 97.7 %
     Extraction speed 5.1 X
     Track quality 100.0 %
     Test CRC 162F3632
     Copy CRC 162F3632
     Track not present in AccurateRip database
     Copy OK
Track 12
     Filename C:\Music\12 - Anti Social Media - The Way You Are.wav
     Pre-gap length  0:00:01.74
     Peak level 97.7 %
     Extraction speed 5.1 X
     Track quality 100.0 %
     Test CRC 7D584922
     Copy CRC 7D584922
     Track not present in AccurateRip database
     Copy OK
Track 13
     Filename C:\Music\13 - Elina Born & Stig Rasta - Goodbye To Yesterday.wav
     Pre-gap length  0:00:01.74
     Peak level 97.7 %
     Extraction speed 5.1 X
     Track quality 100.0 %
     Test CRC 1598F919
     Copy CRC 1598F919
     Track not present in AccurateRip database
     Copy OK
Track 14
     Filename C:\Music\14 - Edurne - Amanecer.wav
     Pre-gap length  0:00:01.74
     Peak level 97.7 %
     Extraction speed 5.2 X
     Track quality 100.0 %
     Test CRC FF06AD32
     Copy CRC FF06AD32
     Track not present in AccurateRip database
     Copy OK
Track 15
     Filename C:\Music\15 - Pertti Kurikan Nimipaivat - Aina Mun Pitaa.wav
     Pre-gap length  0:00:01.74
     Peak level 97.7 %
     Extraction speed 4.3 X
     Track quality 100.0 %
     Test CRC 6760B6FA
     Copy CRC 6760B6FA
     Track not present in AccurateRip database
     Copy OK
Track 16
     Filename C:\Music\16 - Lisa Angell - N'oubliez Pas.wav
     Pre-gap length  0:00:01.74
     Peak level 97.7 %
     Extraction speed 5.1 X
     Track quality 100.0 %
     Test CRC 4F4C5558
     Copy CRC 4F4C5558
     Track not present in AccurateRip database
     Copy OK
Track 17
     Filename C:\Music\17 - Electro Velvet - Still In Love With You.wav
     Pre-gap length  0:00:01.74
     Peak level 100.0 %
     Extraction speed 5.1 X
     Track quality 100.0 %
     Test CRC 3C710E0E
     Copy CRC 3C710E0E
     Track not present in AccurateRip database
     Copy OK
Track 18
     Filename C:\Music\18 - Nina Sublatti - Warrior.wav
     Pre-gap length  0:00:01.74
     Peak level 97.7 %
     Extraction speed 5.1 X
     Track quality 100.0 %
     Test CRC B3305750
     Copy CRC B3305750
     Track not present in AccurateRip database
     Copy OK
Track 19
     Filename C:\Music\19 - Maria Elena Kyriakou - One Last Breath.wav
     Pre-gap length  0:00:01.74
     Peak level 97.7 %
     Extraction speed 5.0 X
     Track quality 100.0 %
     Test CRC DE74ED54
     Copy CRC DE74ED54
     Track not present in AccurateRip database
     Copy OK
Track 20
     Filename C:\Music\20 - Boggie - Wars For Nothing.wav
     Pre-gap length  0:00:01.74
     Peak level 97.7 %
     Extraction speed 5.0 X
     Track quality 100.0 %
     Test CRC 37A70360
     Copy CRC 37A70360
     Track not present in AccurateRip database
     Copy OK
None of the tracks are present in the AccurateRip database
No errors occurred
End of status report

CD 2

Exact Audio Copy V1.0 beta 3 from 29. August 2011
EAC extraction logfile from 18. April 2015, 20:52
Various Artists / Eurovision Song Contest 2015 - Disc 2
Used drive  : PLEXTOR CD-R   PX-230A   Adapter: 3  ID: 0
Read mode               : Secure
Utilize accurate stream : Yes
Defeat audio cache      : Yes
Make use of C2 pointers : No
Read offset correction                      : 738
Overread into Lead-In and Lead-Out          : No
Fill up missing offset samples with silence : Yes
Delete leading and trailing silent blocks   : No
Null samples used in CRC calculations       : Yes
Used interface                              : Native Win32 interface for Win NT & 2000
Gap handling                                : Appended to previous track
Used output format              : User Defined Encoder
Selected bitrate                : 1024 kBit/s
Quality                         : High
Add ID3 tag                     : No
Command line compressor         : C:\Program Files (x86)\Exact Audio Copy\FLAC\FLAC.EXE
Additional command line options : -6 -V -T "ARTIST=%artist%" -T "TITLE=%title%" -T "ALBUM=%albumtitle%" -T "DATE=%year%" -T "TRACKNUMBER=%tracknr%" -T "GENRE=%genre%" -T "COMMENT=%comment%" -T "ALBUMARTIST=%albuminterpret%" -T "COMPOSER=%composer%" -T "DISCNUMBER=%cdnumber%" -T "TOTALDISCS=%totalcds%" -T "TOTALTRACKS=%numtracks%" %source% -o %dest%
TOC of the extracted CD
     Track |   Start  |  Length  | Start sector | End sector
    ---------------------------------------------------------
        1  |  0:00.00 |  3:02.42 |         0    |    13691
        2  |  3:02.42 |  3:01.63 |     13692    |    27329
        3  |  6:04.30 |  3:02.00 |     27330    |    40979
        4  |  9:06.30 |  3:03.21 |     40980    |    54725
        5  | 12:09.51 |  3:04.00 |     54726    |    68525
        6  | 15:13.51 |  3:02.00 |     68526    |    82175
        7  | 18:15.51 |  3:02.65 |     82176    |    95890
        8  | 21:18.41 |  3:04.65 |     95891    |   109755
        9  | 24:23.31 |  3:04.32 |    109756    |   123587
       10  | 27:27.63 |  3:01.50 |    123588    |   137212
       11  | 30:29.38 |  3:05.02 |    137213    |   151089
       12  | 33:34.40 |  3:05.13 |    151090    |   164977
       13  | 36:39.53 |  2:58.14 |    164978    |   178341
       14  | 39:37.67 |  3:01.72 |    178342    |   191988
       15  | 42:39.64 |  3:02.00 |    191989    |   205638
       16  | 45:41.64 |  3:01.08 |    205639    |   219221
       17  | 48:42.72 |  3:07.72 |    219222    |   233318
       18  | 51:50.69 |  3:13.41 |    233319    |   247834
       19  | 55:04.35 |  3:01.74 |    247835    |   261483
       20  | 58:06.34 |  3:01.25 |    261484    |   275083
Track  1
     Filename C:\Music\01 - Molly Sterling - Playing With Numbers.wav
     Pre-gap length  0:00:02.00
     Peak level 97.7 %
     Extraction speed 4.2 X
     Track quality 99.9 %
     Test CRC F214D7CB
     Copy CRC F214D7CB
     Track not present in AccurateRip database
     Copy OK
Track  2
     Filename C:\Music\02 - Nadav Guedj - Golden Boy.wav
     Pre-gap length  0:00:01.74
     Peak level 97.7 %
     Extraction speed 5.2 X
     Track quality 100.0 %
     Test CRC DA3AE5AD
     Copy CRC DA3AE5AD
     Track not present in AccurateRip database
     Copy OK
Track  3
     Filename C:\Music\03 - Maria Olafs - Unbroken.wav
     Pre-gap length  0:00:01.74
     Peak level 97.7 %
     Extraction speed 5.2 X
     Track quality 100.0 %
     Test CRC 22C2BECE
     Copy CRC 22C2BECE
     Track not present in AccurateRip database
     Copy OK
Track  4
     Filename C:\Music\04 - Il Volo - Grande Amore.wav
     Pre-gap length  0:00:01.74
     Peak level 97.7 %
     Extraction speed 4.4 X
     Track quality 99.9 %
     Test CRC 1297B4D9
     Copy CRC 1297B4D9
     Track not present in AccurateRip database
     Copy OK
Track  5
     Filename C:\Music\05 - Monika Linkyte & Vaidas Baumila - This Time.wav
     Pre-gap length  0:00:01.74
     Peak level 97.7 %
     Extraction speed 5.2 X
     Track quality 100.0 %
     Test CRC 2029341D
     Copy CRC 2029341D
     Track not present in AccurateRip database
     Copy OK
Track  6
     Filename C:\Music\06 - Aminata - Love Injected.wav
     Pre-gap length  0:00:01.74
     Peak level 97.7 %
     Extraction speed 5.2 X
     Track quality 100.0 %
     Test CRC C7939613
     Copy CRC C7939613
     Track not present in AccurateRip database
     Copy OK
Track  7
     Filename C:\Music\07 - Eduard Romanyuta - I Want Your Love.wav
     Pre-gap length  0:00:01.74
     Peak level 97.7 %
     Extraction speed 5.2 X
     Track quality 100.0 %
     Test CRC 18106498
     Copy CRC 18106498
     Track not present in AccurateRip database
     Copy OK
Track  8
     Filename C:\Music\08 - Knez - Adio.wav
     Pre-gap length  0:00:01.74
     Peak level 97.7 %
     Extraction speed 5.2 X
     Track quality 100.0 %
     Test CRC 336AA548
     Copy CRC 336AA548
     Track not present in AccurateRip database
     Copy OK
Track  9
     Filename C:\Music\09 - Daniel Kajmakoski - Autumn Leaves.wav
     Pre-gap length  0:00:01.74
     Peak level 97.7 %
     Extraction speed 5.2 X
     Track quality 100.0 %
     Test CRC E1664CCB
     Copy CRC E1664CCB
     Track not present in AccurateRip database
     Copy OK
Track 10
     Filename C:\Music\10 - Amber - Warrior.wav
     Pre-gap length  0:00:01.74
     Peak level 97.7 %
     Extraction speed 5.2 X
     Track quality 100.0 %
     Test CRC 8449D030
     Copy CRC 8449D030
     Track not present in AccurateRip database
     Copy OK
Track 11
     Filename C:\Music\11 - Trijntje Oosterhuis - Walk Along.wav
     Pre-gap length  0:00:01.74
     Peak level 97.7 %
     Extraction speed 5.2 X
     Track quality 100.0 %
     Test CRC 0387033E
     Copy CRC 0387033E
     Track not present in AccurateRip database
     Copy OK
Track 12
     Filename C:\Music\12 - Morland & Debrah Scarlett - A Monster Like Me.wav
     Pre-gap length  0:00:01.74
     Peak level 97.7 %
     Extraction speed 5.2 X
     Track quality 100.0 %
     Test CRC 046EEA6C
     Copy CRC 046EEA6C
     Track not present in AccurateRip database
     Copy OK
Track 13
     Filename C:\Music\13 - Monika Kuszynska - In The Name Of Love.wav
     Pre-gap length  0:00:01.74
     Peak level 97.7 %
     Extraction speed 5.2 X
     Track quality 100.0 %
     Test CRC 00367E02
     Copy CRC 00367E02
     Track not present in AccurateRip database
     Copy OK
Track 14
     Filename C:\Music\14 - Leonor Andrade - Ha Um Mar Que Nos Separa.wav
     Pre-gap length  0:00:01.74
     Peak level 100.0 %
     Extraction speed 5.0 X
     Track quality 100.0 %
     Test CRC F01E8860
     Copy CRC F01E8860
     Track not present in AccurateRip database
     Copy OK
Track 15
     Filename C:\Music\15 - Voltaj - De La Capat.wav
     Pre-gap length  0:00:01.74
     Peak level 97.7 %
     Extraction speed 5.1 X
     Track quality 100.0 %
     Test CRC 7F7B56D3
     Copy CRC 7F7B56D3
     Track not present in AccurateRip database
     Copy OK
Track 16
     Filename C:\Music\16 - Bojana Stamenov - Beauty Never Lies.wav
     Pre-gap length  0:00:01.74
     Peak level 97.7 %
     Extraction speed 5.1 X
     Track quality 100.0 %
     Test CRC 6E856FCE
     Copy CRC 6E856FCE
     Track not present in AccurateRip database
     Copy OK
Track 17
     Filename C:\Music\17 - Polina Gagarina - A Million Voices.wav
     Pre-gap length  0:00:01.74
     Peak level 97.7 %
     Extraction speed 5.1 X
     Track quality 100.0 %
     Test CRC 0F835C7E
     Copy CRC 0F835C7E
     Track not present in AccurateRip database
     Copy OK
Track 18
     Filename C:\Music\18 - Mans Zelmerlow - Heroes.wav
     Pre-gap length  0:00:01.74
     Peak level 100.0 %
     Extraction speed 4.5 X
     Track quality 99.9 %
     Test CRC B9B3C8A2
     Copy CRC B9B3C8A2
     Track not present in AccurateRip database
     Copy OK
Track 19
     Filename C:\Music\19 - Maraaya - Here For You.wav
     Pre-gap length  0:00:01.74
     Peak level 97.7 %
     Extraction speed 5.1 X
     Track quality 100.0 %
     Test CRC 13DE5A19
     Copy CRC 13DE5A19
     Track not present in AccurateRip database
     Copy OK
Track 20
     Filename C:\Music\20 - Anita Simoncini & Michele Perniola - Chain Of Lights.wav
     Pre-gap length  0:00:01.74
     Peak level 97.7 %
     Extraction speed 5.0 X
     Track quality 100.0 %
     Test CRC A09BB974
     Copy CRC A09BB974
     Track not present in AccurateRip database
     Copy OK
None of the tracks are present in the AccurateRip database
No errors occurred
End of status report

Индексная карта (non-compilant .cue)

CD 1

REM GENRE Pop
REM DATE 2015
REM DISCID 170DCE14
REM COMMENT "ExactAudioCopy v1.0b3"
PERFORMER "Various Artists"
TITLE "Eurovision Song Contest 2015 - Disc 1"
FILE "01 - Elhaida Dani - I'm Alive.wav" WAVE
  TRACK 01 AUDIO
    TITLE "I'm Alive"
    PERFORMER "Elhaida Dani"
    INDEX 01 00:00:00
  TRACK 02 AUDIO
    TITLE "Face The Shadow"
    PERFORMER "Genealogy"
    INDEX 00 03:06:23
FILE "02 - Genealogy - Face The Shadow.wav" WAVE
    INDEX 01 00:00:00
  TRACK 03 AUDIO
    TITLE "I Am Yours"
    PERFORMER "The Makemakes"
    INDEX 00 03:00:37
FILE "03 - The Makemakes - I Am Yours.wav" WAVE
    INDEX 01 00:00:00
  TRACK 04 AUDIO
    TITLE "Tonight Again"
    PERFORMER "Guy Sebastian"
    INDEX 00 03:00:55
FILE "04 - Guy Sebastian - Tonight Again.wav" WAVE
    INDEX 01 00:00:00
  TRACK 05 AUDIO
    TITLE "Hour Of The Wolf"
    PERFORMER "Elnur Huseynov"
    INDEX 00 02:55:65
FILE "05 - Elnur Huseynov - Hour Of The Wolf.wav" WAVE
    INDEX 01 00:00:00
  TRACK 06 AUDIO
    TITLE "Rhythm Inside"
    PERFORMER "Loic Nottet"
    INDEX 00 02:59:18
FILE "06 - Loic Nottet - Rhythm Inside.wav" WAVE
    INDEX 01 00:00:00
  TRACK 07 AUDIO
    TITLE "Time"
    PERFORMER "Uzari & Maimuna"
    INDEX 00 02:52:12
FILE "07 - Uzari & Maimuna - Time.wav" WAVE
    INDEX 01 00:00:00
  TRACK 08 AUDIO
    TITLE "Time To Shine"
    PERFORMER "Melanie Rene"
    INDEX 00 03:00:44
FILE "08 - Melanie Rene - Time To Shine.wav" WAVE
    INDEX 01 00:00:00
  TRACK 09 AUDIO
    TITLE "One Thing I Should Have Done"
    PERFORMER "John Karayiannis"
    INDEX 00 03:02:37
FILE "09 - John Karayiannis - One Thing I Should Have Done.wav" WAVE
    INDEX 01 00:00:00
  TRACK 10 AUDIO
    TITLE "Hope Never Dies"
    PERFORMER "Marta Jandova & Vaclav Noid Barta"
    INDEX 00 03:02:31
FILE "10 - Marta Jandova & Vaclav Noid Barta - Hope Never Dies.wav" WAVE
    INDEX 01 00:00:00
  TRACK 11 AUDIO
    TITLE "Black Smoke"
    PERFORMER "Ann Sophie"
    INDEX 00 03:04:68
FILE "11 - Ann Sophie - Black Smoke.wav" WAVE
    INDEX 01 00:00:00
  TRACK 12 AUDIO
    TITLE "The Way You Are"
    PERFORMER "Anti Social Media"
    INDEX 00 03:00:01
FILE "12 - Anti Social Media - The Way You Are.wav" WAVE
    INDEX 01 00:00:00
  TRACK 13 AUDIO
    TITLE "Goodbye To Yesterday"
    PERFORMER "Elina Born & Stig Rasta"
    INDEX 00 03:01:06
FILE "13 - Elina Born & Stig Rasta - Goodbye To Yesterday.wav" WAVE
    INDEX 01 00:00:00
  TRACK 14 AUDIO
    TITLE "Amanecer"
    PERFORMER "Edurne"
    INDEX 00 02:59:11
FILE "14 - Edurne - Amanecer.wav" WAVE
    INDEX 01 00:00:00
  TRACK 15 AUDIO
    TITLE "Aina Mun Pitaa"
    PERFORMER "Pertti Kurikan Nimipaivat"
    INDEX 00 03:04:35
FILE "15 - Pertti Kurikan Nimipaivat - Aina Mun Pitaa.wav" WAVE
    INDEX 01 00:00:00
  TRACK 16 AUDIO
    TITLE "N'oubliez Pas"
    PERFORMER "Lisa Angell"
    INDEX 00 01:28:10
FILE "16 - Lisa Angell - N'oubliez Pas.wav" WAVE
    INDEX 01 00:00:00
  TRACK 17 AUDIO
    TITLE "Still In Love With You"
    PERFORMER "Electro Velvet"
    INDEX 00 03:00:38
FILE "17 - Electro Velvet - Still In Love With You.wav" WAVE
    INDEX 01 00:00:00
  TRACK 18 AUDIO
    TITLE "Warrior"
    PERFORMER "Nina Sublatti"
    INDEX 00 02:48:68
FILE "18 - Nina Sublatti - Warrior.wav" WAVE
    INDEX 01 00:00:00
  TRACK 19 AUDIO
    TITLE "One Last Breath"
    PERFORMER "Maria Elena Kyriakou"
    INDEX 00 03:02:11
FILE "19 - Maria Elena Kyriakou - One Last Breath.wav" WAVE
    INDEX 01 00:00:00
  TRACK 20 AUDIO
    TITLE "Wars For Nothing"
    PERFORMER "Boggie"
    INDEX 00 02:47:60
FILE "20 - Boggie - Wars For Nothing.wav" WAVE
    INDEX 01 00:00:00

CD 2

REM GENRE Pop
REM DATE 2015
REM DISCID 130E5314
REM COMMENT "ExactAudioCopy v1.0b3"
PERFORMER "Various Artists"
TITLE "Eurovision Song Contest 2015 - Disc 2"
FILE "01 - Molly Sterling - Playing With Numbers.wav" WAVE
  TRACK 01 AUDIO
    TITLE "Playing With Numbers"
    PERFORMER "Molly Sterling"
    INDEX 01 00:00:00
  TRACK 02 AUDIO
    TITLE "Golden Boy"
    PERFORMER "Nadav Guedj"
    INDEX 00 03:00:43
FILE "02 - Nadav Guedj - Golden Boy.wav" WAVE
    INDEX 01 00:00:00
  TRACK 03 AUDIO
    TITLE "Unbroken"
    PERFORMER "Maria Olafs"
    INDEX 00 02:59:64
FILE "03 - Maria Olafs - Unbroken.wav" WAVE
    INDEX 01 00:00:00
  TRACK 04 AUDIO
    TITLE "Grande Amore"
    PERFORMER "Il Volo"
    INDEX 00 03:00:01
FILE "04 - Il Volo - Grande Amore.wav" WAVE
    INDEX 01 00:00:00
  TRACK 05 AUDIO
    TITLE "This Time"
    PERFORMER "Monika Linkyte & Vaidas Baumila"
    INDEX 00 03:01:22
FILE "05 - Monika Linkyte & Vaidas Baumila - This Time.wav" WAVE
    INDEX 01 00:00:00
  TRACK 06 AUDIO
    TITLE "Love Injected"
    PERFORMER "Aminata"
    INDEX 00 03:02:01
FILE "06 - Aminata - Love Injected.wav" WAVE
    INDEX 01 00:00:00
  TRACK 07 AUDIO
    TITLE "I Want Your Love"
    PERFORMER "Eduard Romanyuta"
    INDEX 00 03:00:01
FILE "07 - Eduard Romanyuta - I Want Your Love.wav" WAVE
    INDEX 01 00:00:00
  TRACK 08 AUDIO
    TITLE "Adio"
    PERFORMER "Knez"
    INDEX 00 03:00:66
FILE "08 - Knez - Adio.wav" WAVE
    INDEX 01 00:00:00
  TRACK 09 AUDIO
    TITLE "Autumn Leaves"
    PERFORMER "Daniel Kajmakoski"
    INDEX 00 03:02:66
FILE "09 - Daniel Kajmakoski - Autumn Leaves.wav" WAVE
    INDEX 01 00:00:00
  TRACK 10 AUDIO
    TITLE "Warrior"
    PERFORMER "Amber"
    INDEX 00 03:02:33
FILE "10 - Amber - Warrior.wav" WAVE
    INDEX 01 00:00:00
  TRACK 11 AUDIO
    TITLE "Walk Along"
    PERFORMER "Trijntje Oosterhuis"
    INDEX 00 02:59:51
FILE "11 - Trijntje Oosterhuis - Walk Along.wav" WAVE
    INDEX 01 00:00:00
  TRACK 12 AUDIO
    TITLE "A Monster Like Me"
    PERFORMER "Morland & Debrah Scarlett"
    INDEX 00 03:03:03
FILE "12 - Morland & Debrah Scarlett - A Monster Like Me.wav" WAVE
    INDEX 01 00:00:00
  TRACK 13 AUDIO
    TITLE "In The Name Of Love"
    PERFORMER "Monika Kuszynska"
    INDEX 00 03:03:14
FILE "13 - Monika Kuszynska - In The Name Of Love.wav" WAVE
    INDEX 01 00:00:00
  TRACK 14 AUDIO
    TITLE "Ha Um Mar Que Nos Separa"
    PERFORMER "Leonor Andrade"
    INDEX 00 02:56:15
FILE "14 - Leonor Andrade - Ha Um Mar Que Nos Separa.wav" WAVE
    INDEX 01 00:00:00
  TRACK 15 AUDIO
    TITLE "De La Capat"
    PERFORMER "Voltaj"
    INDEX 00 02:59:73
FILE "15 - Voltaj - De La Capat.wav" WAVE
    INDEX 01 00:00:00
  TRACK 16 AUDIO
    TITLE "Beauty Never Lies"
    PERFORMER "Bojana Stamenov"
    INDEX 00 03:00:01
FILE "16 - Bojana Stamenov - Beauty Never Lies.wav" WAVE
    INDEX 01 00:00:00
  TRACK 17 AUDIO
    TITLE "A Million Voices"
    PERFORMER "Polina Gagarina"
    INDEX 00 02:59:09
FILE "17 - Polina Gagarina - A Million Voices.wav" WAVE
    INDEX 01 00:00:00
  TRACK 18 AUDIO
    TITLE "Heroes"
    PERFORMER "Mans Zelmerlow"
    INDEX 00 03:05:73
FILE "18 - Mans Zelmerlow - Heroes.wav" WAVE
    INDEX 01 00:00:00
  TRACK 19 AUDIO
    TITLE "Here For You"
    PERFORMER "Maraaya"
    INDEX 00 03:11:42
FILE "19 - Maraaya - Here For You.wav" WAVE
    INDEX 01 00:00:00
  TRACK 20 AUDIO
    TITLE "Chain Of Lights"
    PERFORMER "Anita Simoncini & Michele Perniola"
    INDEX 00 03:00:00
FILE "20 - Anita Simoncini & Michele Perniola - Chain Of Lights.wav" WAVE
    INDEX 01 00:00:00

Лог Audiochecker

CD 1

AUDIOCHECKER v2.0 beta (build 457) - by Dester - opdester@freemail.hu
~~~~~~~~~~~~~~~~~~~~~~~~~~~~~~~~~~
Started at: среда, 20. 05. 2015. - 8:38.28
20 files found
01 -===- D:\Torrent files\VA - Eurovision Song Contest Vienna (2015, 2 CD) [flac]\CD 01\01 - Elhaida Dani - I'm Alive.flac
  Extracted successfully
  Conclusion: this track is CDDA with probability 100%
  Tempfile successfully deleted.
02 -===- D:\Torrent files\VA - Eurovision Song Contest Vienna (2015, 2 CD) [flac]\CD 01\02 - Genealogy - Face The Shadow.flac
  Extracted successfully
  Conclusion: this track is CDDA with probability 100%
  Tempfile successfully deleted.
03 -===- D:\Torrent files\VA - Eurovision Song Contest Vienna (2015, 2 CD) [flac]\CD 01\03 - The Makemakes - I Am Yours.flac
  Extracted successfully
  Conclusion: this track is CDDA with probability 100%
  Tempfile successfully deleted.
04 -===- D:\Torrent files\VA - Eurovision Song Contest Vienna (2015, 2 CD) [flac]\CD 01\04 - Guy Sebastian - Tonight Again.flac
  Extracted successfully
  Conclusion: this track is CDDA with probability 100%
  Tempfile successfully deleted.
05 -===- D:\Torrent files\VA - Eurovision Song Contest Vienna (2015, 2 CD) [flac]\CD 01\05 - Elnur Huseynov - Hour Of The Wolf.flac
  Extracted successfully
  Conclusion: this track is CDDA with probability 100%
  Tempfile successfully deleted.
06 -===- D:\Torrent files\VA - Eurovision Song Contest Vienna (2015, 2 CD) [flac]\CD 01\06 - Loic Nottet - Rhythm Inside.flac
  Extracted successfully
  Conclusion: this track is CDDA with probability 99%
  Tempfile successfully deleted.
07 -===- D:\Torrent files\VA - Eurovision Song Contest Vienna (2015, 2 CD) [flac]\CD 01\07 - Uzari & Maimuna - Time.flac
  Extracted successfully
  Conclusion: this track is CDDA with probability 100%
  Tempfile successfully deleted.
08 -===- D:\Torrent files\VA - Eurovision Song Contest Vienna (2015, 2 CD) [flac]\CD 01\08 - Melanie Rene - Time To Shine.flac
  Extracted successfully
  Conclusion: this track is CDDA with probability 99%
  Tempfile successfully deleted.
09 -===- D:\Torrent files\VA - Eurovision Song Contest Vienna (2015, 2 CD) [flac]\CD 01\09 - John Karayiannis - One Thing I Should Have Done.flac
  Extracted successfully
  Conclusion: this track is CDDA with probability 99%
  Tempfile successfully deleted.
10 -===- D:\Torrent files\VA - Eurovision Song Contest Vienna (2015, 2 CD) [flac]\CD 01\10 - Marta Jandove & Veclav Noid Berta - Hope Never Dies.flac
  Extracted successfully
  Conclusion: this track is CDDA with probability 99%
  Tempfile successfully deleted.
11 -===- D:\Torrent files\VA - Eurovision Song Contest Vienna (2015, 2 CD) [flac]\CD 01\11 - Ann Sophie - Black Smoke.flac
  Extracted successfully
  Conclusion: this track is CDDA with probability 99%
  Tempfile successfully deleted.
12 -===- D:\Torrent files\VA - Eurovision Song Contest Vienna (2015, 2 CD) [flac]\CD 01\12 - Anti Social Media - The Way You Are.flac
  Extracted successfully
  Conclusion: this track is CDDA with probability 100%
  Tempfile successfully deleted.
13 -===- D:\Torrent files\VA - Eurovision Song Contest Vienna (2015, 2 CD) [flac]\CD 01\13 - Elina Born & Stig Rasta - Goodbye To Yesterday.flac
  Extracted successfully
  Conclusion: this track is CDDA with probability 100%
  Tempfile successfully deleted.
14 -===- D:\Torrent files\VA - Eurovision Song Contest Vienna (2015, 2 CD) [flac]\CD 01\14 - Edurne - Amanecer.flac
  Extracted successfully
  Conclusion: this track is CDDA with probability 100%
  Tempfile successfully deleted.
15 -===- D:\Torrent files\VA - Eurovision Song Contest Vienna (2015, 2 CD) [flac]\CD 01\15 - Pertti Kurikan Nimipaivat - Aina Mun Pitaa.flac
  Extracted successfully
  Conclusion: this track is CDDA with probability 100%
  Tempfile successfully deleted.
16 -===- D:\Torrent files\VA - Eurovision Song Contest Vienna (2015, 2 CD) [flac]\CD 01\16 - Lisa Angell - N'oubliez Pas.flac
  Extracted successfully
  Conclusion: this track is CDDA with probability 100%
  Tempfile successfully deleted.
17 -===- D:\Torrent files\VA - Eurovision Song Contest Vienna (2015, 2 CD) [flac]\CD 01\17 - Electro Velvet - Still In Love With You.flac
  Extracted successfully
  Conclusion: this track is CDDA with probability 100%
  Tempfile successfully deleted.
18 -===- D:\Torrent files\VA - Eurovision Song Contest Vienna (2015, 2 CD) [flac]\CD 01\18 - Nina Sublatti - Warrior.flac
  Extracted successfully
  Conclusion: this track is CDDA with probability 100%
  Tempfile successfully deleted.
19 -===- D:\Torrent files\VA - Eurovision Song Contest Vienna (2015, 2 CD) [flac]\CD 01\19 - Maria Elena Kyriakou - One Last Breath.flac
  Extracted successfully
  Conclusion: this track is CDDA with probability 99%
  Tempfile successfully deleted.
20 -===- D:\Torrent files\VA - Eurovision Song Contest Vienna (2015, 2 CD) [flac]\CD 01\20 - Boggie - Wars For Nothing.flac
  Extracted successfully
  Conclusion: this track is CDDA with probability 100%
  Tempfile successfully deleted.
Finished at: среда, 20. 05. 2015. - 8:41.17 (operation time: 0:02.49)

CD 2

AUDIOCHECKER v2.0 beta (build 457) - by Dester - opdester@freemail.hu
~~~~~~~~~~~~~~~~~~~~~~~~~~~~~~~~~~
Started at: среда, 20. 05. 2015. - 8:41.47
20 files found
01 -===- D:\Torrent files\VA - Eurovision Song Contest Vienna (2015, 2 CD) [flac]\CD 02\01 - Molly Sterling - Playing With Numbers.flac
  Extracted successfully
  Conclusion: this track is CDDA with probability 99%
  Tempfile successfully deleted.
02 -===- D:\Torrent files\VA - Eurovision Song Contest Vienna (2015, 2 CD) [flac]\CD 02\02 - Nadav Guedj - Golden Boy.flac
  Extracted successfully
  Conclusion: this track is CDDA with probability 100%
  Tempfile successfully deleted.
03 -===- D:\Torrent files\VA - Eurovision Song Contest Vienna (2015, 2 CD) [flac]\CD 02\03 - Maria Olafs - Unbroken.flac
  Extracted successfully
  Conclusion: this track is CDDA with probability 100%
  Tempfile successfully deleted.
04 -===- D:\Torrent files\VA - Eurovision Song Contest Vienna (2015, 2 CD) [flac]\CD 02\04 - Il Volo - Grande Amore.flac
  Extracted successfully
  Conclusion: this track is CDDA with probability 100%
  Tempfile successfully deleted.
05 -===- D:\Torrent files\VA - Eurovision Song Contest Vienna (2015, 2 CD) [flac]\CD 02\05 - Monika Linkyte & Vaidas Baumila - This Time.flac
  Extracted successfully
  Conclusion: this track is CDDA with probability 100%
  Tempfile successfully deleted.
06 -===- D:\Torrent files\VA - Eurovision Song Contest Vienna (2015, 2 CD) [flac]\CD 02\06 - Aminata - Love Injected.flac
  Extracted successfully
  Conclusion: this track is CDDA with probability 100%
  Tempfile successfully deleted.
07 -===- D:\Torrent files\VA - Eurovision Song Contest Vienna (2015, 2 CD) [flac]\CD 02\07 - Eduard Romanyuta - I Want Your Love.flac
  Extracted successfully
  Conclusion: this track is CDDA with probability 100%
  Tempfile successfully deleted.
08 -===- D:\Torrent files\VA - Eurovision Song Contest Vienna (2015, 2 CD) [flac]\CD 02\08 - Knez - Adio.flac
  Extracted successfully
  Conclusion: this track is CDDA with probability 100%
  Tempfile successfully deleted.
09 -===- D:\Torrent files\VA - Eurovision Song Contest Vienna (2015, 2 CD) [flac]\CD 02\09 - Daniel Kajmakoski - Autumn Leaves.flac
  Extracted successfully
  Conclusion: this track is CDDA with probability 76%
  Tempfile successfully deleted.
10 -===- D:\Torrent files\VA - Eurovision Song Contest Vienna (2015, 2 CD) [flac]\CD 02\10 - Amber - Warrior.flac
  Extracted successfully
  Conclusion: this track is CDDA with probability 100%
  Tempfile successfully deleted.
11 -===- D:\Torrent files\VA - Eurovision Song Contest Vienna (2015, 2 CD) [flac]\CD 02\11 - Trijntje Oosterhuis - Walk Along.flac
  Extracted successfully
  Conclusion: this track is CDDA with probability 100%
  Tempfile successfully deleted.
12 -===- D:\Torrent files\VA - Eurovision Song Contest Vienna (2015, 2 CD) [flac]\CD 02\12 - Morland & Debrah Scarlett - A Monster Like Me.flac
  Extracted successfully
  Conclusion: this track is CDDA with probability 99%
  Tempfile successfully deleted.
13 -===- D:\Torrent files\VA - Eurovision Song Contest Vienna (2015, 2 CD) [flac]\CD 02\13 - Monika Kuszynska - In The Name Of Love.flac
  Extracted successfully
  Conclusion: this track is CDDA with probability 100%
  Tempfile successfully deleted.
14 -===- D:\Torrent files\VA - Eurovision Song Contest Vienna (2015, 2 CD) [flac]\CD 02\14 - Leonor Andrade - Ha Um Mar Que Nos Separa.flac
  Extracted successfully
  Conclusion: this track is CDDA with probability 100%
  Tempfile successfully deleted.
15 -===- D:\Torrent files\VA - Eurovision Song Contest Vienna (2015, 2 CD) [flac]\CD 02\15 - Voltaj - De La Capat.flac
  Extracted successfully
  Conclusion: this track is CDDA with probability 100%
  Tempfile successfully deleted.
16 -===- D:\Torrent files\VA - Eurovision Song Contest Vienna (2015, 2 CD) [flac]\CD 02\16 - Bojana Stamenov - Beauty Never Lies.flac
  Extracted successfully
  Conclusion: this track is CDDA with probability 100%
  Tempfile successfully deleted.
17 -===- D:\Torrent files\VA - Eurovision Song Contest Vienna (2015, 2 CD) [flac]\CD 02\17 - Polina Gagarina - A Million Voices.flac
  Extracted successfully
  Conclusion: this track is CDDA with probability 100%
  Tempfile successfully deleted.
18 -===- D:\Torrent files\VA - Eurovision Song Contest Vienna (2015, 2 CD) [flac]\CD 02\18 - Mans Zelmerlow - Heroes.flac
  Extracted successfully
  Conclusion: this track is MPEG with probability 95%
  Tempfile successfully deleted.
19 -===- D:\Torrent files\VA - Eurovision Song Contest Vienna (2015, 2 CD) [flac]\CD 02\19 - Maraaya - Here For You.flac
  Extracted successfully
  Conclusion: this track is CDDA with probability 100%
  Tempfile successfully deleted.
20 -===- D:\Torrent files\VA - Eurovision Song Contest Vienna (2015, 2 CD) [flac]\CD 02\20 - Anita Simoncini & Michele Perniola - Chain Of Lights.flac
  Extracted successfully
  Conclusion: this track is CDDA with probability 100%
  Tempfile successfully deleted.
Finished at: среда, 20. 05. 2015. - 8:44.42 (operation time: 0:02.55)

Скриншот спектра частот

--Не забываем говорить
[Профиль] [ЛС]

Создавать темы 13-Авг-2015 11:15 (спустя 2 месяца 24 дня)

Топик был перенесен из форума Сборники в форум World Pop
sergej644
 
Показать сообщения:    

Текущее время: Сегодня 20:08

Часовой пояс: GMT



Вы не можете начинать темы
Вы не можете отвечать на сообщения
Вы не можете редактировать свои сообщения
Вы не можете удалять свои сообщения
Вы не можете голосовать в опросах
Вы не можете прикреплять файлы к сообщениям
Вы не можете скачивать файлы