(EuroDisco) VA - Euro Disco Vol. 3(80's Revolution)(2CD) - 2013, FLAC (image + .cue), lossless

 
Автор Сообщение

sergej644 ®

Пол:

Стаж: 4 года 11 месяцев

Сообщений: 6046

Откуда: Soviet Union



Награды: Нет

Торрент-статистика

Создавать темы 01-Авг-2014 22:04

[Цитировать]

--VA - Euro Disco Vol. 3(80's Revolution)(2CD)

Страна: bw
Страна производитель диска: Germany
Жанр: EuroDisco
Год выпуска: 2013
Формат: FLAC
Тип рипа: (Image+.cue)
Битрейт аудио: lossless
Продолжительность: 02:16:38
- -

CD 1 || 01:10:46

01. Krypton - Tokyo Girl (12' Version) (06:28)
02. C.C. Catch - Are You Man Enough (Long Version - Muscle Mix) (06:07)
03. Fair Control - Angel Eyes (12' Version) (05:17)
04. Manzerata - Baby Baby Hear My Heartbeat... Mi Corazon (Esmeralda Mix) (05:44)
05. Winder - Run For Love (12' Version) (05:06)
06. Double Take - When You Said Hello (12' Version) (05:06)
07. Casablanca - Angel Of Night (12' Version) (07:36)
08. Two Nations - This Love (12' Version) (07:51)
09. Zara-Thustra - Magic Nights (12' Version) (08:37)
10. Vanilla - Imagination (Calypso Nights) (12' Version) (06:47)
11. Barbara Clear - Some Lovin' (Mix 1) (12' Version) (06:07)

лог создания рипа

Exact Audio Copy V1.0 beta 3 from 29. August 2011
EAC extraction logfile from 29. June 2013, 18:18
VA / 80's Revolution - Euro Disco Volume 3 - CD1
Used drive  : TSSTcorpCDDVDW SH-224BB   Adapter: 4  ID: 1
Read mode               : Secure
Utilize accurate stream : Yes
Defeat audio cache      : Yes
Make use of C2 pointers : No
Read offset correction                      : 6
Overread into Lead-In and Lead-Out          : No
Fill up missing offset samples with silence : Yes
Delete leading and trailing silent blocks   : No
Null samples used in CRC calculations       : Yes
Used interface                              : Native Win32 interface for Win NT & 2000
Used output format              : User Defined Encoder
Selected bitrate                : 1024 kBit/s
Quality                         : High
Add ID3 tag                     : No
Command line compressor         : D:\EAC---强版\Exact Audio Copy\FLAC\FLAC.EXE
Additional command line options : -6 -V -T "ARTIST=%artist%" -T "TITLE=%title%" -T "ALBUM=%albumtitle%" -T "DATE=%year%" -T "TRACKNUMBER=%tracknr%" -T "GENRE=%genre%" -T "COMMENT=%comment%" -T "BAND=%albuminterpret%" -T "ALBUMARTIST=%albuminterpret%" -T "COMPOSER=%composer%" %haslyrics%--tag-from-file=LYRICS="%lyricsfile%"%haslyrics% -T "DISCNUMBER=%cdnumber%" -T "TOTALDISCS=%totalcds%" -T "TOTALTRACKS=%numtracks%" %hascover%--picture="%coverfile%"%hascover% %source% -o %dest%
TOC of the extracted CD
     Track |   Start  |  Length  | Start sector | End sector
    ---------------------------------------------------------
        1  |  0:00.00 |  6:28.00 |         0    |    29099
        2  |  6:28.00 |  6:07.00 |     29100    |    56624
        3  | 12:35.00 |  5:17.00 |     56625    |    80399
        4  | 17:52.00 |  5:44.00 |     80400    |   106199
        5  | 23:36.00 |  5:06.00 |    106200    |   129149
        6  | 28:42.00 |  5:06.00 |    129150    |   152099
        7  | 33:48.00 |  7:36.00 |    152100    |   186299
        8  | 41:24.00 |  7:51.00 |    186300    |   221624
        9  | 49:15.00 |  8:37.00 |    221625    |   260399
       10  | 57:52.00 |  6:47.00 |    260400    |   290924
       11  | 64:39.00 |  6:07.00 |    290925    |   318449
Range status and errors
Selected range
     Filename E:\VA - 80's Revolution - Euro Disco Volume 3 - CD1.wav
     Peak level 96.8 %
     Extraction speed 3.3 X
     Range quality 100.0 %
     Copy CRC B49A1A7A
     Copy OK
No errors occurred
End of status report

содержание индексной карты *cue

REM GENRE Disco
REM DATE 2013
REM DISCID 9F10960B
REM COMMENT "ExactAudioCopy v1.0b3"
PERFORMER "VA"
TITLE "80's Revolution - Euro Disco Volume 3 - CD1"
FILE "VA - 80's Revolution - Euro Disco Volume 3 - CD1.flac" WAVE
  TRACK 01 AUDIO
    TITLE "Tokyo Girl (12' Version)"
    PERFORMER "Krypton"
    INDEX 01 00:00:00
  TRACK 02 AUDIO
    TITLE "Are You Man Enough (Long Version - Muscle Mix)"
    PERFORMER "C.C. Catch"
    INDEX 01 06:28:00
  TRACK 03 AUDIO
    TITLE "Angel Eyes (12' Version)"
    PERFORMER "Fair Control"
    INDEX 01 12:35:00
  TRACK 04 AUDIO
    TITLE "Baby Baby Hear My Heartbeat... Mi Corazon (Esmeralda Mix)"
    PERFORMER "Manzerata"
    INDEX 01 17:52:00
  TRACK 05 AUDIO
    TITLE "Run For Love (12' Version)"
    PERFORMER "Winder"
    INDEX 01 23:36:00
  TRACK 06 AUDIO
    TITLE "When You Said Hello (12' Version)"
    PERFORMER "Double Take"
    INDEX 01 28:42:00
  TRACK 07 AUDIO
    TITLE "Angel Of Night (12' Version)"
    PERFORMER "Casablanca"
    INDEX 01 33:48:00
  TRACK 08 AUDIO
    TITLE "This Love (12' Version)"
    PERFORMER "Two Nations"
    INDEX 01 41:24:00
  TRACK 09 AUDIO
    TITLE "Magic Nights (12' Version)"
    PERFORMER "Zara-Thustra"
    INDEX 01 49:15:00
  TRACK 10 AUDIO
    TITLE "Imagination (Calypso Nights) (12' Version)"
    PERFORMER "Vanilla"
    INDEX 01 57:52:00
  TRACK 11 AUDIO
    TITLE "Some Lovin' (Mix 1) (12' Version)"
    PERFORMER "Barbara Clear"
    INDEX 01 64:39:00

CD 2 || 01:05:52

01. George Monroe - I'm Not In Love (Drumversion) (07:08)
02. Salico - I'm On Fire (Furnace Mix) (06:34)
03. One Of Them - Jump In (Extended Dance Mix) (05:48)
04. C. Dorian - Hey, Hey (I'm Running Away) (Vocal) (Long Version) (05:40)
05. Lou Sern - Swiss Boy (Extended Version) (05:07)
06. M & H Band - Pop Corn (Remix Version 87 Special D'J) (06:57)
07. Piero Ipazio - Vincerai Se Tu Vuoi (You Can Win If You Want) (05:43)
08. Night Society - Hold Me Tight (Extended Version) (06:07)
09. Francesco Napoli - Ma Quale Idea (Strange Idea Mix) (05:31)
10. Lady Lily - Non Ё¦ Vero (Long Special Version) (05:16)
11. Olivia Gray - In The Morning Light (Dance Mix) (06:01)

лог создания рипа

Exact Audio Copy V1.0 beta 3 from 29. August 2011
EAC extraction logfile from 29. June 2013, 18:56
VA / 80's Revolution - Euro Disco Volume 3 - CD2
Used drive  : TSSTcorpCDDVDW SH-224BB   Adapter: 4  ID: 1
Read mode               : Secure
Utilize accurate stream : Yes
Defeat audio cache      : Yes
Make use of C2 pointers : No
Read offset correction                      : 6
Overread into Lead-In and Lead-Out          : No
Fill up missing offset samples with silence : Yes
Delete leading and trailing silent blocks   : No
Null samples used in CRC calculations       : Yes
Used interface                              : Native Win32 interface for Win NT & 2000
Used output format              : User Defined Encoder
Selected bitrate                : 1024 kBit/s
Quality                         : High
Add ID3 tag                     : No
Command line compressor         : D:\EAC---强版\Exact Audio Copy\FLAC\FLAC.EXE
Additional command line options : -6 -V -T "ARTIST=%artist%" -T "TITLE=%title%" -T "ALBUM=%albumtitle%" -T "DATE=%year%" -T "TRACKNUMBER=%tracknr%" -T "GENRE=%genre%" -T "COMMENT=%comment%" -T "BAND=%albuminterpret%" -T "ALBUMARTIST=%albuminterpret%" -T "COMPOSER=%composer%" %haslyrics%--tag-from-file=LYRICS="%lyricsfile%"%haslyrics% -T "DISCNUMBER=%cdnumber%" -T "TOTALDISCS=%totalcds%" -T "TOTALTRACKS=%numtracks%" %hascover%--picture="%coverfile%"%hascover% %source% -o %dest%
TOC of the extracted CD
     Track |   Start  |  Length  | Start sector | End sector
    ---------------------------------------------------------
        1  |  0:00.00 |  7:08.00 |         0    |    32099
        2  |  7:08.00 |  6:34.00 |     32100    |    61649
        3  | 13:42.00 |  5:48.00 |     61650    |    87749
        4  | 19:30.00 |  5:40.00 |     87750    |   113249
        5  | 25:10.00 |  5:07.00 |    113250    |   136274
        6  | 30:17.00 |  6:57.00 |    136275    |   167549
        7  | 37:14.00 |  5:43.00 |    167550    |   193274
        8  | 42:57.00 |  6:07.00 |    193275    |   220799
        9  | 49:04.00 |  5:31.00 |    220800    |   245624
       10  | 54:35.00 |  5:16.00 |    245625    |   269324
       11  | 59:51.00 |  6:01.00 |    269325    |   296399
Range status and errors
Selected range
     Filename E:\VA - 80's Revolution - Euro Disco Volume 3 - CD2.wav
     Peak level 97.0 %
     Extraction speed 3.2 X
     Range quality 100.0 %
     Copy CRC F4459A97
     Copy OK
No errors occurred
End of status report

содержание индексной карты *cue

REM GENRE Disco
REM DATE 2013
REM DISCID 9E0F700B
REM COMMENT "ExactAudioCopy v1.0b3"
PERFORMER "VA"
TITLE "80's Revolution - Euro Disco Volume 3 - CD2"
FILE "VA - 80's Revolution - Euro Disco Volume 3 - CD2.flac" WAVE
  TRACK 01 AUDIO
    TITLE "I'm Not In Love (Drumversion)"
    PERFORMER "George Monroe"
    INDEX 01 00:00:00
  TRACK 02 AUDIO
    TITLE "I'm On Fire (Furnace Mix)"
    PERFORMER "Salico"
    INDEX 01 07:08:00
  TRACK 03 AUDIO
    TITLE "Jump In (Extended Dance Mix)"
    PERFORMER "One Of Them"
    INDEX 01 13:42:00
  TRACK 04 AUDIO
    TITLE "Hey, Hey (I'm Running Away) (Vocal) (Long Version)"
    PERFORMER "C. Dorian"
    INDEX 01 19:30:00
  TRACK 05 AUDIO
    TITLE "Swiss Boy (Extended Version)"
    PERFORMER "Lou Sern"
    INDEX 01 25:10:00
  TRACK 06 AUDIO
    TITLE "Pop Corn (Remix Version 87 Special D'J)"
    PERFORMER "M & H Band"
    INDEX 01 30:17:00
  TRACK 07 AUDIO
    TITLE "Vincerai Se Tu Vuoi (You Can Win If You Want)"
    PERFORMER "Piero Ipazio"
    INDEX 01 37:14:00
  TRACK 08 AUDIO
    TITLE "Hold Me Tight (Extended Version)"
    PERFORMER "Night Society"
    INDEX 01 42:57:00
  TRACK 09 AUDIO
    TITLE "Ma Quale Idea (Strange Idea Mix)"
    PERFORMER "Francesco Napoli"
    INDEX 01 49:04:00
  TRACK 10 AUDIO
    TITLE "Non Ё¦ Vero (Long Special Version)"
    PERFORMER "Lady Lily"
    INDEX 01 54:35:00
  TRACK 11 AUDIO
    TITLE "In The Morning Light (Dance Mix)"
    PERFORMER "Olivia Gray"
    INDEX 01 59:51:00
[Профиль] [ЛС]

Создавать темы 13-Авг-2015 11:37 (спустя 1 год)

Топик был перенесен из форума Неофициальные и внежанровые сборники 70х-80х-90х (Ретро) в форум Other genres
sergej644
 
Показать сообщения:    

Текущее время: Сегодня 23:30

Часовой пояс: GMT



Вы не можете начинать темы
Вы не можете отвечать на сообщения
Вы не можете редактировать свои сообщения
Вы не можете удалять свои сообщения
Вы не можете голосовать в опросах
Вы не можете прикреплять файлы к сообщениям
Вы не можете скачивать файлы