(EuroDance, EuroHouse, EuroPop)VA - Dj Collection vol.19 - 1998, FLAC (image+.cue), lossless

 
Автор Сообщение

sergej644 ®

Пол:

Стаж: 4 года 11 месяцев

Сообщений: 6037

Откуда: Soviet Union



Награды: Нет

Торрент-статистика

Создавать темы 17-Окт-2014 19:16

[Цитировать]

--VA - Dj Collection vol.19
Жанр: EuroDance, Euro-House, EuroPop
Носитель: CD
Год издания: 1998
Издатель (лейбл): EMI Electrola
Аудиокодек: FLAC (*.flac)
Тип рипа: image+.cue
Битрейт аудио: lossless
Продолжительность: 01:13:44
Наличие сканов в содержимом раздачи: да
Треклист:
01. World In Motion - Because I Love You
02. Will Smith - Just Cruisin'
03. Po - Z - Tive - My Soul Unwraps Tonight
04. Ever A DJ - Jeopardy
05. WildChild - Renegade Master' 98
06. Bamboo - Bamboogie
07. Masquerade - So, So, So ( So Long )
08. Haddaway - Who Do You Love
09. U-96 Feat. Dea Li - Calling The Angel' s
10. Petty Paul - Good Time' s - Saint' s
11. Antiloop - In My Mind
12. Rodriguez - Caramba
13. Novy Vs Eniac - SuperStar
14. T-Jay - Funky Cool Big Mama
15. Dr. No - Stand By Me
16. Shortcut - Do You Really Want To Hurt Me
17. Together - Together
18. TM-Green - I' ll Pray
19. Lord-L-Sun - Murdertime
20. Bootsy Collins Feat. MC Lyte - I' m Leavin' U ( Gotta Go, Gotta Go )

Лог создания рипа

Exact Audio Copy V1.0 beta 3 from 29. August 2011
Отчёт EAC об извлечении, выполненном 13. октября 2014, 12:31
Various  Artist / DJ  Collection 19
Дисковод: HL-DT-STDVDRAM GSA-H42N   Adapter: 0  ID: 0
Режим чтения                 : Достоверность
Использование точного потока : Да
Отключение кэша аудио        : Да
Использование указателей C2  : Нет
Коррекция смещения при чтении                     : 667
Способность читать области Lead-in и Lead-out     : Нет
Заполнение пропущенных сэмплов тишиной            : Да
Удаление блоков с тишиной в начале и конце        : Нет
При вычислениях CRC использовались нулевые сэмплы : Да
Интерфейс                                         : Встроенный Win32-интерфейс для Win NT/2000
Выходной формат          : Пользовательский кодировщик
Выбранный битрейт        : 320 kBit/s
Качество                 : Высокий
Добавление ID3-тега      : Нет
Утилита сжатия           : C:\Program Files (x86)\Exact Audio Copy\Flac\flac.exe
Дополнительные параметры : -V -8 -T "Date=%year%" -T "Genre=%genre%" %source%
TOC извлечённого CD
     Трек |   Старт  | Длительность | Начальный сектор | Конечный сектор
    ---------------------------------------------------------------------
       1  |  0:00.00 |    3:57.39   |           0      |      17813
       2  |  3:57.39 |    3:59.39   |       17814      |      35777
       3  |  7:57.03 |    4:13.39   |       35778      |      54791
       4  | 12:10.42 |    3:50.37   |       54792      |      72078
       5  | 16:01.04 |    3:52.39   |       72079      |      89517
       6  | 19:53.43 |    3:32.39   |       89518      |     105456
       7  | 23:26.07 |    3:43.39   |      105457      |     122220
       8  | 27:09.46 |    3:22.39   |      122221      |     137409
       9  | 30:32.10 |    3:39.39   |      137410      |     153873
      10  | 34:11.49 |    3:34.39   |      153874      |     169962
      11  | 37:46.13 |    3:28.04   |      169963      |     185566
      12  | 41:14.17 |    3:20.39   |      185567      |     200605
      13  | 44:34.56 |    3:43.39   |      200606      |     217369
      14  | 48:18.20 |    3:43.39   |      217370      |     234133
      15  | 52:01.59 |    3:41.39   |      234134      |     250747
      16  | 55:43.23 |    4:02.39   |      250748      |     268936
      17  | 59:45.62 |    3:06.39   |      268937      |     282925
      18  | 62:52.26 |    3:26.05   |      282926      |     298380
      19  | 66:18.31 |    3:34.39   |      298381      |     314469
      20  | 69:52.70 |    3:51.36   |      314470      |     331830
Характеристики диапазона извлечения и сообщения об ошибках
Выбранный диапазон
     Имя файла O:\VA\DJ  Collection\Various  Artist - DJ  Collection 19.wav
     Пиковый уровень 100.0 %
     Скорость извлечения 7.9 X
     Качество диапазона 100.0 %
     CRC теста F3FE4F11
     CRC копии F3FE4F11
     Копирование... OK
Ошибок не произошло
AccurateRip: сводка
Трек  1  : извлечено точно (доверие 2)  [C972A7F5]  (AR v2)
Трек  2  : извлечено точно (доверие 2)  [DE6B518F]  (AR v2)
Трек  3  : извлечено точно (доверие 2)  [DB359D91]  (AR v2)
Трек  4  : извлечено точно (доверие 2)  [32A7B11B]  (AR v2)
Трек  5  : извлечено точно (доверие 2)  [076D8C8B]  (AR v2)
Трек  6  : извлечено точно (доверие 2)  [11B77A0F]  (AR v2)
Трек  7  : извлечено точно (доверие 2)  [84CE29B8]  (AR v2)
Трек  8  : извлечено точно (доверие 2)  [656841D4]  (AR v2)
Трек  9  : извлечено точно (доверие 2)  [AD21D526]  (AR v2)
Трек 10  : извлечено точно (доверие 2)  [E88BAD71]  (AR v2)
Трек 11  : извлечено точно (доверие 2)  [D7508B4B]  (AR v2)
Трек 12  : извлечено точно (доверие 2)  [44B62BAB]  (AR v2)
Трек 13  : извлечено точно (доверие 2)  [8FAB22E6]  (AR v2)
Трек 14  : извлечено точно (доверие 2)  [FD62BC68]  (AR v2)
Трек 15  : извлечено точно (доверие 2)  [D45054FF]  (AR v2)
Трек 16  : извлечено точно (доверие 2)  [09F58CBB]  (AR v2)
Трек 17  : извлечено точно (доверие 2)  [FC3A2E15]  (AR v2)
Трек 18  : извлечено точно (доверие 2)  [78729ABB]  (AR v2)
Трек 19  : извлечено точно (доверие 2)  [69F3E56A]  (AR v2)
Трек 20  : извлечено точно (доверие 6)  [A9B1D2A5]  (AR v1)
Все треки извлечены точно
Конец отчёта

Содержание индексной карты (.CUE)

REM GENRE "Euro-House, Euro-Dance"
REM DATE 1998
REM DISCID 34114814
REM COMMENT "ExactAudioCopy v1.0b3"
PERFORMER "Various  Artist"
TITLE "DJ  Collection 19"
FILE "Various  Artist - DJ  Collection 19.flac" WAVE
  TRACK 01 AUDIO
    TITLE "Because  I  Love  You"
    PERFORMER "World  In  Motion"
    INDEX 01 00:00:00
  TRACK 02 AUDIO
    TITLE "Just  Cruisin'"
    PERFORMER "Will  Smith"
    INDEX 00 03:57:03
    INDEX 01 03:57:39
  TRACK 03 AUDIO
    TITLE "My  Soul  Unwraps  Tonight"
    PERFORMER "Po - Z - Tive"
    INDEX 00 07:56:42
    INDEX 01 07:57:03
  TRACK 04 AUDIO
    TITLE "Jeopardy"
    PERFORMER "Ever  A  DJ"
    INDEX 00 12:10:06
    INDEX 01 12:10:42
  TRACK 05 AUDIO
    TITLE "Renegade  Master' 98"
    PERFORMER "WildChild"
    INDEX 00 16:00:44
    INDEX 01 16:01:04
  TRACK 06 AUDIO
    TITLE "Bamboogie"
    PERFORMER "Bamboo"
    INDEX 00 19:53:07
    INDEX 01 19:53:43
  TRACK 07 AUDIO
    TITLE "So, So, So  ( So  Long )"
    PERFORMER "Masquerade"
    INDEX 00 23:25:46
    INDEX 01 23:26:07
  TRACK 08 AUDIO
    TITLE "Who  Do  You  Love"
    PERFORMER "Haddaway"
    INDEX 00 27:09:10
    INDEX 01 27:09:46
  TRACK 09 AUDIO
    TITLE "Calling  The  Angel' s"
    PERFORMER "U-96  Feat. Dea  Li"
    INDEX 00 30:31:49
    INDEX 01 30:32:10
  TRACK 10 AUDIO
    TITLE "Good  Time' s - Saint' s"
    PERFORMER "Petty  Paul"
    INDEX 00 34:11:13
    INDEX 01 34:11:49
  TRACK 11 AUDIO
    TITLE "In  My  Mind"
    PERFORMER "Antiloop"
    INDEX 00 37:45:52
    INDEX 01 37:46:13
  TRACK 12 AUDIO
    TITLE "Caramba"
    PERFORMER "Rodriguez"
    INDEX 00 41:13:56
    INDEX 01 41:14:17
  TRACK 13 AUDIO
    TITLE "SuperStar"
    PERFORMER "Novy  Vs  Eniac"
    INDEX 00 44:34:20
    INDEX 01 44:34:56
  TRACK 14 AUDIO
    TITLE "Funky  Cool  Big  Mama"
    PERFORMER "T-Jay"
    INDEX 00 48:17:59
    INDEX 01 48:18:20
  TRACK 15 AUDIO
    TITLE "Stand  By  Me"
    PERFORMER "Dr. No"
    INDEX 00 52:01:23
    INDEX 01 52:01:59
  TRACK 16 AUDIO
    TITLE "Do  You  Really  Want  To  Hurt  Me"
    PERFORMER "Shortcut"
    INDEX 00 55:42:62
    INDEX 01 55:43:23
  TRACK 17 AUDIO
    TITLE "Together"
    PERFORMER "Together"
    INDEX 00 59:45:26
    INDEX 01 59:45:62
  TRACK 18 AUDIO
    TITLE "I' ll  Pray"
    PERFORMER "TM-Green"
    INDEX 00 62:51:65
    INDEX 01 62:52:26
  TRACK 19 AUDIO
    TITLE "Murdertime"
    PERFORMER "Lord-L-Sun"
    INDEX 00 66:17:70
    INDEX 01 66:18:31
  TRACK 20 AUDIO
    TITLE "I' m  Leavin' U  ( Gotta  Go, Gotta  Go )"
    PERFORMER "Bootsy  Collins  Feat. MC  Lyte"
    INDEX 00 69:52:34
    INDEX 01 69:52:70
[Профиль] [ЛС]

Создавать темы 13-Авг-2015 11:16 (спустя 9 месяцев 26 дней)

Топик был перенесен из форума Сборники в форум Music from other genres
sergej644
 
Показать сообщения:    

Текущее время: Сегодня 15:57

Часовой пояс: GMT



Вы не можете начинать темы
Вы не можете отвечать на сообщения
Вы не можете редактировать свои сообщения
Вы не можете удалять свои сообщения
Вы не можете голосовать в опросах
Вы не можете прикреплять файлы к сообщениям
Вы не можете скачивать файлы