(Italo Disco) VA - Disco Collection Italia (3 CD) - 2003 [FLAC, image +.cue, lossless]

 
Автор Сообщение

sergej644 ®

Пол:

Стаж: 4 года 11 месяцев

Сообщений: 6043

Откуда: Soviet Union



Награды: Нет

Торрент-статистика

Создавать темы 17-Янв-2016 12:13

[Цитировать]

-VA - Disco Collection Italia (3 CD)-- Год издания: 2003
Страна: n/a
Жанр: Italo Disco
Продолжительность: 03:27:48-Лейбл издания: Universal Music
Тип альбома: Compilation
Страна-выпуска диска: Russia
Номер по каталогу: 9815307/9815309/9815311
Источник (релизер): elsazh-Формат: FLAC
Битрейт аудио: Lossless
Тип рипа: image +.cue
Наличие сканов в содержимом раздачи: да
-

Трэклист

CD 1 | 01:10:48


01.Max Coveri - Guy Guy (Full Power Version)(06:08)
02.Magazine 60 - Panco Villa (Version Internationale)(05:49)
03.Chip Chip - So Close To Heaven(07:31)
04.Brian Ice - Night Girl(05:33)
05.Ninja - Bye Bye(05:30)
06.Midnight Passion - I Need Your Love(05:54)
07.Jessica - Open Your Heart(06:15)
08.Jimmy and Suzi - Come Back (Version Disco)(06:05)
09.Styloo - Pretty Face(06:02)
10.S50 - Input(07:05)
11.Patty Ryan - Stay With Me Tonight(03:19)
12.Brian Ice - Walking Away (Vocal Extended)(05:43)

CD 2 | 01:00:23


01.Funny Twins - You and Me(05:42)
02.Albert One - Hopes and Dreams(08:36)
03.Duke Lake - Dance Tonight(06:22)
04.Alan Barry - Hie Hie Hie(05:41)
05.Joe Yellow - Wild Boy(06:02)
06.Magazine 60 - Que Nose(04:30)
07.Solo - Harem(05:34)
08.Chip Chip - Everything You Love(03:11)
09.P. Lion - Dream(04:03)
10.Lala - Johnny (Remix)(04:56)
11.Argentina - Baby Don't You Break My Heart(05:52)

CD 3 | 01:16:37


01.Cyber People - Polaris (Club Mix)(06:31)
02.Ken Laszlo - Hey Hey Guy (US Remix)(05:44)
03.Brian Ice - Tokyo (DJ Version)(06:38)
04.Hypnosis - Droid (Automatic Piano)(05:09)
05.Patric Colby - Mandrill (Extended Version)(06:11)
06.Koto - Jabdah (DJ Version)(06:15)
07.Alan Ross - Valentino Mon Amour (Dub Extended)(05:18)
08.50&50 Brothers - Red Man (After Rain Mix)(05:24)
09.Roy - Shooting Star (Dub Version)(05:47)
10.Baby's Gang - America (Swedish Remix)(04:26)
11.Hot Cold - I Can Hear Your Voice (Vocal Extended)(05:31)
12.Image - Hot Stuff (Long Version)(07:18)
13.Eugene - Free Your Life (DJ Version)(06:31)
-

Лог создания рипа

CD 1

Exact Audio Copy V1.0 beta 3 from 29. August 2011
EAC extraction logfile from 4. January 2016, 15:46
Various / Disco Collection Italia 1
Used drive  : Optiarc DVD RW AD-5200A   Adapter: 1  ID: 0
Read mode               : Secure
Utilize accurate stream : Yes
Defeat audio cache      : Yes
Make use of C2 pointers : No
Read offset correction                      : 48
Overread into Lead-In and Lead-Out          : No
Fill up missing offset samples with silence : Yes
Delete leading and trailing silent blocks   : No
Null samples used in CRC calculations       : Yes
Used interface                              : Native Win32 interface for Win NT & 2000
Used output format              : User Defined Encoder
Selected bitrate                : 896 kBit/s
Quality                         : High
Add ID3 tag                     : Yes
Command line compressor         : C:\Program Files (x86)\Exact Audio Copy\Flac\flac.exe
Additional command line options : -V -8 -T "Date=%year%" -T "Genre=%genre%" %source%
TOC of the extracted CD
     Track |   Start  |  Length  | Start sector | End sector
    ---------------------------------------------------------
        1  |  0:00.00 |  6:07.39 |         0    |    27563
        2  |  6:07.39 |  5:48.36 |     27564    |    53699
        3  | 11:56.00 |  7:30.22 |     53700    |    87471
        4  | 19:26.22 |  5:32.62 |     87472    |   112433
        5  | 24:59.09 |  5:29.12 |    112434    |   137120
        6  | 30:28.21 |  5:53.43 |    137121    |   163638
        7  | 36:21.64 |  6:14.61 |    163639    |   191749
        8  | 42:36.50 |  6:04.27 |    191750    |   219076
        9  | 48:41.02 |  6:01.67 |    219077    |   246218
       10  | 54:42.69 |  7:04.31 |    246219    |   278049
       11  | 61:47.25 |  3:18.05 |    278050    |   292904
       12  | 65:05.30 |  5:42.39 |    292905    |   318593
Range status and errors
Selected range
     Filename C:\Various - Disco Collection Italia 1.wav
     Peak level 99.9 %
     Extraction speed 4.2 X
     Range quality 99.9 %
     Test CRC 00DE30FD
     Copy CRC 00DE30FD
     Copy OK
No errors occurred
AccurateRip summary
Track  1  not present in database
Track  2  not present in database
Track  3  not present in database
Track  4  not present in database
Track  5  not present in database
Track  6  not present in database
Track  7  not present in database
Track  8  not present in database
Track  9  not present in database
Track 10  not present in database
Track 11  not present in database
Track 12  not present in database
None of the tracks are present in the AccurateRip database
End of status report
---- CUETools DB Plugin V2.1.3
[CTDB TOCID: R7FG6L.I76XsGrcdmg4l53MIsis-] disk not present in database, Submit result: R7FG6L.I76XsGrcdmg4l53MIsis- has been uploaded

CD 2

Exact Audio Copy V1.0 beta 3 from 29. August 2011
EAC extraction logfile from 4. January 2016, 23:01
Various / Disco Collection Italia 2
Used drive  : Optiarc DVD RW AD-5200A   Adapter: 1  ID: 0
Read mode               : Secure
Utilize accurate stream : Yes
Defeat audio cache      : Yes
Make use of C2 pointers : No
Read offset correction                      : 48
Overread into Lead-In and Lead-Out          : No
Fill up missing offset samples with silence : Yes
Delete leading and trailing silent blocks   : No
Null samples used in CRC calculations       : Yes
Used interface                              : Native Win32 interface for Win NT & 2000
Used output format              : User Defined Encoder
Selected bitrate                : 896 kBit/s
Quality                         : High
Add ID3 tag                     : Yes
Command line compressor         : C:\Program Files (x86)\Exact Audio Copy\Flac\flac.exe
Additional command line options : -V -8 -T "Date=%year%" -T "Genre=%genre%" %source%
TOC of the extracted CD
     Track |   Start  |  Length  | Start sector | End sector
    ---------------------------------------------------------
        1  |  0:00.00 |  5:41.21 |         0    |    25595
        2  |  5:41.21 |  8:35.64 |     25596    |    64284
        3  | 14:17.10 |  6:21.49 |     64285    |    92908
        4  | 20:38.59 |  5:40.51 |     92909    |   118459
        5  | 26:19.35 |  6:01.08 |    118460    |   145542
        6  | 32:20.43 |  4:29.05 |    145543    |   165722
        7  | 36:49.48 |  5:33.25 |    165723    |   190722
        8  | 42:22.73 |  3:10.55 |    190723    |   205027
        9  | 45:33.53 |  4:02.34 |    205028    |   223211
       10  | 49:36.12 |  4:55.30 |    223212    |   245366
       11  | 54:31.42 |  5:51.30 |    245367    |   271721
Range status and errors
Selected range
     Filename C:\Various - Disco Collection Italia 2.wav
     Peak level 99.9 %
     Extraction speed 4.0 X
     Range quality 100.0 %
     Test CRC 37F3A5C6
     Copy CRC 37F3A5C6
     Copy OK
No errors occurred
AccurateRip summary
Track  1  accurately ripped (confidence 1)  [CDD6C3A7]  (AR v1)
Track  2  accurately ripped (confidence 1)  [E3D73DED]  (AR v1)
Track  3  accurately ripped (confidence 1)  [C1E5F381]  (AR v1)
Track  4  accurately ripped (confidence 1)  [E1F01E05]  (AR v1)
Track  5  accurately ripped (confidence 1)  [A1BCEE55]  (AR v1)
Track  6  not present in database
Track  7  accurately ripped (confidence 1)  [1787A9AC]  (AR v1)
Track  8  not present in database
Track  9  accurately ripped (confidence 1)  [BEC036BF]  (AR v1)
Track 10  accurately ripped (confidence 1)  [91ACE9F7]  (AR v1)
Track 11  not present in database
8 трек(и) скопированы точно
3 трек(и) не содержатся в базе AccurateRip
Some tracks could not be verified as accurate
End of status report
---- CUETools DB Plugin V2.1.3
[CTDB TOCID: .XsYCh5qNiw77Ui59FTRNPxRLAE-] disk not present in database, Submit result: .XsYCh5qNiw77Ui59FTRNPxRLAE- has been uploaded

CD 3

Exact Audio Copy V1.0 beta 3 from 29. August 2011
EAC extraction logfile from 5. January 2016, 2:40
Various / Disco Collection Italia 3
Used drive  : Optiarc DVD RW AD-5200A   Adapter: 1  ID: 0
Read mode               : Secure
Utilize accurate stream : Yes
Defeat audio cache      : Yes
Make use of C2 pointers : No
Read offset correction                      : 48
Overread into Lead-In and Lead-Out          : No
Fill up missing offset samples with silence : Yes
Delete leading and trailing silent blocks   : No
Null samples used in CRC calculations       : Yes
Used interface                              : Native Win32 interface for Win NT & 2000
Used output format              : User Defined Encoder
Selected bitrate                : 896 kBit/s
Quality                         : High
Add ID3 tag                     : Yes
Command line compressor         : C:\Program Files (x86)\Exact Audio Copy\Flac\flac.exe
Additional command line options : -V -8 -T "Date=%year%" -T "Genre=%genre%" %source%
TOC of the extracted CD
     Track |   Start  |  Length  | Start sector | End sector
    ---------------------------------------------------------
        1  |  0:00.00 |  6:30.07 |         0    |    29256
        2  |  6:30.07 |  5:43.30 |     29257    |    55011
        3  | 12:13.37 |  6:37.32 |     55012    |    84818
        4  | 18:50.69 |  5:08.35 |     84819    |   107953
        5  | 23:59.29 |  6:10.44 |    107954    |   135747
        6  | 30:09.73 |  6:14.74 |    135748    |   163871
        7  | 36:24.72 |  5:17.24 |    163872    |   187670
        8  | 41:42.21 |  5:23.59 |    187671    |   211954
        9  | 47:06.05 |  5:46.46 |    211955    |   237950
       10  | 52:52.51 |  4:25.59 |    237951    |   257884
       11  | 57:18.35 |  5:30.57 |    257885    |   282691
       12  | 62:49.17 |  7:17.31 |    282692    |   315497
       13  | 70:06.48 |  6:30.16 |    315498    |   344763
Range status and errors
Selected range
     Filename C:\Various - Disco Collection Italia 3.wav
     Peak level 100.0 %
     Extraction speed 4.4 X
     Range quality 99.9 %
     Test CRC E8AA173A
     Copy CRC E8AA173A
     Copy OK
No errors occurred
AccurateRip summary
Track  1  not present in database
Track  2  not present in database
Track  3  not present in database
Track  4  not present in database
Track  5  not present in database
Track  6  not present in database
Track  7  not present in database
Track  8  not present in database
Track  9  not present in database
Track 10  not present in database
Track 11  not present in database
Track 12  not present in database
Track 13  not present in database
None of the tracks are present in the AccurateRip database
End of status report
---- CUETools DB Plugin V2.1.3
[CTDB TOCID: s0mebEA9j64bY2Dpey0.Pk5ISEk-] disk not present in database, Submit result: s0mebEA9j64bY2Dpey0.Pk5ISEk- has been uploaded

Индексная карта (non-compilant .cue)

CD 1

REM GENRE "Italo Disco"
REM DATE 2003
REM DISCID B010970C
REM COMMENT "ExactAudioCopy v1.0b3"
PERFORMER "Various"
TITLE "Disco Collection Italia 1"
FILE "Various - Disco Collection Italia 1.flac" WAVE
  TRACK 01 AUDIO
    TITLE "Guy Guy (Full Power Version)"
    PERFORMER "Max Coveri"
    INDEX 01 00:00:00
  TRACK 02 AUDIO
    TITLE "Panco Villa (Version Internationale)"
    PERFORMER "Magazine 60"
    INDEX 01 06:07:39
  TRACK 03 AUDIO
    TITLE "So Close To Heaven"
    PERFORMER "Chip Chip"
    INDEX 01 11:56:00
  TRACK 04 AUDIO
    TITLE "Night Girl"
    PERFORMER "Brian Ice"
    INDEX 01 19:26:22
  TRACK 05 AUDIO
    TITLE "Bye Bye"
    PERFORMER "Ninja"
    INDEX 01 24:59:09
  TRACK 06 AUDIO
    TITLE "I Need Your Love"
    PERFORMER "Midnight Passion"
    INDEX 01 30:28:21
  TRACK 07 AUDIO
    TITLE "Open Your Heart"
    PERFORMER "Jessica"
    INDEX 01 36:21:64
  TRACK 08 AUDIO
    TITLE "Come Back (Version Disco)"
    PERFORMER "Jimmy and Suzi"
    INDEX 01 42:36:50
  TRACK 09 AUDIO
    TITLE "Pretty Face"
    PERFORMER "Styloo"
    INDEX 01 48:41:02
  TRACK 10 AUDIO
    TITLE "Input"
    PERFORMER "S50"
    INDEX 01 54:42:69
  TRACK 11 AUDIO
    TITLE "Stay With Me Tonight"
    PERFORMER "Patty Ryan"
    INDEX 01 61:47:25
  TRACK 12 AUDIO
    TITLE "Walking Away (Vocal Extended)"
    PERFORMER "Brian Ice"
    INDEX 01 65:05:30

CD 2

REM GENRE Disco
REM DATE 2003
REM DISCID 970E260B
REM COMMENT "ExactAudioCopy v1.0b3"
PERFORMER "Various"
TITLE "Disco Collection Italia 2"
FILE "Various - Disco Collection Italia 2.flac" WAVE
  TRACK 01 AUDIO
    TITLE "You and Me"
    PERFORMER "Funny Twins"
    INDEX 01 00:00:00
  TRACK 02 AUDIO
    TITLE "Hopes and Dreams"
    PERFORMER "Albert One"
    INDEX 01 05:41:21
  TRACK 03 AUDIO
    TITLE "Dance Tonight"
    PERFORMER "Duke Lake"
    INDEX 01 14:17:10
  TRACK 04 AUDIO
    TITLE "Hie Hie Hie"
    PERFORMER "Alan Barry"
    INDEX 01 20:38:59
  TRACK 05 AUDIO
    TITLE "Wild Boy"
    PERFORMER "Joe Yellow"
    INDEX 01 26:19:35
  TRACK 06 AUDIO
    TITLE "Que Nose"
    PERFORMER "Magazine 60"
    INDEX 01 32:20:43
  TRACK 07 AUDIO
    TITLE "Harem"
    PERFORMER "Solo"
    INDEX 01 36:49:48
  TRACK 08 AUDIO
    TITLE "Everything You Love"
    PERFORMER "Chip Chip"
    INDEX 01 42:22:73
  TRACK 09 AUDIO
    TITLE "Dream"
    PERFORMER "P. Lion"
    INDEX 01 45:33:53
  TRACK 10 AUDIO
    TITLE "Johnny (Remix)"
    PERFORMER "Lala"
    INDEX 01 49:36:12
  TRACK 11 AUDIO
    TITLE "Baby Don't You Break My Heart"
    PERFORMER "Argentina"
    INDEX 01 54:31:42

CD 3

REM GENRE "Italo Disco"
REM DATE 2003
REM DISCID A511F40D
REM COMMENT "ExactAudioCopy v1.0b3"
PERFORMER "Various"
TITLE "Disco Collection Italia 3"
FILE "Various - Disco Collection Italia 3.flac" WAVE
  TRACK 01 AUDIO
    TITLE "Polaris (Club Mix)"
    PERFORMER "Cyber People"
    INDEX 01 00:00:00
  TRACK 02 AUDIO
    TITLE "Hey Hey Guy (US Remix)"
    PERFORMER "Ken Laszlo"
    INDEX 01 06:30:07
  TRACK 03 AUDIO
    TITLE "Tokyo (DJ Version)"
    PERFORMER "Brian Ice"
    INDEX 01 12:13:37
  TRACK 04 AUDIO
    TITLE "Droid (Automatic Piano)"
    PERFORMER "Hypnosis"
    INDEX 01 18:50:69
  TRACK 05 AUDIO
    TITLE "Mandrill (Extended Version)"
    PERFORMER "Patric Colby"
    INDEX 01 23:59:29
  TRACK 06 AUDIO
    TITLE "Jabdah (DJ Version)"
    PERFORMER "Koto"
    INDEX 01 30:09:73
  TRACK 07 AUDIO
    TITLE "Valentino Mon Amour (Dub Extended)"
    PERFORMER "Alan Ross"
    INDEX 01 36:24:72
  TRACK 08 AUDIO
    TITLE "Red Man (After Rain Mix)"
    PERFORMER "50&50 Brothers"
    INDEX 01 41:42:21
  TRACK 09 AUDIO
    TITLE "Shooting Star (Dub Version)"
    PERFORMER "Roy"
    INDEX 01 47:06:05
  TRACK 10 AUDIO
    TITLE "America (Swedish Remix)"
    PERFORMER "Baby's Gang"
    INDEX 01 52:52:51
  TRACK 11 AUDIO
    TITLE "I Can Hear Your Voice (Vocal Extended)"
    PERFORMER "Hot Cold"
    INDEX 01 57:18:35
  TRACK 12 AUDIO
    TITLE "Hot Stuff  (Long Version)"
    PERFORMER "Image"
    INDEX 01 62:49:17
  TRACK 13 AUDIO
    TITLE "Free Your Life (DJ Version)"
    PERFORMER "Eugene"
    INDEX 01 70:06:48
--
[Профиль] [ЛС]
Показать сообщения:    

Текущее время: Сегодня 00:34

Часовой пояс: GMT



Вы не можете начинать темы
Вы не можете отвечать на сообщения
Вы не можете редактировать свои сообщения
Вы не можете удалять свои сообщения
Вы не можете голосовать в опросах
Вы не можете прикреплять файлы к сообщениям
Вы не можете скачивать файлы