(Rock,Pop-Rock)VA - Classic Rock (The Collection) (2012) FLAC(image+cue),Lossless

 
Автор Сообщение

sergej644 ®

Пол:

Стаж: 4 года 11 месяцев

Сообщений: 6043

Откуда: Soviet Union



Награды: Нет

Торрент-статистика

Создавать темы 24-Дек-2014 22:05

[Цитировать]

-VA - Classic Rock (The Collection) 3CD (2012)- Страна: Various
Страна-производитель диска: UK
Жанр: Rock, Pop
Год издания: 2012
Издатель (лейбл): RHINO
Номер по каталогу: 5310547165
Аудиокодек: FLAC (*.flac)
Тип рипа: image+.cue
Битрейт аудио: lossless
Источник (релизер): Собственный рип
Наличие сканов: Да, полные
Продолжительность: 03:41:14
Описание: Еще один мой португальский "улов". Этот тройной бокс-сет хорош тем, что в нем представлены классические рок-группы начиная от 60-х и заканчивая 2008 годом. Причем каждое десятилетие представлено очень достойно.

CD 1

Прoдoлжитeльность: 01:10:23
Треклист:
01. Foreigner - As Cold As Ice (3:19)
02. Fleetwood Mac - Don't Stop (3:14)
03. Faces - Cindy Incidentally (2:38)
04. Chicago - You're The Inspiration (3:51)
05. Faith No More - Easy (3:08)
06. ZZ Top - La Grange (3:46)
07. Alice Cooper - School's Out (3:30)
08. David Lee Roth - California Girls (2:47)
09. Warren Zevon - Werewolves of London (3:29)
10. Little Feat - Willin' (2:57)
11. Christopher Cross - All Right (4:18)
12. Ramones - I Wanna Be You Boyfriend (2:26)
13. The Velvet Underground - Rock and Roll (4:44)
14. Jo Jo Gunne - Run Run Run (2:36)
15. Love - Alone Again Or (3:14)
16. Harry Chapin - Cat's In The Cradle (3:48)
17. The Byrds - Born To Rock And Roll (3:12)
18. Gram Parsons - Return of The Grievous Angel (4:26)
19. Crazy Horse - I Don't Want To Talk About It (5:20)
20. Bread - Guiatar Man (3:42)

Содержание индексной карты (.CUE):

REM GENRE Rock
REM DATE 2014
REM DISCID 2C107F14
REM COMMENT "ExactAudioCopy v1.0b3"
PERFORMER "Various Artists"
TITLE "Classic Rock - The Collection"
FILE "Various Artists - Classic Rock - The Collection.flac" WAVE
  TRACK 01 AUDIO
    TITLE "As Cold As Ice"
    PERFORMER "Foreigner"
    INDEX 01 00:00:00
  TRACK 02 AUDIO
    TITLE "Don't Stop"
    PERFORMER "Fleetwood Mac"
    INDEX 00 03:16:06
    INDEX 01 03:19:06
  TRACK 03 AUDIO
    TITLE "Cindy Incidentally"
    PERFORMER "Faces"
    INDEX 00 06:30:26
    INDEX 01 06:33:26
  TRACK 04 AUDIO
    TITLE "You're The Inspiration"
    PERFORMER "Chicago"
    INDEX 00 09:08:45
    INDEX 01 09:11:45
  TRACK 05 AUDIO
    TITLE "Easy"
    PERFORMER "Faith No More"
    INDEX 00 12:59:32
    INDEX 01 13:02:32
  TRACK 06 AUDIO
    TITLE "La Grange"
    PERFORMER "ZZ Top"
    INDEX 00 16:07:43
    INDEX 01 16:10:43
  TRACK 07 AUDIO
    TITLE "School's Out"
    PERFORMER "Alice Cooper"
    INDEX 00 19:53:12
    INDEX 01 19:56:12
  TRACK 08 AUDIO
    TITLE "California Girls"
    PERFORMER "David Lee Roth"
    INDEX 00 23:23:36
    INDEX 01 23:26:36
  TRACK 09 AUDIO
    TITLE "Werewolves of London"
    PERFORMER "Warren Zevon"
    INDEX 00 26:10:04
    INDEX 01 26:13:04
  TRACK 10 AUDIO
    TITLE "Willin'"
    PERFORMER "Little Feat"
    INDEX 00 29:39:09
    INDEX 01 29:42:09
  TRACK 11 AUDIO
    TITLE "All Right"
    PERFORMER "Christopher Cross"
    INDEX 00 32:35:70
    INDEX 01 32:38:70
  TRACK 12 AUDIO
    TITLE "I Wanna Be You Boyfriend"
    PERFORMER "Ramones"
    INDEX 00 36:53:47
    INDEX 01 36:56:47
  TRACK 13 AUDIO
    TITLE "Rock and Roll"
    PERFORMER "The Velvet Underground"
    INDEX 00 39:19:24
    INDEX 01 39:22:24
  TRACK 14 AUDIO
    TITLE "Run Run Run"
    PERFORMER "Jo Jo Gunne"
    INDEX 00 44:02:70
    INDEX 01 44:05:70
  TRACK 15 AUDIO
    TITLE "Alone Again Or"
    PERFORMER "Love"
    INDEX 00 46:38:35
    INDEX 01 46:41:35
  TRACK 16 AUDIO
    TITLE "Cat's In The Cradle"
    PERFORMER "Harry Chapin"
    INDEX 00 49:52:05
    INDEX 01 49:55:05
  TRACK 17 AUDIO
    TITLE "Born To Rock And Roll"
    PERFORMER "The Byrds"
    INDEX 00 53:40:23
    INDEX 01 53:43:23
  TRACK 18 AUDIO
    TITLE "Return of The Grievous Angel"
    PERFORMER "Gram Parsons"
    INDEX 00 56:52:54
    INDEX 01 56:55:54
  TRACK 19 AUDIO
    TITLE "I Don't Want To Talk About It"
    PERFORMER "Crazy Horse"
    INDEX 00 61:18:20
    INDEX 01 61:21:20
  TRACK 20 AUDIO
    TITLE "Guiatar Man"
    PERFORMER "Bread"
    INDEX 00 66:38:21
    INDEX 01 66:41:21

Отчёт ЕАС:

Exact Audio Copy V1.0 beta 3 from 29. August 2011
EAC extraction logfile from 15. March 2014, 0:16
Various Artists / Classic Rock - The Collection
Used drive  : PIONEER BD-RW   BDR-206   Adapter: 3  ID: 0
Read mode               : Secure
Utilize accurate stream : Yes
Defeat audio cache      : Yes
Make use of C2 pointers : No
Read offset correction                      : 667
Overread into Lead-In and Lead-Out          : No
Fill up missing offset samples with silence : Yes
Delete leading and trailing silent blocks   : No
Null samples used in CRC calculations       : Yes
Used interface                              : Native Win32 interface for Win NT & 2000
Used output format              : User Defined Encoder
Selected bitrate                : 1024 kBit/s
Quality                         : High
Add ID3 tag                     : Yes
Command line compressor         : C:\Program Files (x86)\Exact Audio Copy\Flac\flac.exe
Additional command line options : -V -8 -T "Date=%year%" -T "Genre=%genre%" %source%
TOC of the extracted CD
     Track |   Start  |  Length  | Start sector | End sector
    ---------------------------------------------------------
        1  |  0:00.00 |  3:19.06 |         0    |    14930
        2  |  3:19.06 |  3:14.20 |     14931    |    29500
        3  |  6:33.26 |  2:38.19 |     29501    |    41369
        4  |  9:11.45 |  3:50.62 |     41370    |    58681
        5  | 13:02.32 |  3:08.11 |     58682    |    72792
        6  | 16:10.43 |  3:45.44 |     72793    |    89711
        7  | 19:56.12 |  3:30.24 |     89712    |   105485
        8  | 23:26.36 |  2:46.43 |    105486    |   117978
        9  | 26:13.04 |  3:29.05 |    117979    |   133658
       10  | 29:42.09 |  2:56.61 |    133659    |   146919
       11  | 32:38.70 |  4:17.52 |    146920    |   166246
       12  | 36:56.47 |  2:25.52 |    166247    |   177173
       13  | 39:22.24 |  4:43.46 |    177174    |   198444
       14  | 44:05.70 |  2:35.40 |    198445    |   210109
       15  | 46:41.35 |  3:13.45 |    210110    |   224629
       16  | 49:55.05 |  3:48.18 |    224630    |   241747
       17  | 53:43.23 |  3:12.31 |    241748    |   256178
       18  | 56:55.54 |  4:25.41 |    256179    |   276094
       19  | 61:21.20 |  5:20.01 |    276095    |   300095
       20  | 66:41.21 |  3:41.54 |    300096    |   316724
Range status and errors
Selected range
     Filename D:\Сборники (Flac)\VA - Classic Rock (The Collection) 3CD[2012](Flac+cue)\CD1\Various Artists - Classic Rock - The Collection.wav
     Peak level 98.8 %
     Extraction speed 1.4 X
     Range quality 100.0 %
     Test CRC 04910933
     Copy CRC 04910933
     Copy OK
No errors occurred
AccurateRip summary
Track  1  accurately ripped (confidence 2)  [BD94BE3D]  (AR v2)
Track  2  accurately ripped (confidence 2)  [2A70A678]  (AR v2)
Track  3  accurately ripped (confidence 2)  [1F429ACE]  (AR v2)
Track  4  accurately ripped (confidence 2)  [98D7EA06]  (AR v2)
Track  5  accurately ripped (confidence 2)  [C118CFED]  (AR v2)
Track  6  accurately ripped (confidence 2)  [84F72194]  (AR v2)
Track  7  accurately ripped (confidence 2)  [90948256]  (AR v2)
Track  8  accurately ripped (confidence 2)  [BF76CB97]  (AR v2)
Track  9  accurately ripped (confidence 2)  [045D9953]  (AR v2)
Track 10  accurately ripped (confidence 2)  [3A68E369]  (AR v2)
Track 11  accurately ripped (confidence 2)  [3B67B956]  (AR v2)
Track 12  accurately ripped (confidence 2)  [DC38C01A]  (AR v2)
Track 13  accurately ripped (confidence 2)  [8D54FAE0]  (AR v2)
Track 14  accurately ripped (confidence 2)  [EAF37FA2]  (AR v2)
Track 15  accurately ripped (confidence 2)  [43658E3D]  (AR v2)
Track 16  accurately ripped (confidence 2)  [0E654C9C]  (AR v2)
Track 17  accurately ripped (confidence 2)  [A5C75257]  (AR v2)
Track 18  accurately ripped (confidence 2)  [4A24A148]  (AR v2)
Track 19  accurately ripped (confidence 2)  [D396B757]  (AR v2)
Track 20  accurately ripped (confidence 2)  [B50E0B33]  (AR v2)
All tracks accurately ripped
End of status report
---- CUETools DB Plugin V2.1.3
[CTDB TOCID: sQamFhv6qFqngjyItClr3IIoDic-] found, Submit result: sQamFhv6qFqngjyItClr3IIoDic- has been confirmed
[8cddbc1e] (2/2) Accurately ripped
==== Log checksum 34D636E029DD7C7A6667451BFA09DF0A3EACBCCDE9D9598E46374F9CEC4FD20B ====

Отчёт auCDtect Task manager:

-----------------------
DON'T MODIFY THIS FILE
-----------------------
PERFORMER: auCDtect Task Manager, ver. 1.6.0 RC1 build 1.6.0.1
Copyright (c) 2008-2010 y-soft. All rights reserved
http://y-soft.org
ANALYZER: auCDtect: CD records authenticity detector, version 0.8.2
Copyright (c) 2004 Oleg Berngardt. All rights reserved.
Copyright (c) 2004 Alexander Djourik. All rights reserved.
FILE: Various Artists - Classic Rock - The Collection.flac
  Size: 494416711 Hash: 7312039223196C222D68DDD5990F822E Accuracy: -m0
  Conclusion: CDDA 100%
  Signature: D8DCDBF1EC25F6617484DC71AACBDF471EC32632

CD 2

Продoлжитeльность: 01:18:53
Трeклист:
01. The Doobie Brothers - Listen To The Music (4:44)
02. Chris Rea - The Road To Hell pt.2 (4:28)
03. Yes - Owner of a Lonely Heart (4:27)
04. Jet - Are You Gonna Be My Girl (3:37)
05. The Stooges - 1969 (4:08)
06. The Darkness - I Believe In A Thing Called Love (3:38)
07. Television - Prove It (5:01)
08. Joe Walsh - I Can Play That Rock & Roll (3:05)
09. The Georgia Satellites - Keep Your Hands To Yoourself (3:27)
10. Elivis Costello - The Other Side of Summer (3:54)
11. Damn Yankees - Coming Of Age (4:18)
12. Blackfoot - Highway Song (4:28)
13. Twisted Sister - I Wanna Rock (3:03)
14. Honeymoon Suite - New Girl Now (3:35)
15. Skid Row - Monkey Business (4:21)
16. Iron Butterfly - In-A-Gadda-Da-Vida (2:56)
17. Tony Joe White - Polk Salad Annie (3:44)
18. White Lion - When The Children Cry (4:19)
19. Marc Cohn - Walking In Memphis (4:14)
20. Mr. Big - To Be With You (3:25)

Содержание индексной карты (.CUE):

REM GENRE Rock
REM DATE 2012
REM DISCID 39127D14
REM COMMENT "ExactAudioCopy v1.0b3"
PERFORMER "Various Artists"
TITLE "Classic Rock - The Collection CD 2"
FILE "Various Artists - Classic Rock - The Collection CD 2.flac" WAVE
  TRACK 01 AUDIO
    TITLE "Listen To The Music"
    PERFORMER "The Doobie Brothers"
    INDEX 01 00:00:00
  TRACK 02 AUDIO
    TITLE "The Road To Hell pt.2"
    PERFORMER "Chris Rea"
    INDEX 00 04:40:70
    INDEX 01 04:43:70
  TRACK 03 AUDIO
    TITLE "Owner of a Lonely Heart"
    PERFORMER "Yes"
    INDEX 00 09:09:24
    INDEX 01 09:12:24
  TRACK 04 AUDIO
    TITLE "Are You Gonna Be My Girl"
    PERFORMER "Jet"
    INDEX 00 13:36:56
    INDEX 01 13:39:56
  TRACK 05 AUDIO
    TITLE "1969"
    PERFORMER "The Stooges"
    INDEX 00 17:13:37
    INDEX 01 17:16:37
  TRACK 06 AUDIO
    TITLE "I Believe In A Thing Called Love"
    PERFORMER "The Darkness"
    INDEX 00 21:21:00
    INDEX 01 21:24:00
  TRACK 07 AUDIO
    TITLE "Prove It"
    PERFORMER "Television"
    INDEX 00 24:58:62
    INDEX 01 25:01:62
  TRACK 08 AUDIO
    TITLE "I Can Play That Rock & Roll"
    PERFORMER "Joe Walsh"
    INDEX 00 30:00:20
    INDEX 01 30:03:20
  TRACK 09 AUDIO
    TITLE "Keep Your Hands To Yoourself"
    PERFORMER "The Georgia Satellites"
    INDEX 00 33:04:71
    INDEX 01 33:07:71
  TRACK 10 AUDIO
    TITLE "The Other Side of Summer"
    PERFORMER "Elivis Costello"
    INDEX 00 36:32:18
    INDEX 01 36:35:18
  TRACK 11 AUDIO
    TITLE "Coming Of Age"
    PERFORMER "Damn Yankees"
    INDEX 00 40:26:31
    INDEX 01 40:29:31
  TRACK 12 AUDIO
    TITLE "Highway Song"
    PERFORMER "Blackfoot"
    INDEX 00 44:44:68
    INDEX 01 44:47:68
  TRACK 13 AUDIO
    TITLE "I Wanna Rock"
    PERFORMER "Twisted Sister"
    INDEX 00 49:13:00
    INDEX 01 49:16:00
  TRACK 14 AUDIO
    TITLE "New Girl Now"
    PERFORMER "Honeymoon Suite"
    INDEX 00 52:16:17
    INDEX 01 52:19:17
  TRACK 15 AUDIO
    TITLE "Monkey Business"
    PERFORMER "Skid Row"
    INDEX 00 55:51:15
    INDEX 01 55:54:15
  TRACK 16 AUDIO
    TITLE "In-A-Gadda-Da-Vida"
    PERFORMER "Iron Butterfly"
    INDEX 00 60:12:03
    INDEX 01 60:15:03
  TRACK 17 AUDIO
    TITLE "Polk Salad Annie"
    PERFORMER "Tony Joe White"
    INDEX 00 63:07:42
    INDEX 01 63:10:42
  TRACK 18 AUDIO
    TITLE "When The Children Cry"
    PERFORMER "White Lion"
    INDEX 00 66:51:11
    INDEX 01 66:54:11
  TRACK 19 AUDIO
    TITLE "Walking In Memphis"
    PERFORMER "Marc Cohn"
    INDEX 00 71:10:41
    INDEX 01 71:13:41
  TRACK 20 AUDIO
    TITLE "To Be With You"
    PERFORMER "Mr. Big"
    INDEX 00 75:24:66
    INDEX 01 75:27:66

Отчёт ЕАС:

Exact Audio Copy V1.0 beta 3 from 29. August 2011
EAC extraction logfile from 15. March 2014, 14:54
Various Artists / Classic Rock - The Collection CD 2
Used drive  : TSSTcorpBDDVDW SE-506BB   Adapter: 4  ID: 0
Read mode               : Secure
Utilize accurate stream : Yes
Defeat audio cache      : Yes
Make use of C2 pointers : No
Read offset correction                      : 6
Overread into Lead-In and Lead-Out          : No
Fill up missing offset samples with silence : Yes
Delete leading and trailing silent blocks   : No
Null samples used in CRC calculations       : Yes
Used interface                              : Native Win32 interface for Win NT & 2000
Used output format              : User Defined Encoder
Selected bitrate                : 1024 kBit/s
Quality                         : High
Add ID3 tag                     : Yes
Command line compressor         : C:\Program Files (x86)\Exact Audio Copy\Flac\flac.exe
Additional command line options : -V -8 -T "Date=%year%" -T "Genre=%genre%" %source%
TOC of the extracted CD
     Track |   Start  |  Length  | Start sector | End sector
    ---------------------------------------------------------
        1  |  0:00.00 |  4:43.70 |         0    |    21294
        2  |  4:43.70 |  4:28.29 |     21295    |    41423
        3  |  9:12.24 |  4:27.32 |     41424    |    61480
        4  | 13:39.56 |  3:36.56 |     61481    |    77736
        5  | 17:16.37 |  4:07.38 |     77737    |    96299
        6  | 21:24.00 |  3:37.62 |     96300    |   112636
        7  | 25:01.62 |  5:01.33 |    112637    |   135244
        8  | 30:03.20 |  3:04.51 |    135245    |   149095
        9  | 33:07.71 |  3:27.22 |    149096    |   164642
       10  | 36:35.18 |  3:54.13 |    164643    |   182205
       11  | 40:29.31 |  4:18.37 |    182206    |   201592
       12  | 44:47.68 |  4:28.07 |    201593    |   221699
       13  | 49:16.00 |  3:03.17 |    221700    |   235441
       14  | 52:19.17 |  3:34.73 |    235442    |   251564
       15  | 55:54.15 |  4:20.63 |    251565    |   271127
       16  | 60:15.03 |  2:55.39 |    271128    |   284291
       17  | 63:10.42 |  3:43.44 |    284292    |   301060
       18  | 66:54.11 |  4:19.30 |    301061    |   320515
       19  | 71:13.41 |  4:14.25 |    320516    |   339590
       20  | 75:27.66 |  3:25.32 |    339591    |   354997
Range status and errors
Selected range
     Filename D:\Сборники (Flac)\VA - Classic Rock (The Collection) 3CD[2012](Flac+cue)\CD2\Various Artists - Classic Rock - The Collection CD 2.wav
     Peak level 98.8 %
     Extraction speed 2.6 X
     Range quality 99.9 %
     Test CRC C2AD6C1A
     Copy CRC C2AD6C1A
     Copy OK
No errors occurred
AccurateRip summary
Track  1  accurately ripped (confidence 2)  [2C638EAE]  (AR v2)
Track  2  accurately ripped (confidence 2)  [DE040763]  (AR v2)
Track  3  accurately ripped (confidence 2)  [6AB6AD43]  (AR v2)
Track  4  accurately ripped (confidence 2)  [1D331FA4]  (AR v2)
Track  5  accurately ripped (confidence 2)  [4678C635]  (AR v2)
Track  6  accurately ripped (confidence 2)  [54283D87]  (AR v2)
Track  7  accurately ripped (confidence 2)  [6DC688AA]  (AR v2)
Track  8  accurately ripped (confidence 2)  [492B6DC9]  (AR v2)
Track  9  accurately ripped (confidence 2)  [0A06ADAA]  (AR v2)
Track 10  accurately ripped (confidence 2)  [704BAE48]  (AR v2)
Track 11  accurately ripped (confidence 2)  [21F98C98]  (AR v2)
Track 12  accurately ripped (confidence 2)  [504EAAB3]  (AR v2)
Track 13  accurately ripped (confidence 2)  [97C148C9]  (AR v2)
Track 14  accurately ripped (confidence 2)  [EE623935]  (AR v2)
Track 15  accurately ripped (confidence 2)  [CB054390]  (AR v2)
Track 16  accurately ripped (confidence 2)  [59E974A9]  (AR v2)
Track 17  accurately ripped (confidence 2)  [141B1972]  (AR v2)
Track 18  accurately ripped (confidence 2)  [7D6EC4B3]  (AR v2)
Track 19  accurately ripped (confidence 2)  [8FF338EE]  (AR v2)
Track 20  accurately ripped (confidence 2)  [CC04B3EF]  (AR v2)
All tracks accurately ripped
End of status report
---- CUETools DB Plugin V2.1.3
[CTDB TOCID: gY3Bo4Tb.VjxY6RphdwVgzkFSsc-] found, Submit result: gY3Bo4Tb.VjxY6RphdwVgzkFSsc- has been confirmed
[389f93cb] (2/2) Accurately ripped
==== Log checksum DB83188BC9096A7773BD955132D7C8D21291A33C6F6B7F69BD783221550B171F ====

Отчёт auCDtect Task manager:

-----------------------
DON'T MODIFY THIS FILE
-----------------------
PERFORMER: auCDtect Task Manager, ver. 1.6.0 RC1 build 1.6.0.1
Copyright (c) 2008-2010 y-soft. All rights reserved
http://y-soft.org
ANALYZER: auCDtect: CD records authenticity detector, version 0.8.2
Copyright (c) 2004 Oleg Berngardt. All rights reserved.
Copyright (c) 2004 Alexander Djourik. All rights reserved.
FILE: Various Artists - Classic Rock - The Collection CD 2.flac
  Size: 584452472 Hash: 182D4D303BA41AF8AA6C90A11EBF348F Accuracy: -m0
  Conclusion: CDDA 100%
  Signature: 8BE79E702B29348E21CC70924FD772051E94958E

CD 3

Продoлжитeльность: 01:11:58
Трeклист:
01. Atlannah Myles - Black Velvet (4:47)
02. The Lemonheads - Mrs. Robinson (3:38)
03. Violent Femmes - Blister In The Sun (2:26)
04. The Cars - Drive (3:56)
05. Pretenders - Back On The Chain Gang (3:51)
06. Ash - Girl From Mars (3:33)
07. The Subways - Rock & Roll Queen (2:53)
08. Echo & The Bunnymen - The Cutter (3:54)
09. Grateful Dead - Touch Of Grey (5:49)
10. The Monkees - (I'm Not Your) Steppin' Stone (2:21)
11. The Jesus and Mary Chain - April Skies (4:02)
12. The Donnas - Dancing With Myself (3:28)
13. Jane's Addiction - Jane Says (4:50)
14. Dinosaur Jr. - I Don't Think So (3:35)
15. David Lindley - Mercury Blues (3:35)
16. The J. Geils Band - Whammer Jammer (2:39)
17. Blues Image - Ride Captain Ride (3:42)
18. Aztec Camera - Walk Out To Winter (3:26)
19. Todd Rundgren - I Saw The Light (2:57)
20. Buffalo Springfield - For What It's Worth (2:35)

Содержание индексной карты (.CUE):

REM GENRE Rock
REM DATE 2012
REM DISCID 4610DD14
REM COMMENT "ExactAudioCopy v1.0b3"
PERFORMER "Various Artists"
TITLE "Classic Rock - The Collection CD 3"
FILE "Various Artists - Classic Rock - The Collection CD 3.flac" WAVE
  TRACK 01 AUDIO
    TITLE "Black Velvet"
    PERFORMER "Atlannah Myles"
    INDEX 01 00:00:00
  TRACK 02 AUDIO
    TITLE "Mrs. Robinson"
    PERFORMER "The Lemonheads"
    INDEX 00 04:44:01
    INDEX 01 04:47:01
  TRACK 03 AUDIO
    TITLE "Blister In The Sun"
    PERFORMER "Violent Femmes"
    INDEX 00 08:22:23
    INDEX 01 08:25:23
  TRACK 04 AUDIO
    TITLE "Drive"
    PERFORMER "The Cars"
    INDEX 00 10:48:49
    INDEX 01 10:51:49
  TRACK 05 AUDIO
    TITLE "Back On The Chain Gang"
    PERFORMER "Pretenders"
    INDEX 00 14:44:61
    INDEX 01 14:47:61
  TRACK 06 AUDIO
    TITLE "Girl From Mars"
    PERFORMER "Ash"
    INDEX 00 18:35:47
    INDEX 01 18:38:47
  TRACK 07 AUDIO
    TITLE "Rock & Roll Queen"
    PERFORMER "The Subways"
    INDEX 00 22:08:61
    INDEX 01 22:11:61
  TRACK 08 AUDIO
    TITLE "The Cutter"
    PERFORMER "Echo & The Bunnymen"
    INDEX 00 25:01:34
    INDEX 01 25:04:34
  TRACK 09 AUDIO
    TITLE "Touch Of Grey"
    PERFORMER "Grateful Dead"
    INDEX 00 28:55:38
    INDEX 01 28:58:38
  TRACK 10 AUDIO
    TITLE "(I'm Not Your) Steppin' Stone"
    PERFORMER "The Monkees"
    INDEX 00 34:44:48
    INDEX 01 34:47:48
  TRACK 11 AUDIO
    TITLE "April Skies"
    PERFORMER "The Jesus and Mary Chain"
    INDEX 00 37:05:12
    INDEX 01 37:08:12
  TRACK 12 AUDIO
    TITLE "Dancing With Myself"
    PERFORMER "The Donnas"
    INDEX 00 41:07:15
    INDEX 01 41:10:15
  TRACK 13 AUDIO
    TITLE "Jane Says"
    PERFORMER "Jane's Addiction"
    INDEX 00 44:34:54
    INDEX 01 44:37:54
  TRACK 14 AUDIO
    TITLE "I Don't Think So"
    PERFORMER "Dinosaur Jr."
    INDEX 00 49:24:47
    INDEX 01 49:27:47
  TRACK 15 AUDIO
    TITLE "Mercury Blues"
    PERFORMER "David Lindley"
    INDEX 00 53:00:02
    INDEX 01 53:03:02
  TRACK 16 AUDIO
    TITLE "Whammer Jammer"
    PERFORMER "The J. Geils Band"
    INDEX 00 56:34:60
    INDEX 01 56:37:60
  TRACK 17 AUDIO
    TITLE "Ride Captain Ride"
    PERFORMER "Blues Image"
    INDEX 00 59:14:15
    INDEX 01 59:17:15
  TRACK 18 AUDIO
    TITLE "Walk Out To Winter"
    PERFORMER "Aztec Camera"
    INDEX 00 62:56:09
    INDEX 01 62:59:09
  TRACK 19 AUDIO
    TITLE "I Saw The Light"
    PERFORMER "Todd Rundgren"
    INDEX 00 66:22:14
    INDEX 01 66:25:14
  TRACK 20 AUDIO
    TITLE "For What It's Worth"
    PERFORMER "Buffalo Springfield"
    INDEX 00 69:19:16
    INDEX 01 69:22:16

Отчёт ЕАС:

Exact Audio Copy V1.0 beta 3 from 29. August 2011
EAC extraction logfile from 15. March 2014, 15:36
Various Artists / Classic Rock - The Collection CD 3
Used drive  : TSSTcorpBDDVDW SE-506BB   Adapter: 4  ID: 0
Read mode               : Secure
Utilize accurate stream : Yes
Defeat audio cache      : Yes
Make use of C2 pointers : No
Read offset correction                      : 6
Overread into Lead-In and Lead-Out          : No
Fill up missing offset samples with silence : Yes
Delete leading and trailing silent blocks   : No
Null samples used in CRC calculations       : Yes
Used interface                              : Native Win32 interface for Win NT & 2000
Used output format              : User Defined Encoder
Selected bitrate                : 1024 kBit/s
Quality                         : High
Add ID3 tag                     : Yes
Command line compressor         : C:\Program Files (x86)\Exact Audio Copy\Flac\flac.exe
Additional command line options : -V -8 -T "Date=%year%" -T "Genre=%genre%" %source%
TOC of the extracted CD
     Track |   Start  |  Length  | Start sector | End sector
    ---------------------------------------------------------
        1  |  0:00.00 |  4:47.01 |         0    |    21525
        2  |  4:47.01 |  3:38.22 |     21526    |    37897
        3  |  8:25.23 |  2:26.26 |     37898    |    48873
        4  | 10:51.49 |  3:56.12 |     48874    |    66585
        5  | 14:47.61 |  3:50.61 |     66586    |    83896
        6  | 18:38.47 |  3:33.14 |     83897    |    99885
        7  | 22:11.61 |  2:52.48 |     99886    |   112833
        8  | 25:04.34 |  3:54.04 |    112834    |   130387
        9  | 28:58.38 |  5:49.10 |    130388    |   156572
       10  | 34:47.48 |  2:20.39 |    156573    |   167111
       11  | 37:08.12 |  4:02.03 |    167112    |   185264
       12  | 41:10.15 |  3:27.39 |    185265    |   200828
       13  | 44:37.54 |  4:49.68 |    200829    |   222571
       14  | 49:27.47 |  3:35.30 |    222572    |   238726
       15  | 53:03.02 |  3:34.58 |    238727    |   254834
       16  | 56:37.60 |  2:39.30 |    254835    |   266789
       17  | 59:17.15 |  3:41.69 |    266790    |   283433
       18  | 62:59.09 |  3:26.05 |    283434    |   298888
       19  | 66:25.14 |  2:57.02 |    298889    |   312165
       20  | 69:22.16 |  2:35.25 |    312166    |   323815
Range status and errors
Selected range
     Filename D:\Сборники (Flac)\VA - Classic Rock (The Collection) 3CD[2012](Flac+cue)\CD3\Various Artists - Classic Rock - The Collection CD 3.wav
     Peak level 98.8 %
     Extraction speed 5.0 X
     Range quality 100.0 %
     Test CRC B4422595
     Copy CRC B4422595
     Copy OK
No errors occurred
AccurateRip summary
Track  1  accurately ripped (confidence 2)  [B7FA9B53]  (AR v2)
Track  2  accurately ripped (confidence 2)  [EE521BBB]  (AR v2)
Track  3  accurately ripped (confidence 2)  [3E4B1863]  (AR v2)
Track  4  accurately ripped (confidence 2)  [9C5B5079]  (AR v2)
Track  5  accurately ripped (confidence 2)  [7CAC9275]  (AR v2)
Track  6  accurately ripped (confidence 2)  [2509F898]  (AR v2)
Track  7  accurately ripped (confidence 2)  [88C83373]  (AR v2)
Track  8  accurately ripped (confidence 2)  [5A2EE74E]  (AR v2)
Track  9  accurately ripped (confidence 2)  [48AD5611]  (AR v2)
Track 10  accurately ripped (confidence 2)  [43ADB8D6]  (AR v2)
Track 11  accurately ripped (confidence 2)  [A3E74779]  (AR v2)
Track 12  accurately ripped (confidence 2)  [CFBAAE95]  (AR v2)
Track 13  accurately ripped (confidence 2)  [7E8235FB]  (AR v2)
Track 14  accurately ripped (confidence 2)  [90712903]  (AR v2)
Track 15  accurately ripped (confidence 2)  [4FCD6685]  (AR v2)
Track 16  accurately ripped (confidence 2)  [3BC3D627]  (AR v2)
Track 17  accurately ripped (confidence 2)  [E66250ED]  (AR v2)
Track 18  accurately ripped (confidence 2)  [3E0ACAA7]  (AR v2)
Track 19  accurately ripped (confidence 2)  [4E3E0F29]  (AR v2)
Track 20  accurately ripped (confidence 2)  [2E91809F]  (AR v2)
All tracks accurately ripped
End of status report
---- CUETools DB Plugin V2.1.3
[CTDB TOCID: YM6xOU7M9I6UZIQR8iM7.O9D7bs-] found, Submit result: YM6xOU7M9I6UZIQR8iM7.O9D7bs- has been confirmed
[ca19b871] (2/2) Accurately ripped
==== Log checksum 0F0921A9DC5548C6F80C0083D56665DC517B20FAEB22EBE098C3A430517DABDD ====

Отчёт auCDtect Task manager:

-----------------------
DON'T MODIFY THIS FILE
-----------------------
PERFORMER: auCDtect Task Manager, ver. 1.6.0 RC1 build 1.6.0.1
Copyright (c) 2008-2010 y-soft. All rights reserved
http://y-soft.org
ANALYZER: auCDtect: CD records authenticity detector, version 0.8.2
Copyright (c) 2004 Oleg Berngardt. All rights reserved.
Copyright (c) 2004 Alexander Djourik. All rights reserved.
FILE: Various Artists - Classic Rock - The Collection CD 3.flac
  Size: 533865747 Hash: FDAFBF280867B9396E4C8CBB6C34EC37 Accuracy: -m0
  Conclusion: CDDA 100%
  Signature: 4F5692A838649D3022A916345525947AAA5288A8
--
[Профиль] [ЛС]
Кто просматривает тему:

Форум Тема Автор Размер
Сборники (Rock,Pop-Rock,Heavy Metal) VA - Russian Rock (6CD) 1979 - 2014, [MP3, tracks, 320 kbps] sergej644 4.07 GB
Показать сообщения:    

Текущее время: Сегодня 16:43

Часовой пояс: GMT



Вы не можете начинать темы
Вы не можете отвечать на сообщения
Вы не можете редактировать свои сообщения
Вы не можете удалять свои сообщения
Вы не можете голосовать в опросах
Вы не можете прикреплять файлы к сообщениям
Вы не можете скачивать файлы