(Pop) VA - Best Of World Hits (The Oldies Collection), vol.3 30 Jahre Super Oldies - 1994, FLAC (tracks+.cue), lossless

 
Автор Сообщение

sergej644 ®

Пол:

Стаж: 4 года 11 месяцев

Сообщений: 6037

Откуда: Soviet Union



Награды: Нет

Торрент-статистика

Создавать темы 14-Июл-2015 04:08

[Цитировать]

Best Of World Hits (The Oldies Collection), vol.3 30 Jahre Super Oldies
Жанр: Pop
Страна-производитель диска (релиза): EC
Год издания: 1994
Издатель (лейбл): PMDC
Номер по каталогу: 550699-2 01
Аудиокодек: FLAC (*.flac)
Тип рипа: tracks+.cue
Битрейт аудио: lossless
Продолжительность: 0:50:36.
Источник (релизер): clustert
Наличие сканов в содержимом раздачи: да

Треклист:
01. Abba / Waterloo [0:02:47.27]
02. Barry White / You're the first, the last, my everything [0:04:33.38]
03. Johnny Bristol / Hang on in there baby [0:03:24.27]
04. Bachman-Turner Overdrive / You ain't seen nothin' yet [0:03:34.33]
05. Carl Douglas / Kung fu fighting [0:03:07.50]
06. Gloria Gaynor / Never can say goodbye [0:03:01.35]
07. Love Unlimited Orchestra / Love's theme [0:03:50.10]
08. Mouth & MacNeal / I see a star [0:02:58.30]
09. Sweet Sensation / Sad sweet dreamer [0:03:25.65]
10. Medicine Head / Slip and slide [0:03:31.47]
11. Nazareth / Shanghai'd in Shanghai [0:03:43.28]
12. Status Quo / Down down [0:03:51.42]
13. Kiki Dee / I've got the music in me [0:04:59.33]
14. Thunderthighs / Central Park arrest [0:03:46.60]

Лог создания рипа

Exact Audio Copy V1.0 beta 3 from 29. August 2011
Отчёт EAC об извлечении, выполненном 14. июня 2015, 22:20
VA / World Hits 1974
Дисковод: ASUS    DRW-1814BLT   Adapter: 4  ID: 0
Режим чтения                 : Достоверность
Использование точного потока : Да
Отключение кэша аудио        : Да
Использование указателей C2  : Нет
Коррекция смещения при чтении                     : 6
Способность читать области Lead-in и Lead-out     : Нет
Заполнение пропущенных сэмплов тишиной            : Да
Удаление блоков с тишиной в начале и конце        : Нет
При вычислениях CRC использовались нулевые сэмплы : Да
Интерфейс                                         : Встроенный Win32-интерфейс для Win NT/2000
Обработка зазоров                                 : Добавлено к предыдущему треку
Выходной формат          : Пользовательский кодировщик
Выбранный битрейт        : 128 kBit/s
Качество                 : Высокий
Добавление ID3-тега      : Нет
Утилита сжатия           : C:\Program Files\Exact Audio Copy\Flac\flac.exe
Дополнительные параметры :  -V -8 -T "Genre=%genre%" -T "Artist=%artist%" -T "Title=%title%" -T "Album=%albumtitle%" -T "Date=%year%" -T "Tracknumber=%tracknr%" -T "Comment=EAC1.0b2 FLAC -8" %source%
TOC извлечённого CD
     Трек |   Старт  | Длительность | Начальный сектор | Конечный сектор
    ---------------------------------------------------------------------
       1  |  0:00.33 |    2:47.27   |          33      |      12584
       2  |  2:47.60 |    4:33.38   |       12585      |      33097
       3  |  7:21.23 |    3:24.27   |       33098      |      48424
       4  | 10:45.50 |    3:34.33   |       48425      |      64507
       5  | 14:20.08 |    3:07.50   |       64508      |      78582
       6  | 17:27.58 |    3:01.35   |       78583      |      92192
       7  | 20:29.18 |    3:50.10   |       92193      |     109452
       8  | 24:19.28 |    2:58.30   |      109453      |     122832
       9  | 27:17.58 |    3:25.65   |      122833      |     138272
      10  | 30:43.48 |    3:31.47   |      138273      |     154144
      11  | 34:15.20 |    3:43.28   |      154145      |     170897
      12  | 37:58.48 |    3:51.42   |      170898      |     188264
      13  | 41:50.15 |    4:59.33   |      188265      |     210722
      14  | 46:49.48 |    3:46.60   |      210723      |     227732
Трек  1
     Имя файла R:\Раздача 48\VA - Best Of World Hits (The Oldies Collection), vol.3 30 Jahre Super Oldies - 1994\01 Waterloo.wav
     Длина предзазора  0:00:02.33
     Пиковый уровень 98.4 %
     Скорость извлечения 4.5 X
     Качество трека 100.0 %
     CRC теста 66E99016
     CRC копии 66E99016
     Точное извлечение (достоверность 5)  [BDC44954]  (AR v2)
     Копирование... OK
Трек  2
     Имя файла R:\Раздача 48\VA - Best Of World Hits (The Oldies Collection), vol.3 30 Jahre Super Oldies - 1994\02 You're the first, the last, my everything.wav
     Пиковый уровень 98.4 %
     Скорость извлечения 5.3 X
     Качество трека 100.0 %
     CRC теста 2782DB91
     CRC копии 2782DB91
     Точное извлечение (достоверность 5)  [289B6151]  (AR v2)
     Копирование... OK
Трек  3
     Имя файла R:\Раздача 48\VA - Best Of World Hits (The Oldies Collection), vol.3 30 Jahre Super Oldies - 1994\03 Hang on in there baby.wav
     Пиковый уровень 98.4 %
     Скорость извлечения 5.5 X
     Качество трека 100.0 %
     CRC теста AD8B8B3F
     CRC копии AD8B8B3F
     Точное извлечение (достоверность 5)  [FF474FA7]  (AR v2)
     Копирование... OK
Трек  4
     Имя файла R:\Раздача 48\VA - Best Of World Hits (The Oldies Collection), vol.3 30 Jahre Super Oldies - 1994\04 You ain't seen nothin' yet.wav
     Пиковый уровень 98.4 %
     Скорость извлечения 4.1 X
     Качество трека 99.9 %
     CRC теста 5C35F509
     CRC копии 5C35F509
     Точное извлечение (достоверность 5)  [A412DC05]  (AR v2)
     Копирование... OK
Трек  5
     Имя файла R:\Раздача 48\VA - Best Of World Hits (The Oldies Collection), vol.3 30 Jahre Super Oldies - 1994\05 Kung fu fighting.wav
     Пиковый уровень 98.4 %
     Скорость извлечения 4.8 X
     Качество трека 100.0 %
     CRC теста 63CE7F1C
     CRC копии 63CE7F1C
     Точное извлечение (достоверность 5)  [DC506628]  (AR v2)
     Копирование... OK
Трек  6
     Имя файла R:\Раздача 48\VA - Best Of World Hits (The Oldies Collection), vol.3 30 Jahre Super Oldies - 1994\06 Never can say goodbye.wav
     Пиковый уровень 98.4 %
     Скорость извлечения 6.1 X
     Качество трека 100.0 %
     CRC теста E5352C2A
     CRC копии E5352C2A
     Точное извлечение (достоверность 5)  [08DDA641]  (AR v2)
     Копирование... OK
Трек  7
     Имя файла R:\Раздача 48\VA - Best Of World Hits (The Oldies Collection), vol.3 30 Jahre Super Oldies - 1994\07 Love's theme.wav
     Пиковый уровень 98.4 %
     Скорость извлечения 6.7 X
     Качество трека 100.0 %
     CRC теста 96214A04
     CRC копии 96214A04
     Точность не определена (достоверность 5)  [18E98352], AccurateRip вернул [70ABDD3A]  (AR v2)
     Копирование... OK
Трек  8
     Имя файла R:\Раздача 48\VA - Best Of World Hits (The Oldies Collection), vol.3 30 Jahre Super Oldies - 1994\08 I see a star.wav
     Пиковый уровень 98.4 %
     Скорость извлечения 6.7 X
     Качество трека 100.0 %
     CRC теста A1149B64
     CRC копии A1149B64
     Точность не определена (достоверность 5)  [F94CA220], AccurateRip вернул [CF0EED84]  (AR v2)
     Копирование... OK
Трек  9
     Имя файла R:\Раздача 48\VA - Best Of World Hits (The Oldies Collection), vol.3 30 Jahre Super Oldies - 1994\09 Sad sweet dreamer.wav
     Пиковый уровень 98.4 %
     Скорость извлечения 7.1 X
     Качество трека 100.0 %
     CRC теста 40A453B2
     CRC копии 40A453B2
     Точное извлечение (достоверность 5)  [13A4A585]  (AR v2)
     Копирование... OK
Трек 10
     Имя файла R:\Раздача 48\VA - Best Of World Hits (The Oldies Collection), vol.3 30 Jahre Super Oldies - 1994\10 Slip and slide.wav
     Пиковый уровень 98.4 %
     Скорость извлечения 7.3 X
     Качество трека 100.0 %
     CRC теста 31E37822
     CRC копии 31E37822
     Точное извлечение (достоверность 5)  [14F76E66]  (AR v2)
     Копирование... OK
Трек 11
     Имя файла R:\Раздача 48\VA - Best Of World Hits (The Oldies Collection), vol.3 30 Jahre Super Oldies - 1994\11 Shanghai'd in Shanghai.wav
     Пиковый уровень 98.4 %
     Скорость извлечения 7.6 X
     Качество трека 100.0 %
     CRC теста 325C0424
     CRC копии 325C0424
     Точное извлечение (достоверность 5)  [0BB5C773]  (AR v2)
     Копирование... OK
Трек 12
     Имя файла R:\Раздача 48\VA - Best Of World Hits (The Oldies Collection), vol.3 30 Jahre Super Oldies - 1994\12 Down down.wav
     Пиковый уровень 98.4 %
     Скорость извлечения 7.9 X
     Качество трека 100.0 %
     CRC теста 2D7BF761
     CRC копии 2D7BF761
     Точность не определена (достоверность 5)  [15488547], AccurateRip вернул [1971B7A8]  (AR v2)
     Копирование... OK
Трек 13
     Имя файла R:\Раздача 48\VA - Best Of World Hits (The Oldies Collection), vol.3 30 Jahre Super Oldies - 1994\13 I've got the music in me.wav
     Пиковый уровень 98.4 %
     Скорость извлечения 6.1 X
     Качество трека 99.9 %
     CRC теста FEEA0934
     CRC копии FEEA0934
     Точное извлечение (достоверность 5)  [D3F9A563]  (AR v2)
     Копирование... OK
Трек 14
     Имя файла R:\Раздача 48\VA - Best Of World Hits (The Oldies Collection), vol.3 30 Jahre Super Oldies - 1994\14 Central Park arrest.wav
     Пиковый уровень 98.4 %
     Скорость извлечения 8.4 X
     Качество трека 100.0 %
     CRC теста CF7723F0
     CRC копии CF7723F0
     Точное извлечение (достоверность 5)  [7E4C3143]  (AR v2)
     Копирование... OK
11 трек(и) скопированы точно
3 трек(и) не удалось проверить на точность
Некоторые треки не прошли проверку на точность
Ошибок не произошло
Конец отчёта
==== Контрольная сумма отчёта 0D46ACB10EEBDDB6D16DBE14356A652445D89D87A4508DD131E1DE7BA58E5AF7 ====

Содержание индексной карты (.CUE)

REM GENRE Pop
REM DATE 1994
REM DISCID B40BDC0E
REM COMMENT "ExactAudioCopy v1.0b3"
PERFORMER "VA"
TITLE "World Hits 1974"
FILE "01 Waterloo.wav" WAVE
  TRACK 01 AUDIO
    TITLE "Waterloo"
    PERFORMER "Abba"
    ISRC 000000000000
    PREGAP 00:00:33
    INDEX 01 00:00:00
FILE "02 You're the first, the last, my everything.wav" WAVE
  TRACK 02 AUDIO
    TITLE "You're the first, the last, my everything"
    PERFORMER "Barry White"
    ISRC 000000000000
    INDEX 01 00:00:00
FILE "03 Hang on in there baby.wav" WAVE
  TRACK 03 AUDIO
    TITLE "Hang on in there baby"
    PERFORMER "Johnny Bristol"
    ISRC 000000000000
    INDEX 01 00:00:00
FILE "04 You ain't seen nothin' yet.wav" WAVE
  TRACK 04 AUDIO
    TITLE "You ain't seen nothin' yet"
    PERFORMER "Bachman-Turner Overdrive"
    ISRC 000000000000
    INDEX 01 00:00:00
FILE "05 Kung fu fighting.wav" WAVE
  TRACK 05 AUDIO
    TITLE "Kung fu fighting"
    PERFORMER "Carl Douglas"
    ISRC 000000000000
    INDEX 01 00:00:00
FILE "06 Never can say goodbye.wav" WAVE
  TRACK 06 AUDIO
    TITLE "Never can say goodbye"
    PERFORMER "Gloria Gaynor"
    ISRC 000000000000
    INDEX 01 00:00:00
FILE "07 Love's theme.wav" WAVE
  TRACK 07 AUDIO
    TITLE "Love's theme"
    PERFORMER "Love Unlimited Orchestra"
    ISRC 000000000000
    INDEX 01 00:00:00
FILE "08 I see a star.wav" WAVE
  TRACK 08 AUDIO
    TITLE "I see a star"
    PERFORMER "Mouth & MacNeal"
    ISRC 000000000000
    INDEX 01 00:00:00
FILE "09 Sad sweet dreamer.wav" WAVE
  TRACK 09 AUDIO
    TITLE "Sad sweet dreamer"
    PERFORMER "Sweet Sensation"
    ISRC 000000000000
    INDEX 01 00:00:00
FILE "10 Slip and slide.wav" WAVE
  TRACK 10 AUDIO
    TITLE "Slip and slide"
    PERFORMER "Medicine Head"
    ISRC 000000000000
    INDEX 01 00:00:00
FILE "11 Shanghai'd in Shanghai.wav" WAVE
  TRACK 11 AUDIO
    TITLE "Shanghai'd in Shanghai"
    PERFORMER "Nazareth"
    ISRC 000000000000
    INDEX 01 00:00:00
FILE "12 Down down.wav" WAVE
  TRACK 12 AUDIO
    TITLE "Down down"
    PERFORMER "Status Quo"
    ISRC 000000000000
    INDEX 01 00:00:00
FILE "13 I've got the music in me.wav" WAVE
  TRACK 13 AUDIO
    TITLE "I've got the music in me"
    PERFORMER "Kiki Dee"
    ISRC 000000000000
    INDEX 01 00:00:00
FILE "14 Central Park arrest.wav" WAVE
  TRACK 14 AUDIO
    TITLE "Central Park arrest"
    PERFORMER "Thunderthighs"
    ISRC 000000000000
    INDEX 01 00:00:00
[Профиль] [ЛС]

Создавать темы 13-Авг-2015 11:15 (спустя 30 дней)

Топик был перенесен из форума Сборники в форум World Pop
sergej644
 
Показать сообщения:    

Текущее время: Сегодня 17:58

Часовой пояс: GMT



Вы не можете начинать темы
Вы не можете отвечать на сообщения
Вы не можете редактировать свои сообщения
Вы не можете удалять свои сообщения
Вы не можете голосовать в опросах
Вы не можете прикреплять файлы к сообщениям
Вы не можете скачивать файлы