(Pop) VA - Best Of World Hits (The Oldies Collection), vol.2 30 Jahre Super Oldies - 1994, FLAC (tracks+.cue), lossless

 
Автор Сообщение

sergej644 ®

Пол:

Стаж: 4 года 11 месяцев

Сообщений: 6046

Откуда: Soviet Union



Награды: Нет

Торрент-статистика

Создавать темы 14-Июл-2015 04:11

[Цитировать]

Best Of World Hits (The Oldies Collection), vol.2 30 Jahre Super Oldies
Жанр: Pop
Страна-производитель диска (релиза): EC
Год издания: 1994
Издатель (лейбл): PMDC
Номер по каталогу: 550691-2 01
Аудиокодек: FLAC (*.flac)
Тип рипа: tracks+.cue
Битрейт аудио: lossless
Продолжительность: 0:44:26.
Источник (релизер): clustert
Наличие сканов в содержимом раздачи: да

Треклист:
01. Kinks / Sunny afternoon [0:03:33.25]
02. Tom Jones / Green, green grass of home [0:03:05.50]
03. Righteous Brothers / You're my soul and inspiration [0:03:22.60]
04. Troggs / With a girl like you [0:02:08.00]
05. Dusty Springfield / You don't have to say you love me [0:02:50.45]
06. Ester & Abi Ofarim / Nur noch einen Tanz [0:02:56.35]
07. Sandpipers / Guantanamera [0:03:14.22]
08. Georgie Fame / Get away [0:02:33.03]
09. David Garrick / Dear Mrs. Applebee [0:02:15.30]
10. Engelbert / Release me [0:03:20.30]
11. Four Tops / Reach out I'll be there [0:03:00.15]
12. New Vaudeville Band / Winchester cathedral [0:02:26.10]
13. Mindbenders / A groovy kind of love [0:02:00.50]
14. Merseys / Sorrow [0:02:16.00]
15. Overlanders / Michelle [0:02:21.55]
16. Walker Brothers / The sun ain't gonna shine anymore [0:03:01.70]

Лог создания рипа

Exact Audio Copy V1.0 beta 3 from 29. August 2011
Отчёт EAC об извлечении, выполненном 14. июня 2015, 23:19
Various / World Hits 1966
Дисковод: ASUS    DVD-E616A3T   Adapter: 5  ID: 0
Режим чтения                 : Достоверность
Использование точного потока : Да
Отключение кэша аудио        : Да
Использование указателей C2  : Нет
Коррекция смещения при чтении                     : 6
Способность читать области Lead-in и Lead-out     : Нет
Заполнение пропущенных сэмплов тишиной            : Да
Удаление блоков с тишиной в начале и конце        : Нет
При вычислениях CRC использовались нулевые сэмплы : Да
Интерфейс                                         : Встроенный Win32-интерфейс для Win NT/2000
Обработка зазоров                                 : Добавлено к предыдущему треку
Выходной формат          : Пользовательский кодировщик
Выбранный битрейт        : 128 kBit/s
Качество                 : Высокий
Добавление ID3-тега      : Нет
Утилита сжатия           : C:\Program Files\Exact Audio Copy\Flac\flac.exe
Дополнительные параметры :  -V -8 -T "Genre=%genre%" -T "Artist=%artist%" -T "Title=%title%" -T "Album=%albumtitle%" -T "Date=%year%" -T "Tracknumber=%tracknr%" -T "Comment=EAC1.0b2 FLAC -8" %source%
TOC извлечённого CD
     Трек |   Старт  | Длительность | Начальный сектор | Конечный сектор
    ---------------------------------------------------------------------
       1  |  0:00.33 |    3:33.25   |          33      |      16032
       2  |  3:33.58 |    3:05.50   |       16033      |      29957
       3  |  6:39.33 |    3:22.60   |       29958      |      45167
       4  | 10:02.18 |    2:08.00   |       45168      |      54767
       5  | 12:10.18 |    2:50.45   |       54768      |      67562
       6  | 15:00.63 |    2:56.35   |       67563      |      80797
       7  | 17:57.23 |    3:14.22   |       80798      |      95369
       8  | 21:11.45 |    2:33.03   |       95370      |     106847
       9  | 23:44.48 |    2:15.30   |      106848      |     117002
      10  | 26:00.03 |    3:20.30   |      117003      |     132032
      11  | 29:20.33 |    3:00.15   |      132033      |     145547
      12  | 32:20.48 |    2:26.10   |      145548      |     156507
      13  | 34:46.58 |    2:00.50   |      156508      |     165557
      14  | 36:47.33 |    2:16.00   |      165558      |     175757
      15  | 39:03.33 |    2:21.55   |      175758      |     186387
      16  | 41:25.13 |    3:01.70   |      186388      |     200032
Трек  1
     Имя файла R:\Раздача 48\VA - Best Of World Hits (The Oldies Collection), vol.2 30 Jahre Super Oldies - 1994\01 Sunny afternoon.wav
     Длина предзазора  0:00:02.33
     Пиковый уровень 98.4 %
     Скорость извлечения 1.6 X
     Качество трека 100.0 %
     CRC теста 61F907E8
     CRC копии 61F907E8
     Точное извлечение (достоверность 6)  [7B833DE1]  (AR v2)
     Копирование... OK
Трек  2
     Имя файла R:\Раздача 48\VA - Best Of World Hits (The Oldies Collection), vol.2 30 Jahre Super Oldies - 1994\02 Green, green grass of home.wav
     Длина предзазора  0:00:02.00
     Пиковый уровень 98.4 %
     Скорость извлечения 1.7 X
     Качество трека 100.0 %
     CRC теста 722AAE7C
     CRC копии 722AAE7C
     Точное извлечение (достоверность 6)  [5F076D89]  (AR v2)
     Копирование... OK
Трек  3
     Имя файла R:\Раздача 48\VA - Best Of World Hits (The Oldies Collection), vol.2 30 Jahre Super Oldies - 1994\03 You're my soul and inspiration.wav
     Длина предзазора  0:00:02.00
     Пиковый уровень 98.4 %
     Скорость извлечения 1.8 X
     Качество трека 100.0 %
     CRC теста E891F7DA
     CRC копии E891F7DA
     Точное извлечение (достоверность 6)  [AEA2A46E]  (AR v2)
     Копирование... OK
Трек  4
     Имя файла R:\Раздача 48\VA - Best Of World Hits (The Oldies Collection), vol.2 30 Jahre Super Oldies - 1994\04 With a girl like you.wav
     Длина предзазора  0:00:02.00
     Пиковый уровень 98.4 %
     Скорость извлечения 1.7 X
     Качество трека 100.0 %
     CRC теста 5C084559
     CRC копии 5C084559
     Точное извлечение (достоверность 6)  [6BB61F34]  (AR v2)
     Копирование... OK
Трек  5
     Имя файла R:\Раздача 48\VA - Best Of World Hits (The Oldies Collection), vol.2 30 Jahre Super Oldies - 1994\05 You don't have to say you love me.wav
     Длина предзазора  0:00:02.00
     Пиковый уровень 87.2 %
     Скорость извлечения 2.0 X
     Качество трека 100.0 %
     CRC теста 35E8CB5D
     CRC копии 35E8CB5D
     Точное извлечение (достоверность 6)  [6939F33C]  (AR v2)
     Копирование... OK
Трек  6
     Имя файла R:\Раздача 48\VA - Best Of World Hits (The Oldies Collection), vol.2 30 Jahre Super Oldies - 1994\06 Nur noch einen Tanz.wav
     Длина предзазора  0:00:02.00
     Пиковый уровень 98.4 %
     Скорость извлечения 2.1 X
     Качество трека 100.0 %
     CRC теста 0EEC22AC
     CRC копии 0EEC22AC
     Точное извлечение (достоверность 6)  [C3510ACE]  (AR v2)
     Копирование... OK
Трек  7
     Имя файла R:\Раздача 48\VA - Best Of World Hits (The Oldies Collection), vol.2 30 Jahre Super Oldies - 1994\07 Guantanamera.wav
     Длина предзазора  0:00:02.00
     Пиковый уровень 98.4 %
     Скорость извлечения 2.0 X
     Качество трека 100.0 %
     CRC теста 9CC599B3
     CRC копии 9CC599B3
     Точное извлечение (достоверность 6)  [2665222F]  (AR v2)
     Копирование... OK
Трек  8
     Имя файла R:\Раздача 48\VA - Best Of World Hits (The Oldies Collection), vol.2 30 Jahre Super Oldies - 1994\08 Get away.wav
     Длина предзазора  0:00:02.00
     Пиковый уровень 98.4 %
     Скорость извлечения 1.7 X
     Качество трека 99.9 %
     CRC теста DC2DC0F8
     CRC копии DC2DC0F8
     Точное извлечение (достоверность 6)  [02761BE0]  (AR v2)
     Копирование... OK
Трек  9
     Имя файла R:\Раздача 48\VA - Best Of World Hits (The Oldies Collection), vol.2 30 Jahre Super Oldies - 1994\09 Dear Mrs. Applebee.wav
     Длина предзазора  0:00:02.00
     Пиковый уровень 98.4 %
     Скорость извлечения 2.2 X
     Качество трека 100.0 %
     CRC теста C3F3FF1D
     CRC копии C3F3FF1D
     Точное извлечение (достоверность 6)  [5150B00F]  (AR v2)
     Копирование... OK
Трек 10
     Имя файла R:\Раздача 48\VA - Best Of World Hits (The Oldies Collection), vol.2 30 Jahre Super Oldies - 1994\10 Release me.wav
     Длина предзазора  0:00:02.00
     Пиковый уровень 98.4 %
     Скорость извлечения 2.5 X
     Качество трека 100.0 %
     CRC теста B193B037
     CRC копии B193B037
     Точное извлечение (достоверность 6)  [BE10FFA3]  (AR v2)
     Копирование... OK
Трек 11
     Имя файла R:\Раздача 48\VA - Best Of World Hits (The Oldies Collection), vol.2 30 Jahre Super Oldies - 1994\11 Reach out I'll be there.wav
     Длина предзазора  0:00:02.00
     Пиковый уровень 98.1 %
     Скорость извлечения 2.5 X
     Качество трека 100.0 %
     CRC теста 2C17DC81
     CRC копии 2C17DC81
     Точное извлечение (достоверность 6)  [F7503CEC]  (AR v2)
     Копирование... OK
Трек 12
     Имя файла R:\Раздача 48\VA - Best Of World Hits (The Oldies Collection), vol.2 30 Jahre Super Oldies - 1994\12 Winchester cathedral.wav
     Длина предзазора  0:00:02.00
     Пиковый уровень 98.4 %
     Скорость извлечения 2.5 X
     Качество трека 100.0 %
     CRC теста 6BE015FC
     CRC копии 6BE015FC
     Точное извлечение (достоверность 6)  [1658B66F]  (AR v2)
     Копирование... OK
Трек 13
     Имя файла R:\Раздача 48\VA - Best Of World Hits (The Oldies Collection), vol.2 30 Jahre Super Oldies - 1994\13 A groovy kind of love.wav
     Длина предзазора  0:00:02.00
     Пиковый уровень 98.4 %
     Скорость извлечения 2.4 X
     Качество трека 100.0 %
     CRC теста 7A6F3A1F
     CRC копии 7A6F3A1F
     Точное извлечение (достоверность 6)  [C513409F]  (AR v2)
     Копирование... OK
Трек 14
     Имя файла R:\Раздача 48\VA - Best Of World Hits (The Oldies Collection), vol.2 30 Jahre Super Oldies - 1994\14 Sorrow.wav
     Длина предзазора  0:00:02.00
     Пиковый уровень 98.4 %
     Скорость извлечения 2.5 X
     Качество трека 100.0 %
     CRC теста CF1FB409
     CRC копии CF1FB409
     Точное извлечение (достоверность 6)  [9FF8B4B8]  (AR v2)
     Копирование... OK
Трек 15
     Имя файла R:\Раздача 48\VA - Best Of World Hits (The Oldies Collection), vol.2 30 Jahre Super Oldies - 1994\15 Michelle.wav
     Длина предзазора  0:00:02.00
     Пиковый уровень 98.4 %
     Скорость извлечения 2.0 X
     Качество трека 99.9 %
     CRC теста 69AF9421
     CRC копии 69AF9421
     Точное извлечение (достоверность 6)  [C1AC82F6]  (AR v2)
     Копирование... OK
Трек 16
     Имя файла R:\Раздача 48\VA - Best Of World Hits (The Oldies Collection), vol.2 30 Jahre Super Oldies - 1994\16 The sun ain't gonna shine anymore.wav
     Длина предзазора  0:00:02.00
     Пиковый уровень 95.4 %
     Скорость извлечения 2.2 X
     Качество трека 99.9 %
     CRC теста 1EEC6730
     CRC копии 1EEC6730
     Точное извлечение (достоверность 6)  [A2284B87]  (AR v2)
     Копирование... OK
Все треки извлечены точно
Ошибок не произошло
Конец отчёта
==== Контрольная сумма отчёта F147FB7DC714A737EE6A442446368918FA9DE852A6D374D8C7329DAD0F4FBA22 ====

Содержание индексной карты (.CUE)

REM GENRE "Charts  Oldies"
REM DATE 1994
REM DISCID CB0A6B10
REM COMMENT "ExactAudioCopy v1.0b3"
CATALOG 0731455069129
PERFORMER "Various"
TITLE "World Hits 1966"
FILE "01 Sunny afternoon.wav" WAVE
  TRACK 01 AUDIO
    TITLE "Sunny afternoon"
    PERFORMER "Kinks"
    PREGAP 00:00:33
    INDEX 01 00:00:00
  TRACK 02 AUDIO
    TITLE "Green, green grass of home"
    PERFORMER "Tom Jones"
    INDEX 00 03:31:25
FILE "02 Green, green grass of home.wav" WAVE
    INDEX 01 00:00:00
  TRACK 03 AUDIO
    TITLE "You're my soul and inspiration"
    PERFORMER "Righteous Brothers"
    INDEX 00 03:03:50
FILE "03 You're my soul and inspiration.wav" WAVE
    INDEX 01 00:00:00
  TRACK 04 AUDIO
    TITLE "With a girl like you"
    PERFORMER "Troggs"
    INDEX 00 03:20:60
FILE "04 With a girl like you.wav" WAVE
    INDEX 01 00:00:00
  TRACK 05 AUDIO
    TITLE "You don't have to say you love me"
    PERFORMER "Dusty Springfield"
    INDEX 00 02:06:00
FILE "05 You don't have to say you love me.wav" WAVE
    INDEX 01 00:00:00
  TRACK 06 AUDIO
    TITLE "Nur noch einen Tanz"
    PERFORMER "Ester & Abi Ofarim"
    INDEX 00 02:48:45
FILE "06 Nur noch einen Tanz.wav" WAVE
    INDEX 01 00:00:00
  TRACK 07 AUDIO
    TITLE "Guantanamera"
    PERFORMER "Sandpipers"
    INDEX 00 02:54:35
FILE "07 Guantanamera.wav" WAVE
    INDEX 01 00:00:00
  TRACK 08 AUDIO
    TITLE "Get away"
    PERFORMER "Georgie Fame"
    INDEX 00 03:12:22
FILE "08 Get away.wav" WAVE
    INDEX 01 00:00:00
  TRACK 09 AUDIO
    TITLE "Dear Mrs. Applebee"
    PERFORMER "David Garrick"
    INDEX 00 02:31:03
FILE "09 Dear Mrs. Applebee.wav" WAVE
    INDEX 01 00:00:00
  TRACK 10 AUDIO
    TITLE "Release me"
    PERFORMER "Engelbert"
    INDEX 00 02:13:30
FILE "10 Release me.wav" WAVE
    INDEX 01 00:00:00
  TRACK 11 AUDIO
    TITLE "Reach out I'll be there"
    PERFORMER "Four Tops"
    INDEX 00 03:18:30
FILE "11 Reach out I'll be there.wav" WAVE
    INDEX 01 00:00:00
  TRACK 12 AUDIO
    TITLE "Winchester cathedral"
    PERFORMER "New Vaudeville Band"
    INDEX 00 02:58:15
FILE "12 Winchester cathedral.wav" WAVE
    INDEX 01 00:00:00
  TRACK 13 AUDIO
    TITLE "A groovy kind of love"
    PERFORMER "Mindbenders"
    INDEX 00 02:24:10
FILE "13 A groovy kind of love.wav" WAVE
    INDEX 01 00:00:00
  TRACK 14 AUDIO
    TITLE "Sorrow"
    PERFORMER "Merseys"
    INDEX 00 01:58:50
FILE "14 Sorrow.wav" WAVE
    INDEX 01 00:00:00
  TRACK 15 AUDIO
    TITLE "Michelle"
    PERFORMER "Overlanders"
    INDEX 00 02:14:00
FILE "15 Michelle.wav" WAVE
    INDEX 01 00:00:00
  TRACK 16 AUDIO
    TITLE "The sun ain't gonna shine anymore"
    PERFORMER "Walker Brothers"
    INDEX 00 02:19:55
FILE "16 The sun ain't gonna shine anymore.wav" WAVE
    INDEX 01 00:00:00
[Профиль] [ЛС]

Создавать темы 13-Авг-2015 11:15 (спустя 30 дней)

Топик был перенесен из форума Сборники в форум World Pop
sergej644
 
Показать сообщения:    

Текущее время: Сегодня 03:23

Часовой пояс: GMT



Вы не можете начинать темы
Вы не можете отвечать на сообщения
Вы не можете редактировать свои сообщения
Вы не можете удалять свои сообщения
Вы не можете голосовать в опросах
Вы не можете прикреплять файлы к сообщениям
Вы не можете скачивать файлы