(Pop) VA - Best Of World Hits (The Oldies Collection), vol.1 30 Jahre Super Oldies - 1994, FLAC (tracks+.cue), lossless

 
Автор Сообщение

sergej644 ®

Пол:

Стаж: 4 года 11 месяцев

Сообщений: 6041

Откуда: Soviet Union



Награды: Нет

Торрент-статистика

Создавать темы 14-Июл-2015 04:13

[Цитировать]

Best Of World Hits (The Oldies Collection), vol.1 30 Jahre Super Oldies
Жанр: Pop
Страна-производитель диска (релиза): EC
Год издания: 1994
Издатель (лейбл): PMDC
Номер по каталогу: 550683-2 01
Аудиокодек: FLAC (*.flac)
Тип рипа: tracks+.cue
Битрейт аудио: lossless
Продолжительность: 0:44:58.
Источник (релизер): clustert
Наличие сканов в содержимом раздачи: да

Треклист:
01. Conway Twitty / It's only make believe [0:02:14.35]
02. Leo Leandros / Come prima [0:02:06.32]
03. Bert Kaempfert / Mitternachts-Blues [0:02:49.63]
04. Connie Francis / Who's sorry now [0:02:18.62]
05. Merry Miller Singers / The River Kwai march [0:02:22.33]
06. Marvin Rainwater / Whole lotta woman [0:02:36.42]
07. Peter Kraus / Hula Baby [0:02:35.23]
08. Sheb Wooley / Purple people eater [0:02:15.27]
09. Big Bopper / Chantilly lace [0:02:24.73]
10. Danny Mann / Hula hoop [0:02:41.00]
11. Marty Wilde / Endless sleep [0:02:19.60]
12. Shirley Bassey / Kiss me, honey honey, kiss me [0:02:27.10]
13. Ted Heath & His Orchestra / Swingin' shepherd blues [0:02:52.30]
14. Connie Francis / Stupid cupid [0:02:13.20]
15. Platters / Twilight time [0:02:47.15]
16. Shirley Bassey / As I love you [0:02:53.65]
17. Tommy Edwards / It's all in the game [0:02:39.00]
18. James Brothers / When [0:02:20.10]

Лог создания рипа

Exact Audio Copy V1.0 beta 3 from 29. August 2011
Отчёт EAC об извлечении, выполненном 15. июня 2015, 5:34
Various / World Hits 1958
Дисковод: ASUS    DVD-E616A3T   Adapter: 5  ID: 0
Режим чтения                 : Достоверность
Использование точного потока : Да
Отключение кэша аудио        : Да
Использование указателей C2  : Нет
Коррекция смещения при чтении                     : 6
Способность читать области Lead-in и Lead-out     : Нет
Заполнение пропущенных сэмплов тишиной            : Да
Удаление блоков с тишиной в начале и конце        : Нет
При вычислениях CRC использовались нулевые сэмплы : Да
Интерфейс                                         : Встроенный Win32-интерфейс для Win NT/2000
Обработка зазоров                                 : Добавлено к предыдущему треку
Выходной формат          : Пользовательский кодировщик
Выбранный битрейт        : 128 kBit/s
Качество                 : Высокий
Добавление ID3-тега      : Нет
Утилита сжатия           : C:\Program Files\Exact Audio Copy\Flac\flac.exe
Дополнительные параметры :  -V -8 -T "Genre=%genre%" -T "Artist=%artist%" -T "Title=%title%" -T "Album=%albumtitle%" -T "Date=%year%" -T "Tracknumber=%tracknr%" -T "Comment=EAC1.0b2 FLAC -8" %source%
TOC извлечённого CD
     Трек |   Старт  | Длительность | Начальный сектор | Конечный сектор
    ---------------------------------------------------------------------
       1  |  0:00.33 |    2:14.35   |          33      |      10117
       2  |  2:14.68 |    2:06.32   |       10118      |      19599
       3  |  4:21.25 |    2:49.63   |       19600      |      32337
       4  |  7:11.13 |    2:18.62   |       32338      |      42749
       5  |  9:30.00 |    2:22.33   |       42750      |      53432
       6  | 11:52.33 |    2:36.42   |       53433      |      65174
       7  | 14:29.00 |    2:35.23   |       65175      |      76822
       8  | 17:04.23 |    2:15.27   |       76823      |      86974
       9  | 19:19.50 |    2:24.73   |       86975      |      97847
      10  | 21:44.48 |    2:41.00   |       97848      |     109922
      11  | 24:25.48 |    2:19.60   |      109923      |     120407
      12  | 26:45.33 |    2:27.10   |      120408      |     131442
      13  | 29:12.43 |    2:52.30   |      131443      |     144372
      14  | 32:04.73 |    2:13.20   |      144373      |     154367
      15  | 34:18.18 |    2:47.15   |      154368      |     166907
      16  | 37:05.33 |    2:53.65   |      166908      |     179947
      17  | 39:59.23 |    2:39.00   |      179948      |     191872
      18  | 42:38.23 |    2:20.10   |      191873      |     202382
Трек  1
     Имя файла R:\Раздача 48\VA - Best Of World Hits (The Oldies Collection), vol.1 30 Jahre Super Oldies - 1994\01 It's only make believe.wav
     Длина предзазора  0:00:02.33
     Пиковый уровень 98.4 %
     Скорость извлечения 1.2 X
     Качество трека 99.9 %
     CRC теста D586EAC6
     CRC копии D586EAC6
     Точное извлечение (достоверность 5)  [CA3594EE]  (AR v2)
     Копирование... OK
Трек  2
     Имя файла R:\Раздача 48\VA - Best Of World Hits (The Oldies Collection), vol.1 30 Jahre Super Oldies - 1994\02 Come prima.wav
     Длина предзазора  0:00:02.00
     Пиковый уровень 98.4 %
     Скорость извлечения 1.5 X
     Качество трека 100.0 %
     CRC теста CB45E153
     CRC копии CB45E153
     Точное извлечение (достоверность 5)  [727A279E]  (AR v2)
     Копирование... OK
Трек  3
     Имя файла R:\Раздача 48\VA - Best Of World Hits (The Oldies Collection), vol.1 30 Jahre Super Oldies - 1994\03 Mitternachts-Blues.wav
     Длина предзазора  0:00:02.00
     Пиковый уровень 98.4 %
     Скорость извлечения 1.7 X
     Качество трека 100.0 %
     CRC теста 3EE66877
     CRC копии 3EE66877
     Точное извлечение (достоверность 5)  [4A250527]  (AR v2)
     Копирование... OK
Трек  4
     Имя файла R:\Раздача 48\VA - Best Of World Hits (The Oldies Collection), vol.1 30 Jahre Super Oldies - 1994\04 Who's sorry now.wav
     Длина предзазора  0:00:02.00
     Пиковый уровень 98.4 %
     Скорость извлечения 1.7 X
     Качество трека 100.0 %
     CRC теста 502E0347
     CRC копии 502E0347
     Точное извлечение (достоверность 5)  [F475DB9B]  (AR v2)
     Копирование... OK
Трек  5
     Имя файла R:\Раздача 48\VA - Best Of World Hits (The Oldies Collection), vol.1 30 Jahre Super Oldies - 1994\05 The River Kwai march.wav
     Длина предзазора  0:00:02.00
     Пиковый уровень 98.4 %
     Скорость извлечения 1.5 X
     Качество трека 99.9 %
     CRC теста D3B3432D
     CRC копии D3B3432D
     Точное извлечение (достоверность 5)  [E974EF56]  (AR v2)
     Копирование... OK
Трек  6
     Имя файла R:\Раздача 48\VA - Best Of World Hits (The Oldies Collection), vol.1 30 Jahre Super Oldies - 1994\06 Whole lotta woman.wav
     Длина предзазора  0:00:02.00
     Пиковый уровень 98.4 %
     Скорость извлечения 1.9 X
     Качество трека 100.0 %
     CRC теста 280D5338
     CRC копии 280D5338
     Точное извлечение (достоверность 5)  [20332C81]  (AR v2)
     Копирование... OK
Трек  7
     Имя файла R:\Раздача 48\VA - Best Of World Hits (The Oldies Collection), vol.1 30 Jahre Super Oldies - 1994\07 Hula Baby.wav
     Длина предзазора  0:00:02.00
     Пиковый уровень 98.4 %
     Скорость извлечения 2.0 X
     Качество трека 100.0 %
     CRC теста 29FA85B3
     CRC копии 29FA85B3
     Точное извлечение (достоверность 5)  [8A0681F6]  (AR v2)
     Копирование... OK
Трек  8
     Имя файла R:\Раздача 48\VA - Best Of World Hits (The Oldies Collection), vol.1 30 Jahre Super Oldies - 1994\08 Purple people eater.wav
     Длина предзазора  0:00:02.00
     Пиковый уровень 98.4 %
     Скорость извлечения 2.0 X
     Качество трека 100.0 %
     CRC теста 89A81E2F
     CRC копии 89A81E2F
     Точное извлечение (достоверность 5)  [75D20C8D]  (AR v2)
     Копирование... OK
Трек  9
     Имя файла R:\Раздача 48\VA - Best Of World Hits (The Oldies Collection), vol.1 30 Jahre Super Oldies - 1994\09 Chantilly lace.wav
     Длина предзазора  0:00:02.00
     Пиковый уровень 98.4 %
     Скорость извлечения 2.1 X
     Качество трека 100.0 %
     CRC теста 15FCC377
     CRC копии 15FCC377
     Точное извлечение (достоверность 5)  [841DC6F3]  (AR v2)
     Копирование... OK
Трек 10
     Имя файла R:\Раздача 48\VA - Best Of World Hits (The Oldies Collection), vol.1 30 Jahre Super Oldies - 1994\10 Hula hoop.wav
     Длина предзазора  0:00:02.00
     Пиковый уровень 98.4 %
     Скорость извлечения 1.8 X
     Качество трека 99.9 %
     CRC теста 370EB0EA
     CRC копии 370EB0EA
     Точное извлечение (достоверность 5)  [30F7F8AD]  (AR v2)
     Копирование... OK
Трек 11
     Имя файла R:\Раздача 48\VA - Best Of World Hits (The Oldies Collection), vol.1 30 Jahre Super Oldies - 1994\11 Endless sleep.wav
     Длина предзазора  0:00:02.00
     Пиковый уровень 95.4 %
     Скорость извлечения 1.7 X
     Качество трека 99.9 %
     CRC теста 2A3426B1
     CRC копии 2A3426B1
     Точное извлечение (достоверность 5)  [DCF024E9]  (AR v2)
     Копирование... OK
Трек 12
     Имя файла R:\Раздача 48\VA - Best Of World Hits (The Oldies Collection), vol.1 30 Jahre Super Oldies - 1994\12 Kiss me, honey honey, kiss me.wav
     Длина предзазора  0:00:02.00
     Пиковый уровень 98.4 %
     Скорость извлечения 2.3 X
     Качество трека 100.0 %
     CRC теста 299EAE74
     CRC копии 299EAE74
     Точное извлечение (достоверность 5)  [1C3F52C8]  (AR v2)
     Копирование... OK
Трек 13
     Имя файла R:\Раздача 48\VA - Best Of World Hits (The Oldies Collection), vol.1 30 Jahre Super Oldies - 1994\13 Swingin' shepherd blues.wav
     Длина предзазора  0:00:02.00
     Пиковый уровень 98.4 %
     Скорость извлечения 2.5 X
     Качество трека 100.0 %
     CRC теста 29A4540A
     CRC копии 29A4540A
     Точное извлечение (достоверность 5)  [42EEF92A]  (AR v2)
     Копирование... OK
Трек 14
     Имя файла R:\Раздача 48\VA - Best Of World Hits (The Oldies Collection), vol.1 30 Jahre Super Oldies - 1994\14 Stupid cupid.wav
     Длина предзазора  0:00:02.00
     Пиковый уровень 98.4 %
     Скорость извлечения 2.4 X
     Качество трека 100.0 %
     CRC теста D3AC3979
     CRC копии D3AC3979
     Точное извлечение (достоверность 5)  [735C6D15]  (AR v2)
     Копирование... OK
Трек 15
     Имя файла R:\Раздача 48\VA - Best Of World Hits (The Oldies Collection), vol.1 30 Jahre Super Oldies - 1994\15 Twilight time.wav
     Длина предзазора  0:00:02.00
     Пиковый уровень 98.4 %
     Скорость извлечения 2.6 X
     Качество трека 100.0 %
     CRC теста C96BB746
     CRC копии C96BB746
     Точное извлечение (достоверность 5)  [04B0A524]  (AR v2)
     Копирование... OK
Трек 16
     Имя файла R:\Раздача 48\VA - Best Of World Hits (The Oldies Collection), vol.1 30 Jahre Super Oldies - 1994\16 As I love you.wav
     Длина предзазора  0:00:02.00
     Пиковый уровень 98.4 %
     Скорость извлечения 2.7 X
     Качество трека 100.0 %
     CRC теста 2445C743
     CRC копии 2445C743
     Точное извлечение (достоверность 5)  [79B9C8BB]  (AR v2)
     Копирование... OK
Трек 17
     Имя файла R:\Раздача 48\VA - Best Of World Hits (The Oldies Collection), vol.1 30 Jahre Super Oldies - 1994\17 It's all in the game.wav
     Длина предзазора  0:00:02.00
     Пиковый уровень 98.4 %
     Скорость извлечения 2.1 X
     Качество трека 99.9 %
     CRC теста 156226B7
     CRC копии 156226B7
     Точное извлечение (достоверность 5)  [AF628CBA]  (AR v2)
     Копирование... OK
Трек 18
     Имя файла R:\Раздача 48\VA - Best Of World Hits (The Oldies Collection), vol.1 30 Jahre Super Oldies - 1994\18 When.wav
     Длина предзазора  0:00:02.00
     Пиковый уровень 98.4 %
     Скорость извлечения 2.6 X
     Качество трека 100.0 %
     CRC теста F0A8334C
     CRC копии F0A8334C
     Точное извлечение (достоверность 5)  [90582AC1]  (AR v2)
     Копирование... OK
Все треки извлечены точно
Ошибок не произошло
Конец отчёта
==== Контрольная сумма отчёта 3957E991C9768B21A305BD179D9C18C5BBA110639C9AD4E49C8A573668ECFD4C ====

Содержание индексной карты (.CUE)

REM GENRE Pop
REM DATE 1994
REM DISCID D30A8A12
REM COMMENT "ExactAudioCopy v1.0b3"
CATALOG 0731455068320
PERFORMER "Various"
TITLE "World Hits 1958"
FILE "01 It's only make believe.wav" WAVE
  TRACK 01 AUDIO
    TITLE "It's only make believe"
    PERFORMER "Conway Twitty"
    PREGAP 00:00:33
    INDEX 01 00:00:00
  TRACK 02 AUDIO
    TITLE "Come prima"
    PERFORMER "Leo Leandros"
    ISRC DEF075803240
    INDEX 00 02:12:35
FILE "02 Come prima.wav" WAVE
    INDEX 01 00:00:00
  TRACK 03 AUDIO
    TITLE "Mitternachts-Blues"
    PERFORMER "Bert Kaempfert"
    ISRC DEF065804190
    INDEX 00 02:04:32
FILE "03 Mitternachts-Blues.wav" WAVE
    INDEX 01 00:00:00
  TRACK 04 AUDIO
    TITLE "Who's sorry now"
    PERFORMER "Connie Francis"
    INDEX 00 02:47:63
FILE "04 Who's sorry now.wav" WAVE
    INDEX 01 00:00:00
  TRACK 05 AUDIO
    TITLE "The River Kwai march"
    PERFORMER "Merry Miller Singers"
    ISRC DEF076304770
    INDEX 00 02:16:62
FILE "05 The River Kwai march.wav" WAVE
    INDEX 01 00:00:00
  TRACK 06 AUDIO
    TITLE "Whole lotta woman"
    PERFORMER "Marvin Rainwater"
    INDEX 00 02:20:33
FILE "06 Whole lotta woman.wav" WAVE
    INDEX 01 00:00:00
  TRACK 07 AUDIO
    TITLE "Hula Baby"
    PERFORMER "Peter Kraus"
    ISRC DEF066310270
    INDEX 00 02:34:42
FILE "07 Hula Baby.wav" WAVE
    INDEX 01 00:00:00
  TRACK 08 AUDIO
    TITLE "Purple people eater"
    PERFORMER "Sheb Wooley"
    INDEX 00 02:33:23
FILE "08 Purple people eater.wav" WAVE
    INDEX 01 00:00:00
  TRACK 09 AUDIO
    TITLE "Chantilly lace"
    PERFORMER "Big Bopper"
    INDEX 00 02:13:27
FILE "09 Chantilly lace.wav" WAVE
    INDEX 01 00:00:00
  TRACK 10 AUDIO
    TITLE "Hula hoop"
    PERFORMER "Danny Mann"
    INDEX 00 02:22:73
FILE "10 Hula hoop.wav" WAVE
    INDEX 01 00:00:00
  TRACK 11 AUDIO
    TITLE "Endless sleep"
    PERFORMER "Marty Wilde"
    INDEX 00 02:39:00
FILE "11 Endless sleep.wav" WAVE
    INDEX 01 00:00:00
  TRACK 12 AUDIO
    TITLE "Kiss me, honey honey, kiss me"
    PERFORMER "Shirley Bassey"
    INDEX 00 02:17:60
FILE "12 Kiss me, honey honey, kiss me.wav" WAVE
    INDEX 01 00:00:00
  TRACK 13 AUDIO
    TITLE "Swingin' shepherd blues"
    PERFORMER "Ted Heath & His Orchestra"
    INDEX 00 02:25:10
FILE "13 Swingin' shepherd blues.wav" WAVE
    INDEX 01 00:00:00
  TRACK 14 AUDIO
    TITLE "Stupid cupid"
    PERFORMER "Connie Francis"
    INDEX 00 02:50:30
FILE "14 Stupid cupid.wav" WAVE
    INDEX 01 00:00:00
  TRACK 15 AUDIO
    TITLE "Twilight time"
    PERFORMER "Platters"
    INDEX 00 02:11:20
FILE "15 Twilight time.wav" WAVE
    INDEX 01 00:00:00
  TRACK 16 AUDIO
    TITLE "As I love you"
    PERFORMER "Shirley Bassey"
    INDEX 00 02:45:15
FILE "16 As I love you.wav" WAVE
    INDEX 01 00:00:00
  TRACK 17 AUDIO
    TITLE "It's all in the game"
    PERFORMER "Tommy Edwards"
    INDEX 00 02:51:65
FILE "17 It's all in the game.wav" WAVE
    INDEX 01 00:00:00
  TRACK 18 AUDIO
    TITLE "When"
    PERFORMER "James Brothers"
    INDEX 00 02:37:00
FILE "18 When.wav" WAVE
    INDEX 01 00:00:00
[Профиль] [ЛС]

Создавать темы 13-Авг-2015 11:15 (спустя 30 дней)

Топик был перенесен из форума Сборники в форум World Pop
sergej644
 
Показать сообщения:    

Текущее время: Сегодня 18:55

Часовой пояс: GMT



Вы не можете начинать темы
Вы не можете отвечать на сообщения
Вы не можете редактировать свои сообщения
Вы не можете удалять свои сообщения
Вы не можете голосовать в опросах
Вы не можете прикреплять файлы к сообщениям
Вы не можете скачивать файлы