(Rock)VA - Best Of Rock (2005) 3CD [FLAC (tracks+cue),Lossless]

 
Автор Сообщение

sergej644 ®

Пол:

Стаж: 4 года 11 месяцев

Сообщений: 6041

Откуда: Soviet Union



Награды: Нет

Торрент-статистика

Создавать темы 24-Дек-2014 09:29

[Цитировать]

-VA - Best Of Rock (2005)- Год: 2005
Жанр: Rock
Продолжительность: 03:17:47
Лейбл: Warner Music Group Germany Holding GmbH
Каталог: 5050467-7598-2-4
Кодек: FLAC (tracks+.cue +log)
Битрейт: Lossless

CD 1

Треклист:
01. Golden Earring - Radar Love (5:06)
02. Free - All Right Now (5:34)
03. The Spencer Davis Group - Keep On Runnings (2:46)
04. Nazareth - This Flight Tonight (3:22)
05. The Hollies - Long Cool Woman In A Black Dress (3:16)
06. Shocking Blue - Venus (3:02)
07. Bachman-Turner Overdrive - You Ain't Seen Nothing Yet (3:39)
08. Boston - More Than A Feeling (4:47)
09. Thin Lizzy - Whiskey In The Jar (5:44)
10. The Knack - My Sharona (4:03)
11. Mike Oldfield Feat. Roger Chapman - Shadow In The Wall (5:09)
12. Status Quo - Rockin' All Over The World (3:38)
13. Jethro Tull - Locomotive Breath (4:31)
14. Canned Heat - Let's Work Together (3:12)
15. The Guess Who - American Woman (5:06)
16. J.J.Cale - Cocaine (2:54)
Продолжительность – 01:05:50

Отчёт ЕАС:

Exact Audio Copy V1.0 beta 2 from 29. April 2011
EAC extraction logfile from 25. July 2011, 15:46
Various / Best Of Rock  (CD 1)
Used drive  : PIONEER DVD-RW  DVR-216L   Adapter: 2  ID: 1
Read mode               : Secure
Utilize accurate stream : Yes
Defeat audio cache      : Yes
Make use of C2 pointers : No
Read offset correction                      : 96
Overread into Lead-In and Lead-Out          : No
Fill up missing offset samples with silence : Yes
Delete leading and trailing silent blocks   : No
Null samples used in CRC calculations       : Yes
Used interface                              : Native Win32 interface for Win NT & 2000
Gap handling                                : Appended to previous track
Used output format              : User Defined Encoder
Selected bitrate                : 1024 kBit/s
Quality                         : High
Add ID3 tag                     : No
Command line compressor         : C:\Program Files (x86)\FLAC\flac.exe
Additional command line options : -8 -V -T "ARTIST=%artist%" -T "TITLE=%title%" -T "ALBUM=%albumtitle%" -T "DATE=%year%" -T "TRACKNUMBER=%tracknr%" -T "GENRE=%genre%" -T "PERFORMER=%albuminterpret%" -T "COMPOSER=%composer%" %haslyrics%--tag-from-file=LYRICS
TOC of the extracted CD
     Track |   Start  |  Length  | Start sector | End sector
    ---------------------------------------------------------
        1  |  0:00.00 |  5:05.43 |         0    |    22917
        2  |  5:05.43 |  5:34.13 |     22918    |    47980
        3  | 10:39.56 |  2:46.34 |     47981    |    60464
        4  | 13:26.15 |  3:22.28 |     60465    |    75642
        5  | 16:48.43 |  3:16.30 |     75643    |    90372
        6  | 20:04.73 |  3:01.52 |     90373    |   103999
        7  | 23:06.50 |  3:39.22 |    104000    |   120446
        8  | 26:45.72 |  4:47.22 |    120447    |   141993
        9  | 31:33.19 |  5:44.23 |    141994    |   167816
       10  | 37:17.42 |  4:02.44 |    167817    |   186010
       11  | 41:20.11 |  5:08.65 |    186011    |   209175
       12  | 46:29.01 |  3:37.40 |    209176    |   225490
       13  | 50:06.41 |  4:31.12 |    225491    |   245827
       14  | 54:37.53 |  3:12.32 |    245828    |   260259
       15  | 57:50.10 |  5:05.69 |    260260    |   283203
       16  | 62:56.04 |  2:54.30 |    283204    |   296283
Track  1
     Filename E:\CD\BEST OF ROCK\BEST OF ROCK CD1\01. Golden Earring - Radar Love.wav
     Pre-gap length  0:00:02.00
     Peak level 74.9 %
     Extraction speed 5.0 X
     Track quality 100.0 %
     Test CRC 93AF68CA
     Copy CRC 93AF68CA
     Accurately ripped (confidence 3)  [CDE307FC]  (AR v2)
     Copy OK
Track  2
     Filename E:\CD\BEST OF ROCK\BEST OF ROCK CD1\02. Free - All Right Now.wav
     Pre-gap length  0:00:01.58
     Peak level 100.0 %
     Extraction speed 5.7 X
     Track quality 100.0 %
     Test CRC 8EC9FE6C
     Copy CRC 8EC9FE6C
     Accurately ripped (confidence 3)  [18608315]  (AR v2)
     Copy OK
Track  3
     Filename E:\CD\BEST OF ROCK\BEST OF ROCK CD1\03. The Spencer Davis Group - Keep On Runnings.wav
     Pre-gap length  0:00:01.58
     Peak level 79.4 %
     Extraction speed 5.5 X
     Track quality 100.0 %
     Test CRC CBF1A886
     Copy CRC CBF1A886
     Accurately ripped (confidence 3)  [BE117D12]  (AR v2)
     Copy OK
Track  4
     Filename E:\CD\BEST OF ROCK\BEST OF ROCK CD1\04. Nazareth - This Flight Tonight.wav
     Pre-gap length  0:00:01.58
     Peak level 100.0 %
     Extraction speed 6.0 X
     Track quality 100.0 %
     Test CRC 94EEB418
     Copy CRC 94EEB418
     Accurately ripped (confidence 3)  [59D7B620]  (AR v2)
     Copy OK
Track  5
     Filename E:\CD\BEST OF ROCK\BEST OF ROCK CD1\05. The Hollies - Long Cool Woman In A Black Dress.wav
     Pre-gap length  0:00:01.58
     Peak level 82.5 %
     Extraction speed 6.2 X
     Track quality 100.0 %
     Test CRC 5056E9B4
     Copy CRC 5056E9B4
     Accurately ripped (confidence 3)  [82474ECE]  (AR v2)
     Copy OK
Track  6
     Filename E:\CD\BEST OF ROCK\BEST OF ROCK CD1\06. Shocking Blue - Venus.wav
     Pre-gap length  0:00:01.58
     Peak level 79.4 %
     Extraction speed 6.4 X
     Track quality 100.0 %
     Test CRC DC601A91
     Copy CRC DC601A91
     Accurately ripped (confidence 3)  [889A60F6]  (AR v2)
     Copy OK
Track  7
     Filename E:\CD\BEST OF ROCK\BEST OF ROCK CD1\07. Bachman-Turner Overdrive - You Ain't Seen Nothing Yet.wav
     Pre-gap length  0:00:01.58
     Peak level 99.0 %
     Extraction speed 6.9 X
     Track quality 100.0 %
     Test CRC 5FBF7FED
     Copy CRC 5FBF7FED
     Accurately ripped (confidence 3)  [C71DF343]  (AR v2)
     Copy OK
Track  8
     Filename E:\CD\BEST OF ROCK\BEST OF ROCK CD1\08. Boston - More Than A Feeling.wav
     Pre-gap length  0:00:01.58
     Peak level 74.4 %
     Extraction speed 7.4 X
     Track quality 100.0 %
     Test CRC 064B1B34
     Copy CRC 064B1B34
     Accurately ripped (confidence 3)  [025650C1]  (AR v2)
     Copy OK
Track  9
     Filename E:\CD\BEST OF ROCK\BEST OF ROCK CD1\09. Thin Lizzy - Whiskey In The Jar.wav
     Pre-gap length  0:00:01.58
     Peak level 77.8 %
     Extraction speed 7.3 X
     Track quality 99.9 %
     Test CRC F0BBCCF8
     Copy CRC F0BBCCF8
     Accurately ripped (confidence 3)  [3056B750]  (AR v2)
     Copy OK
Track 10
     Filename E:\CD\BEST OF ROCK\BEST OF ROCK CD1\10. The Knack - My Sharona.wav
     Pre-gap length  0:00:01.58
     Peak level 73.2 %
     Extraction speed 7.9 X
     Track quality 100.0 %
     Test CRC 255F70B1
     Copy CRC 255F70B1
     Accurately ripped (confidence 3)  [9ABDEAAC]  (AR v2)
     Copy OK
Track 11
     Filename E:\CD\BEST OF ROCK\BEST OF ROCK CD1\11. Mike Oldfield Feat. Roger Chapman - Shadow In The Wall.wav
     Pre-gap length  0:00:01.58
     Peak level 87.6 %
     Extraction speed 8.4 X
     Track quality 100.0 %
     Test CRC 722D4931
     Copy CRC 722D4931
     Accurately ripped (confidence 3)  [CF959C1C]  (AR v2)
     Copy OK
Track 12
     Filename E:\CD\BEST OF ROCK\BEST OF ROCK CD1\12. Status Quo - Rockin' All Over The World.wav
     Pre-gap length  0:00:01.58
     Peak level 77.8 %
     Extraction speed 8.2 X
     Track quality 100.0 %
     Test CRC 237EB145
     Copy CRC 237EB145
     Accurately ripped (confidence 3)  [AA5B0B26]  (AR v2)
     Copy OK
Track 13
     Filename E:\CD\BEST OF ROCK\BEST OF ROCK CD1\13. Jethro Tull - Locomotive Breath.wav
     Pre-gap length  0:00:01.58
     Peak level 77.8 %
     Extraction speed 8.8 X
     Track quality 100.0 %
     Test CRC FD3F4389
     Copy CRC FD3F4389
     Accurately ripped (confidence 3)  [656FA4C6]  (AR v2)
     Copy OK
Track 14
     Filename E:\CD\BEST OF ROCK\BEST OF ROCK CD1\14. Canned Heat - Let's Work Together.wav
     Pre-gap length  0:00:01.58
     Peak level 100.0 %
     Extraction speed 8.5 X
     Track quality 100.0 %
     Test CRC 39390450
     Copy CRC 39390450
     Accurately ripped (confidence 3)  [705865C5]  (AR v2)
     Copy OK
Track 15
     Filename E:\CD\BEST OF ROCK\BEST OF ROCK CD1\15. The Guess Who - American Woman.wav
     Pre-gap length  0:00:01.58
     Peak level 99.7 %
     Extraction speed 9.3 X
     Track quality 100.0 %
     Test CRC C72AA315
     Copy CRC C72AA315
     Accurately ripped (confidence 3)  [7C52F0EE]  (AR v2)
     Copy OK
Track 16
     Filename E:\CD\BEST OF ROCK\BEST OF ROCK CD1\16. J.J.Cale - Cocaine.wav
     Pre-gap length  0:00:01.58
     Peak level 100.0 %
     Extraction speed 8.7 X
     Track quality 100.0 %
     Test CRC CC510931
     Copy CRC CC510931
     Accurately ripped (confidence 3)  [E33BF8BA]  (AR v2)
     Copy OK
All tracks accurately ripped
No errors occurred
End of status report
==== Log checksum C399FFD3A588E76D3B02342A7604D12E1DD0C28263BD5012A0AB6BCA79FFE68F ====

Отчёт auCDtect:

-----------------------
DON'T MODIFY THIS FILE
-----------------------
PERFORMER: auCDtect Task Manager, ver. 1.5.1RC6 build 1.5.1.7
Copyright (c) 2008-2010 y-soft. All rights reserved
http://y-soft.org
ANALYZER: auCDtect: CD records authenticity detector, version 0.8.2
Copyright (c) 2004 Oleg Berngardt. All rights reserved.
Copyright (c) 2004 Alexander Djourik. All rights reserved.
FILE: 16. J.J.Cale - Cocaine.flac
  Size: 17942134 Hash: 0C57E42A9F21CFAF287C60124AFA82A1 Accuracy: -m8
  Conclusion: CDDA 100%
  Signature: 2E8042170A4306292C87D50DCCDB59063EFD64C8
FILE: 15. The Guess Who - American Woman.flac
  Size: 33415345 Hash: 6FB8E2E1A0B4E1F52526AC4617980896 Accuracy: -m8
  Conclusion: CDDA 100%
  Signature: 17F28F761AA41A0DBC12B0CC170DE9DF2E490AE0
FILE: 14. Canned Heat - Let's Work Together.flac
  Size: 22056240 Hash: C0CABC5E1FB392DE3F61C11C763E4F67 Accuracy: -m8
  Conclusion: CDDA 100%
  Signature: 54E99C4061CF8BF989FF4BA96AACE33B5CEA4531
FILE: 13. Jethro Tull - Locomotive Breath.flac
  Size: 26454511 Hash: D51627873D16D1BD664D9AC6251D530C Accuracy: -m8
  Conclusion: CDDA 100%
  Signature: FC2DE82A216D7DC6096BBD5BF3027A028AD28179
FILE: 12. Status Quo - Rockin' All Over The World.flac
  Size: 25319182 Hash: 865A4E2D14BF27DC2C1A2CD8EC40D77D Accuracy: -m8
  Conclusion: CDDA 100%
  Signature: 52002E449473E42BA96DE6783929E9FB29425CEE
FILE: 11. Mike Oldfield Feat. Roger Chapman - Shadow In The Wall.flac
  Size: 33512411 Hash: 6DBFAD362734B3B286A0EE332C73DD78 Accuracy: -m8
  Conclusion: CDDA 100%
  Signature: 8913D36CAB178B4002AF152DFCFEA4781088BC23
FILE: 10. The Knack - My Sharona.flac
  Size: 27431935 Hash: F89D4CF588BB72146BD068AC9AB45F8A Accuracy: -m8
  Conclusion: CDDA 100%
  Signature: 15440C2789D8569B85443DAE56EF8818DFEF1760
FILE: 09. Thin Lizzy - Whiskey In The Jar.flac
  Size: 38773866 Hash: 14F4AAA9163979FCB56533A39D27BCD7 Accuracy: -m8
  Conclusion: CDDA 100%
  Signature: D724E2693DFF11FCCB75823A2309BF96B8AC1F1C
FILE: 08. Boston - More Than A Feeling.flac
  Size: 34709734 Hash: A638CE6E20349D6ADE8A53D0F85A4430 Accuracy: -m8
  Conclusion: CDDA 100%
  Signature: F5E25B1FCB1B8E8E07233C79EEBD40DA7D2BB8FE
FILE: 07. Bachman-Turner Overdrive - You Ain't Seen Nothing Yet.flac
  Size: 27144031 Hash: B0CF24D76B0AD243C9E6938C25A69571 Accuracy: -m8
  Conclusion: CDDA 100%
  Signature: DBC917659518F1BD7F4FEF95B899DCB7BE6A1356
FILE: 06. Shocking Blue - Venus.flac
  Size: 19596246 Hash: 77628A931C411A8BAA14B6183B127F32 Accuracy: -m8
  Conclusion: CDDA 100%
  Signature: BBF022562CE74091A1DB073AADD6305B2B6719C9
FILE: 05. The Hollies - Long Cool Woman In A Black Dress.flac
  Size: 19296914 Hash: DEFFFAA835135B338EF36B3A67796360 Accuracy: -m8
  Conclusion: CDDA 99%
  Signature: B506A6DA2B2BB0089A8571D6FC130ED1B624B67B
FILE: 04. Nazareth - This Flight Tonight.flac
  Size: 21419078 Hash: CD5677D26260D40B834CA9A467FE0E66 Accuracy: -m8
  Conclusion: CDDA 100%
  Signature: 3F40190CC148CF5E2103B7B66345DD9F18A1DDC4
FILE: 03. The Spencer Davis Group - Keep On Runnings.flac
  Size: 11241163 Hash: DAA1A43B1225DE76076867DACA189500 Accuracy: -m8
  Conclusion: CDDA 100%
  Signature: DCD28622290A639345343014DA6A4BF18DFA15F1
FILE: 02. Free - All Right Now.flac
  Size: 32114964 Hash: 3B7DEC75AA2DF85950ED27DCA565F349 Accuracy: -m8
  Conclusion: CDDA 100%
  Signature: 374DE9A6C39755CFC63B5719ED475630E77B21ED
FILE: 01. Golden Earring - Radar Love.flac
  Size: 32075140 Hash: 0B064CE40837C85FC1221635AB048549 Accuracy: -m8
  Conclusion: CDDA 100%
  Signature: 375DCED84C5F41A6459ECCFF99B0627A5F5D0ED0

CD 2

Треклист:
01. John Farnham - You're The Voice (5:05)
02. Foreigner - Urgent (4:30)
03. Lou Gramm - Midnight Blues (3:56)
04. Yes - Owner Of A Lonely Heart (4:28)
05. Huey Lewis & The News - I Want A New Drug (3:32)
06. Toto - Hold The Line (3:33)
07. The Cars - You Might Think (3:05)
08. Bonnie Tyler - Holding Out For A Hero (5:51)
09. Chris Rea - The Road To Hell (4:31)
10. Sisters Of Merci - Temple Of Love (4:40)
11. Motley Crue - Piece Of Your Action (4:41)
12. Helen Schneider - Rock'N'Roll Gypsy (5:22)
13. Gary Moore - Walking By Myself (2:57)
14. ZZ Top - Gimme All Your Lovin' (4:00)
15. Gerogia Satellites - Keep Your Hands To Yourself (3:27)
16. Europe - The Final Countdown (5:11)
Продолжительность – 01:08:49

Отчёт ЕАС:

Exact Audio Copy V1.0 beta 2 from 29. April 2011
EAC extraction logfile from 25. July 2011, 17:07
Various / Best Of Rock  (CD 2)
Used drive  : PIONEER DVD-RW  DVR-216L   Adapter: 2  ID: 1
Read mode               : Secure
Utilize accurate stream : Yes
Defeat audio cache      : Yes
Make use of C2 pointers : No
Read offset correction                      : 96
Overread into Lead-In and Lead-Out          : No
Fill up missing offset samples with silence : Yes
Delete leading and trailing silent blocks   : No
Null samples used in CRC calculations       : Yes
Used interface                              : Native Win32 interface for Win NT & 2000
Gap handling                                : Appended to previous track
Used output format              : User Defined Encoder
Selected bitrate                : 1024 kBit/s
Quality                         : High
Add ID3 tag                     : No
Command line compressor         : C:\Program Files (x86)\FLAC\flac.exe
Additional command line options : -8 -V -T "ARTIST=%artist%" -T "TITLE=%title%" -T "ALBUM=%albumtitle%" -T "DATE=%year%" -T "TRACKNUMBER=%tracknr%" -T "GENRE=%genre%" -T "PERFORMER=%albuminterpret%" -T "COMPOSER=%composer%" %haslyrics%--tag-from-file=LYRICS
TOC of the extracted CD
     Track |   Start  |  Length  | Start sector | End sector
    ---------------------------------------------------------
        1  |  0:00.00 |  5:04.64 |         0    |    22863
        2  |  5:04.64 |  4:30.22 |     22864    |    43135
        3  |  9:35.11 |  3:56.07 |     43136    |    60842
        4  | 13:31.18 |  4:27.58 |     60843    |    80925
        5  | 17:59.01 |  3:32.19 |     80926    |    96844
        6  | 21:31.20 |  3:33.25 |     96845    |   112844
        7  | 25:04.45 |  3:05.02 |    112845    |   126721
        8  | 28:09.47 |  5:50.62 |    126722    |   153033
        9  | 34:00.34 |  4:30.51 |    153034    |   173334
       10  | 38:31.10 |  4:40.25 |    173335    |   194359
       11  | 43:11.35 |  4:40.51 |    194360    |   215410
       12  | 47:52.11 |  5:22.30 |    215411    |   239590
       13  | 53:14.41 |  2:56.49 |    239591    |   252839
       14  | 56:11.15 |  4:00.18 |    252840    |   270857
       15  | 60:11.33 |  3:26.50 |    270858    |   286357
       16  | 63:38.08 |  5:11.06 |    286358    |   309688
Track  1
     Filename E:\CD\BEST OF ROCK\BEST OF ROCK CD2\01. John Farnham - You're The Voice.wav
     Pre-gap length  0:00:02.00
     Peak level 85.1 %
     Extraction speed 5.0 X
     Track quality 100.0 %
     Test CRC CF5B0EFC
     Copy CRC CF5B0EFC
     Accurately ripped (confidence 2)  [F221D3EE]  (AR v2)
     Copy OK
Track  2
     Filename E:\CD\BEST OF ROCK\BEST OF ROCK CD2\02. Foreigner - Urgent.wav
     Pre-gap length  0:00:01.58
     Peak level 74.7 %
     Extraction speed 5.5 X
     Track quality 100.0 %
     Test CRC 2DFEBE0F
     Copy CRC 2DFEBE0F
     Accurately ripped (confidence 2)  [8DD4C835]  (AR v2)
     Copy OK
Track  3
     Filename E:\CD\BEST OF ROCK\BEST OF ROCK CD2\03. Lou Gramm - Midnight Blues.wav
     Pre-gap length  0:00:01.58
     Peak level 100.0 %
     Extraction speed 5.8 X
     Track quality 100.0 %
     Test CRC 7DDCA997
     Copy CRC 7DDCA997
     Accurately ripped (confidence 2)  [42FA63F0]  (AR v2)
     Copy OK
Track  4
     Filename E:\CD\BEST OF ROCK\BEST OF ROCK CD2\04. Yes - Owner Of A Lonely Heart.wav
     Pre-gap length  0:00:01.58
     Peak level 100.0 %
     Extraction speed 6.3 X
     Track quality 100.0 %
     Test CRC CE89F2AA
     Copy CRC CE89F2AA
     Accurately ripped (confidence 2)  [421E8BCB]  (AR v2)
     Copy OK
Track  5
     Filename E:\CD\BEST OF ROCK\BEST OF ROCK CD2\05. Huey Lewis &  The News - I Want A New Drug.wav
     Pre-gap length  0:00:01.58
     Peak level 74.2 %
     Extraction speed 6.5 X
     Track quality 100.0 %
     Test CRC 62898856
     Copy CRC 62898856
     Accurately ripped (confidence 2)  [4A2C2CEF]  (AR v2)
     Copy OK
Track  6
     Filename E:\CD\BEST OF ROCK\BEST OF ROCK CD2\06. Toto - Hold The Line.wav
     Pre-gap length  0:00:01.58
     Peak level 97.9 %
     Extraction speed 6.7 X
     Track quality 100.0 %
     Test CRC FF8ADA3D
     Copy CRC FF8ADA3D
     Accurately ripped (confidence 2)  [711AE608]  (AR v2)
     Copy OK
Track  7
     Filename E:\CD\BEST OF ROCK\BEST OF ROCK CD2\07. The Cars - You Might Think.wav
     Pre-gap length  0:00:01.58
     Peak level 100.0 %
     Extraction speed 6.8 X
     Track quality 100.0 %
     Test CRC 9DC8CA1B
     Copy CRC 9DC8CA1B
     Accurately ripped (confidence 2)  [7AFCB33E]  (AR v2)
     Copy OK
Track  8
     Filename E:\CD\BEST OF ROCK\BEST OF ROCK CD2\08. Bonnie Tyler - Holding Out For A Hero.wav
     Pre-gap length  0:00:01.58
     Peak level 100.0 %
     Extraction speed 7.7 X
     Track quality 100.0 %
     Test CRC 66740E12
     Copy CRC 66740E12
     Accurately ripped (confidence 2)  [50CFF852]  (AR v2)
     Copy OK
Track  9
     Filename E:\CD\BEST OF ROCK\BEST OF ROCK CD2\09. Chris Rea - The Road To Hell.wav
     Pre-gap length  0:00:01.58
     Peak level 69.9 %
     Extraction speed 7.8 X
     Track quality 100.0 %
     Test CRC 8D97E37A
     Copy CRC 8D97E37A
     Accurately ripped (confidence 2)  [56794491]  (AR v2)
     Copy OK
Track 10
     Filename E:\CD\BEST OF ROCK\BEST OF ROCK CD2\10. Sisters Of Merci - Temple Of Love.wav
     Pre-gap length  0:00:01.58
     Peak level 78.7 %
     Extraction speed 8.1 X
     Track quality 100.0 %
     Test CRC 6C66D9C7
     Copy CRC 6C66D9C7
     Accurately ripped (confidence 2)  [D31A659F]  (AR v2)
     Copy OK
Track 11
     Filename E:\CD\BEST OF ROCK\BEST OF ROCK CD2\11. Motley Crue - Piece Of Your Action.wav
     Pre-gap length  0:00:01.58
     Peak level 70.6 %
     Extraction speed 8.3 X
     Track quality 100.0 %
     Test CRC 3E78902C
     Copy CRC 3E78902C
     Accurately ripped (confidence 2)  [1F186472]  (AR v2)
     Copy OK
Track 12
     Filename E:\CD\BEST OF ROCK\BEST OF ROCK CD2\12. Helen Schneider - Rock'N'Roll Gypsy.wav
     Pre-gap length  0:00:01.58
     Peak level 100.0 %
     Extraction speed 8.6 X
     Track quality 100.0 %
     Test CRC B7DB332A
     Copy CRC B7DB332A
     Accurately ripped (confidence 2)  [2DA79579]  (AR v2)
     Copy OK
Track 13
     Filename E:\CD\BEST OF ROCK\BEST OF ROCK CD2\13. Gary Moore - Walking By Myself.wav
     Pre-gap length  0:00:01.58
     Peak level 93.6 %
     Extraction speed 8.1 X
     Track quality 100.0 %
     Test CRC 8213332F
     Copy CRC 8213332F
     Accurately ripped (confidence 2)  [7F0A827D]  (AR v2)
     Copy OK
Track 14
     Filename E:\CD\BEST OF ROCK\BEST OF ROCK CD2\14. ZZ Top - Gimme All Your Lovin'.wav
     Pre-gap length  0:00:01.58
     Peak level 100.0 %
     Extraction speed 8.8 X
     Track quality 100.0 %
     Test CRC 3601D1C5
     Copy CRC 3601D1C5
     Accurately ripped (confidence 2)  [624AC47A]  (AR v2)
     Copy OK
Track 15
     Filename E:\CD\BEST OF ROCK\BEST OF ROCK CD2\15. Gerogia Satellites - Keep Your Hands To Yourself.wav
     Pre-gap length  0:00:01.58
     Peak level 99.2 %
     Extraction speed 8.8 X
     Track quality 100.0 %
     Test CRC 2C691ACC
     Copy CRC 2C691ACC
     Accurately ripped (confidence 2)  [8BD45394]  (AR v2)
     Copy OK
Track 16
     Filename E:\CD\BEST OF ROCK\BEST OF ROCK CD2\16. Europe - The Final Countdown.wav
     Pre-gap length  0:00:01.58
     Peak level 66.3 %
     Extraction speed 8.5 X
     Track quality 99.9 %
     Test CRC 569FF621
     Copy CRC 569FF621
     Accurately ripped (confidence 2)  [CB8AE03D]  (AR v2)
     Copy OK
All tracks accurately ripped
No errors occurred
End of status report
==== Log checksum A8B4B391E52FEE80CE6BD958FDF8517DE39F4F48EC8627B3480E7762A504578F ====

Отчёт auCDtect:

-----------------------
DON'T MODIFY THIS FILE
-----------------------
PERFORMER: auCDtect Task Manager, ver. 1.5.1RC6 build 1.5.1.7
Copyright (c) 2008-2010 y-soft. All rights reserved
http://y-soft.org
ANALYZER: auCDtect: CD records authenticity detector, version 0.8.2
Copyright (c) 2004 Oleg Berngardt. All rights reserved.
Copyright (c) 2004 Alexander Djourik. All rights reserved.
FILE: 16. Europe - The Final Countdown.flac
  Size: 37415789 Hash: DB49E7F0A1118A9D3E570B3DB1E15E8C Accuracy: -m8
  Conclusion: CDDA 100%
  Signature: 875DD2649856EABEECFB3577F7CDFB7F691372EF
FILE: 15. Gerogia Satellites - Keep Your Hands To Yourself.flac
  Size: 21535382 Hash: 9AD23C2EE1856851505DA898B3DB6E05 Accuracy: -m8
  Conclusion: CDDA 100%
  Signature: B0680700DE2BB90933BE16D6660729CBB566F5BB
FILE: 14. ZZ Top - Gimme All Your Lovin'.flac
  Size: 26904792 Hash: B2808B0B9EE52C32A9B4CF9C5A6150B4 Accuracy: -m8
  Conclusion: CDDA 100%
  Signature: 895230E6B396E349B28FACC63D6B16E68268AD04
FILE: 13. Gary Moore - Walking By Myself.flac
  Size: 20479236 Hash: 96B8B716C1B0184E4C133492F98D560E Accuracy: -m8
  Conclusion: CDDA 100%
  Signature: 542E467FA59A1796FC60F2FD3645BE26E1373BBE
FILE: 12. Helen Schneider - Rock'N'Roll Gypsy.flac
  Size: 37329782 Hash: F12073F0B64B3271D5113E3D94EF3E7D Accuracy: -m8
  Conclusion: CDDA 100%
  Signature: 13D5E2AABC56CC747F5F313A91BA2CEA170BEB79
FILE: 11. Motley Crue - Piece Of Your Action.flac
  Size: 35081188 Hash: 80C925F2408DDCAD246AB5D0388F0D2B Accuracy: -m8
  Conclusion: CDDA 100%
  Signature: 0692AE44B598F84204D4F227892BB2450A67E6B2
FILE: 10. Sisters Of Merci - Temple Of Love.flac
  Size: 35580620 Hash: 5D96343F5F72735427FDEB390D971948 Accuracy: -m8
  Conclusion: CDDA 100%
  Signature: C3E1CFDD56F73A44584E17F34877A8FBD4A05352
FILE: 09. Chris Rea - The Road To Hell.flac
  Size: 31751354 Hash: 8419B3140BAD5CC3F9FC870DFB6439E1 Accuracy: -m8
  Conclusion: CDDA 87%
  Signature: 6322C4A7147D5C3552DA76F48060BD209CA7C7F7
FILE: 08. Bonnie Tyler - Holding Out For A Hero.flac
  Size: 44810445 Hash: 88BAACF7331442FADA08E3A17EED3180 Accuracy: -m8
  Conclusion: CDDA 100%
  Signature: FD9AC6C2B6723E39F2C1C8E452ECECD3F6CD2DC6
FILE: 07. The Cars - You Might Think.flac
  Size: 22114097 Hash: 3AF5DEA67469ACFBA4C88D196B40A20A Accuracy: -m8
  Conclusion: CDDA 100%
  Signature: 8FBF46A87843C58F05B0270075E994E3E1991FC8
FILE: 06. Toto - Hold The Line.flac
  Size: 27012997 Hash: CECA29BDE95DEDD45A6C4DAB201AFE57 Accuracy: -m8
  Conclusion: CDDA 100%
  Signature: FB48941C684FFD480A2B6D8C71235A9D01E05581
FILE: 05. Huey Lewis &  The News - I Want A New Drug.flac
  Size: 24829081 Hash: 43D2F11EB649B3FC1D435CDB465108EA Accuracy: -m8
  Conclusion: CDDA 100%
  Signature: BCFDCF2D9CECCA3513A8D50A446555EA0F6ABBFC
FILE: 04. Yes - Owner Of A Lonely Heart.flac
  Size: 29134154 Hash: C65FE59D03B2AC7A85DCDCEC36E792E9 Accuracy: -m8
  Conclusion: CDDA 100%
  Signature: BC88986B7B63976193CF7722EF633F40FEEA5204
FILE: 03. Lou Gramm - Midnight Blues.flac
  Size: 25142351 Hash: 410D3442950055C2F0F9747F0ECB7246 Accuracy: -m8
  Conclusion: CDDA 100%
  Signature: 3B867C2CDC6CE83F97DF148D46EE6196705072AB
FILE: 02. Foreigner - Urgent.flac
  Size: 30765991 Hash: 3946E6425B9433D4F30F1DD12FF12364 Accuracy: -m8
  Conclusion: CDDA 100%
  Signature: 08232A48166DF14CABE2A8CA435488B8F8E84366
FILE: 01. John Farnham - You're The Voice.flac
  Size: 35070253 Hash: C226215B886420CF183C660E14F3FE0B Accuracy: -m8
  Conclusion: CDDA 100%
  Signature: ED8EF917CF3D622D898F0713F94B450AC93544F8

CD 3

Треклист:
01. Alannah Myles - Black Velvet (4:49)
02. Reamonn - Supergirl (4:06)
03. Crash Test Dummies - Mmm Mmm Mmm Mmm (3:48)
04. The Lemonheads - Mrs. Robinson (3:44)
05. The Boomtown Rats - I Don't Like Mondays (3:46)
06. Exile - Kiss You All Over (3:22)
07. Journey - Wheel In The Sky (4:14)
08. Kim Carnes - Bette Davis Eyes (3:43)
09. Little River Band - Lonesome Loser (3:54)
10. Asia - Heat Of The Moment (3:49)
11. Lynyrd Skynyrd - Sweet Home Alambama (4:45)
12. The Troggs - Wild Thing (2:38)
13. Fury In The Slaughterhouse - When I'm Dead And Gone (3:56)
14. Suzi Quatro - Can The Can (3:35)
15. John Miles - Music (5:54)
16. Emerson, Lake & Palmer - Lucky Man (Live & Unplugged) (3:04)
Продолжительность – 01:03:08

Спектрограмма 12-го трека:

Отчёт ЕАС:

Exact Audio Copy V1.0 beta 2 from 29. April 2011
EAC extraction logfile from 25. July 2011, 17:30
Various / Best Of Rock  CD3
Used drive  : PIONEER DVD-RW  DVR-216L   Adapter: 2  ID: 1
Read mode               : Secure
Utilize accurate stream : Yes
Defeat audio cache      : Yes
Make use of C2 pointers : No
Read offset correction                      : 96
Overread into Lead-In and Lead-Out          : No
Fill up missing offset samples with silence : Yes
Delete leading and trailing silent blocks   : No
Null samples used in CRC calculations       : Yes
Used interface                              : Native Win32 interface for Win NT & 2000
Gap handling                                : Appended to previous track
Used output format              : User Defined Encoder
Selected bitrate                : 1024 kBit/s
Quality                         : High
Add ID3 tag                     : No
Command line compressor         : C:\Program Files (x86)\FLAC\flac.exe
Additional command line options : -8 -V -T "ARTIST=%artist%" -T "TITLE=%title%" -T "ALBUM=%albumtitle%" -T "DATE=%year%" -T "TRACKNUMBER=%tracknr%" -T "GENRE=%genre%" -T "PERFORMER=%albuminterpret%" -T "COMPOSER=%composer%" %haslyrics%--tag-from-file=LYRICS
TOC of the extracted CD
     Track |   Start  |  Length  | Start sector | End sector
    ---------------------------------------------------------
        1  |  0:00.00 |  4:49.04 |         0    |    21678
        2  |  4:49.04 |  4:06.35 |     21679    |    40163
        3  |  8:55.39 |  3:48.31 |     40164    |    57294
        4  | 12:43.70 |  3:44.28 |     57295    |    74122
        5  | 16:28.23 |  3:46.23 |     74123    |    91095
        6  | 20:14.46 |  3:21.57 |     91096    |   106227
        7  | 23:36.28 |  4:13.46 |    106228    |   125248
        8  | 27:49.74 |  3:43.13 |    125249    |   141986
        9  | 31:33.12 |  3:54.23 |    141987    |   159559
       10  | 35:27.35 |  3:48.73 |    159560    |   176732
       11  | 39:16.33 |  4:44.62 |    176733    |   198094
       12  | 44:01.20 |  2:37.63 |    198095    |   209932
       13  | 46:39.08 |  3:55.55 |    209933    |   227612
       14  | 50:34.63 |  3:35.12 |    227613    |   243749
       15  | 54:10.00 |  5:54.08 |    243750    |   270307
       16  | 60:04.08 |  3:03.43 |    270308    |   284075
Track  1
     Filename E:\CD\BEST OF ROCK\BEST OF ROCK CD3\01. Alannah Myles - Black Velvet.wav
     Pre-gap length  0:00:02.00
     Peak level 99.8 %
     Extraction speed 4.4 X
     Track quality 99.9 %
     Test CRC D8FC2395
     Copy CRC D8FC2395
     Accurately ripped (confidence 2)  [B262729F]  (AR v2)
     Copy OK
Track  2
     Filename E:\CD\BEST OF ROCK\BEST OF ROCK CD3\02. Reamonn - Supergirl.wav
     Pre-gap length  0:00:01.58
     Peak level 81.7 %
     Extraction speed 5.3 X
     Track quality 100.0 %
     Test CRC CDA17883
     Copy CRC CDA17883
     Accurately ripped (confidence 2)  [DBC248B1]  (AR v2)
     Copy OK
Track  3
     Filename E:\CD\BEST OF ROCK\BEST OF ROCK CD3\03. Crash Test Dummies - Mmm Mmm Mmm Mmm.wav
     Pre-gap length  0:00:01.58
     Peak level 70.6 %
     Extraction speed 5.0 X
     Track quality 99.9 %
     Test CRC D48DFB03
     Copy CRC D48DFB03
     Accurately ripped (confidence 2)  [7E4F8675]  (AR v2)
     Copy OK
Track  4
     Filename E:\CD\BEST OF ROCK\BEST OF ROCK CD3\04. The Lemonheads - Mrs. Robinson.wav
     Pre-gap length  0:00:01.58
     Peak level 70.7 %
     Extraction speed 6.0 X
     Track quality 100.0 %
     Test CRC 9B5E14EB
     Copy CRC 9B5E14EB
     Accurately ripped (confidence 2)  [5861229B]  (AR v2)
     Copy OK
Track  5
     Filename E:\CD\BEST OF ROCK\BEST OF ROCK CD3\05. The Boomtown Rats - I Don't Like Mondays.wav
     Pre-gap length  0:00:01.58
     Peak level 99.9 %
     Extraction speed 6.3 X
     Track quality 100.0 %
     Test CRC 1363AEDC
     Copy CRC 1363AEDC
     Accurately ripped (confidence 2)  [C5BB3157]  (AR v2)
     Copy OK
Track  6
     Filename E:\CD\BEST OF ROCK\BEST OF ROCK CD3\06. Exile - Kiss You All Over.wav
     Pre-gap length  0:00:01.58
     Peak level 78.7 %
     Extraction speed 6.4 X
     Track quality 100.0 %
     Test CRC D8CF737B
     Copy CRC D8CF737B
     Accurately ripped (confidence 2)  [1FE86974]  (AR v2)
     Copy OK
Track  7
     Filename E:\CD\BEST OF ROCK\BEST OF ROCK CD3\07. Journey - Wheel In The Sky.wav
     Pre-gap length  0:00:01.58
     Peak level 83.4 %
     Extraction speed 6.2 X
     Track quality 99.9 %
     Test CRC 2E8FD6E8
     Copy CRC 2E8FD6E8
     Accurately ripped (confidence 2)  [8CAF51B6]  (AR v2)
     Copy OK
Track  8
     Filename E:\CD\BEST OF ROCK\BEST OF ROCK CD3\08. Kim Carnes - Bette Davis Eyes.wav
     Pre-gap length  0:00:01.57
     Peak level 76.7 %
     Extraction speed 7.1 X
     Track quality 100.0 %
     Test CRC 9D2E0DFB
     Copy CRC 9D2E0DFB
     Accurately ripped (confidence 2)  [9CAD68CE]  (AR v2)
     Copy OK
Track  9
     Filename E:\CD\BEST OF ROCK\BEST OF ROCK CD3\09. Little River Band - Lonesome Loser.wav
     Pre-gap length  0:00:01.58
     Peak level 78.5 %
     Extraction speed 7.4 X
     Track quality 100.0 %
     Test CRC BD820FCC
     Copy CRC BD820FCC
     Accurately ripped (confidence 2)  [C02FE123]  (AR v2)
     Copy OK
Track 10
     Filename E:\CD\BEST OF ROCK\BEST OF ROCK CD3\10. Asia - Heat Of The Moment.wav
     Pre-gap length  0:00:01.58
     Peak level 70.1 %
     Extraction speed 7.5 X
     Track quality 100.0 %
     Test CRC 8B99A7FC
     Copy CRC 8B99A7FC
     Accurately ripped (confidence 2)  [74D3F228]  (AR v2)
     Copy OK
Track 11
     Filename E:\CD\BEST OF ROCK\BEST OF ROCK CD3\11. Lynyrd Skynyrd - Sweet Home Alambama.wav
     Pre-gap length  0:00:01.58
     Peak level 86.1 %
     Extraction speed 7.3 X
     Track quality 99.9 %
     Test CRC 909CC080
     Copy CRC 909CC080
     Accurately ripped (confidence 2)  [B8F9BCC5]  (AR v2)
     Copy OK
Track 12
     Filename E:\CD\BEST OF ROCK\BEST OF ROCK CD3\12. The Troggs - Wild Thing.wav
     Pre-gap length  0:00:01.58
     Peak level 92.5 %
     Extraction speed 7.6 X
     Track quality 100.0 %
     Test CRC 6C80EA03
     Copy CRC 6C80EA03
     Accurately ripped (confidence 2)  [652D8C57]  (AR v2)
     Copy OK
Track 13
     Filename E:\CD\BEST OF ROCK\BEST OF ROCK CD3\13. Fury In The Slaughterhouse - When I'm Dead And Gone.wav
     Pre-gap length  0:00:01.58
     Peak level 77.8 %
     Extraction speed 7.2 X
     Track quality 99.9 %
     Test CRC 64A3FA19
     Copy CRC 64A3FA19
     Accurately ripped (confidence 2)  [BAA2BAF1]  (AR v2)
     Copy OK
Track 14
     Filename E:\CD\BEST OF ROCK\BEST OF ROCK CD3\14. Suzi Quatro - Can The Can.wav
     Pre-gap length  0:00:01.58
     Peak level 87.0 %
     Extraction speed 8.2 X
     Track quality 100.0 %
     Test CRC 6690DD2F
     Copy CRC 6690DD2F
     Accurately ripped (confidence 2)  [ECC037C7]  (AR v2)
     Copy OK
Track 15
     Filename E:\CD\BEST OF ROCK\BEST OF ROCK CD3\15. John Miles - Music.wav
     Pre-gap length  0:00:01.57
     Peak level 100.0 %
     Extraction speed 9.1 X
     Track quality 100.0 %
     Test CRC 6B0BDAF2
     Copy CRC 6B0BDAF2
     Accurately ripped (confidence 2)  [D47DC0FF]  (AR v2)
     Copy OK
Track 16
     Filename E:\CD\BEST OF ROCK\BEST OF ROCK CD3\16. Emerson, Lake & Palmer - Lucky Man (Live & Unplugged).wav
     Pre-gap length  0:00:01.58
     Peak level 94.4 %
     Extraction speed 7.3 X
     Track quality 99.9 %
     Test CRC 739F9510
     Copy CRC 739F9510
     Accurately ripped (confidence 2)  [F474FEA8]  (AR v2)
     Copy OK
All tracks accurately ripped
No errors occurred
End of status report
==== Log checksum FB1EC6DB7995A0271A0D12794DD725F45974BDD780B0E3714490F00AC6742B89 ====

Отчёт auCDtect:

-----------------------
DON'T MODIFY THIS FILE
-----------------------
PERFORMER: auCDtect Task Manager, ver. 1.5.1RC6 build 1.5.1.7
Copyright (c) 2008-2010 y-soft. All rights reserved
http://y-soft.org
ANALYZER: auCDtect: CD records authenticity detector, version 0.8.2
Copyright (c) 2004 Oleg Berngardt. All rights reserved.
Copyright (c) 2004 Alexander Djourik. All rights reserved.
FILE: 16. Emerson, Lake & Palmer - Lucky Man (Live & Unplugged).flac
  Size: 19503349 Hash: 62CAAB82B9B6179D0A780F7997A607E5 Accuracy: -m8
  Conclusion: CDDA 99%
  Signature: 19EA1A8C82366F03F951990F8C85B74E4701B71C
FILE: 15. John Miles - Music.flac
  Size: 37020856 Hash: C459E5F9AF67E6BEF2F8BD0B206039CC Accuracy: -m8
  Conclusion: CDDA 100%
  Signature: F6DDBE5E7BD79670157EF9B378EF961010D07A6B
FILE: 14. Suzi Quatro - Can The Can.flac
  Size: 21406539 Hash: 67B93179B09153DD45284A1D9592A2BB Accuracy: -m8
  Conclusion: CDDA 100%
  Signature: 433C6476342B6BD4E9E17B277D95B24622B56791
FILE: 13. Fury In The Slaughterhouse - When I'm Dead And Gone.flac
  Size: 26958802 Hash: 607F06397BE5BB4CA5DC246FA69B93DC Accuracy: -m8
  Conclusion: CDDA 100%
  Signature: 571B13C3C398C6FF2CD9A9013E6E914EF401D8EE
FILE: 12. The Troggs - Wild Thing.flac
  Size: 14294236 Hash: 33D502886ADB8466F637775A635DE850 Accuracy: -m8
  Conclusion: MPEG 97%
  Signature: 272A8BB90F09E63DAB399722CC7BB41CE2E4C35F
FILE: 11. Lynyrd Skynyrd - Sweet Home Alambama.flac
  Size: 30153136 Hash: 9430B182EAA1C31FDAA1A2730611FA51 Accuracy: -m8
  Conclusion: CDDA 99%
  Signature: F9242B65E4ED6C37CFBD33DE2685D7BF1307902D
FILE: 10. Asia - Heat Of The Moment.flac
  Size: 27374927 Hash: 38309ADF2C2206A73272CA95F077D6A8 Accuracy: -m8
  Conclusion: CDDA 100%
  Signature: F4D60CB90F058543C35748914011FBD5411A0109
FILE: 09. Little River Band - Lonesome Loser.flac
  Size: 28868079 Hash: BC56527A282848164DD62CFFB5002A07 Accuracy: -m8
  Conclusion: CDDA 100%
  Signature: 3E921D094FBE88B2658D87A78FBA1E9351840A8A
FILE: 08. Kim Carnes - Bette Davis Eyes.flac
  Size: 24905168 Hash: 165437776FCD1C1E4D57997C4EDF809D Accuracy: -m8
  Conclusion: CDDA 100%
  Signature: BEE0B4D806EA3FD6C050175056CFB562EBBF6918
FILE: 07. Journey - Wheel In The Sky.flac
  Size: 29448303 Hash: 91E15C7DE08CCBD4AFE3FD9364C3B6AF Accuracy: -m8
  Conclusion: CDDA 100%
  Signature: 634F621472D69CDB1FD1B466535426C142F215F1
FILE: 06. Exile - Kiss You All Over.flac
  Size: 23970951 Hash: 252BDB433C9737ACB1B9D6C4CB9B111C Accuracy: -m8
  Conclusion: CDDA 100%
  Signature: 9EB43E0B0E74310F9F930CDF5D5AC339FB9BFDA6
FILE: 05. The Boomtown Rats - I Don't Like Mondays.flac
  Size: 22698733 Hash: 15140C33712AA8ECB9F6B724465447AC Accuracy: -m8
  Conclusion: CDDA 100%
  Signature: 19751EFD6E37A362B64391861A2A2175BBACB7FA
FILE: 04. The Lemonheads - Mrs. Robinson.flac
  Size: 24839137 Hash: A0727DF2D3065E6BA2FAFBDFF2203B90 Accuracy: -m8
  Conclusion: CDDA 100%
  Signature: ABBB7271744CAB05D12D71D15D557464DB414138
FILE: 03. Crash Test Dummies - Mmm Mmm Mmm Mmm.flac
  Size: 25178196 Hash: 32D8B09768C0B16A309874EC5F6D4AE1 Accuracy: -m8
  Conclusion: CDDA 99%
  Signature: B186A4FA25D32EBA54CEF82FB9E6568E8D69F325
FILE: 02. Reamonn - Supergirl.flac
  Size: 27308473 Hash: 34E4E30A85C8D301F4D4157800936D34 Accuracy: -m8
  Conclusion: CDDA 100%
  Signature: CB4F123301CEC2A14B9940B5F5F47BC49A525DDB
FILE: 01. Alannah Myles - Black Velvet.flac
  Size: 31211495 Hash: 3707B09C2A1DCE3E2BE820056493FFCC Accuracy: -m8
  Conclusion: CDDA 100%
  Signature: 31AE6491EE3054B9F35A4395198F2BCAF4FCBE04
[Профиль] [ЛС]
Кто просматривает тему:

Форум Тема Автор Размер
Rock, Metal (Зарубежный) (Rock)VA - Jeff Lynne(ELO) & Friends - Every Little Thing 2010, MP3, tracks, 320 kbps sergej644 141 MB
Показать сообщения:    

Текущее время: Сегодня 08:33

Часовой пояс: GMT



Вы не можете начинать темы
Вы не можете отвечать на сообщения
Вы не можете редактировать свои сообщения
Вы не можете удалять свои сообщения
Вы не можете голосовать в опросах
Вы не можете прикреплять файлы к сообщениям
Вы не можете скачивать файлы