(Pop, Rock, Electronic, Hip Hop) VA - All The... 90's (3CD) - 2012 [FLAC, tracks+.cue, lossless]

 
Автор Сообщение

sergej644 ®

Пол:

Стаж: 4 года 11 месяцев

Сообщений: 6042

Откуда: Soviet Union



Награды: Нет

Торрент-статистика

Создавать темы 18-Фев-2015 16:36

[Цитировать]

-All The... 90's (3CD)-- Год издания: 2012
Страна: ---
Жанр: Pop, Rock, Electronic, Hip Hop
Продолжительность: 03:23:48-Лейбл издания: Warner Music
Тип альбома: Compilation
Страна-выпуска диска: USA
Номер по каталогу: 5310516145
Формат: FLAC
Битрейт аудио: lossless
Тип рипа: tracks+.cue
Наличие сканов в содержимом раздачи: front


Трэклист

CD 1 | 01:08:54

01. Snow - Informer (04:30)
02. Coolio feat. L.V. - Gangsta's Paradise (04:03)
03. Inner Circle - Sweat (a la la la la long) (03:48)
04. Mark Morrison - Return Of The Mack (c&j radio edit) (03:34)
05. Keith Sweat - Twisted (04:12)
06. En Vogue - Don't Let Go (love) (04:51)
07. East 17 - It's Alright (04:41)
08. Stars On 45 - If You Could Read My Mind (03:27)
09. De La Soul - Ring Ring Ring (ha ha hey) (05:05)
10. All Saints - Never Ever (04:00)
11. Simply Red - Fairground (05:33)
12. Gina G - Just A Little Bit (motiv8 radio edit) (03:25)
13. Dario G - Sunchyme (03:56)
14. Snap - The Power (03:49)
15. Eifel 65 - Blue (da ba dee) (04:45)
16. Julee Cruise - Falling (05:22)

CD 2 | 01:05:00

01. Deee-Lite - Groove Is In The Heart (03:53)
02. Everything But The Girl - Missing (todd terry remix) (03:57)
03. Seal - Crazy (04:31)
04. Third Eye Blind - Semi-Charmed Life (04:31)
05. Faith No More - Easy (03:07)
06. Barenaked Ladies - One Week (02:51)
07. The Rembrandts - I'll Be There For You (theme from friends) (03:08)
08. Pretenders - I'll Stand By You (04:01)
09. Alannah Myles - Black Velvet (04:40)
10. Mr Big - To Be With You (03:30)
11. Stone Temple Pilots - Vasoline (02:56)
12. Filter - Take A Picture (03:42)
13. Collective Soul - Shine (03:57)
14. The Lemonheads - Mrs Robinson (03:42)
15. The B-52's - Roam (04:55)
16. Taxiride - Get Set (03:57)
17. Bingo Boys - How To Dance (03:50)

CD 3 | 01:09:56

01. All-4-One - I Swear (03:44)
02. Snap - Rhythm Is A Dancer (03:44)
03. D Ream - U R The Best Thing (06:01)
04. Urban Cookie Collective - The Key The Secret (glamorously developed mix) (03:45)
05. Utah Saints - Something Good (05:57)
06. JX - Son Of A Gun (03:16)
07. Color Me Badd - All 4 Love (03:32)
08. Silk - Freak Me (04:35)
09. Tevin Campbell - Can We Talk (04:44)
10. Jeremy Jordan - The Right Kind Of Love (04:33)
11. Sixpence None The Richer - Kiss Me (03:20)
12. The Corrs - Runaway (03:45)
13. Jenny Morris - Break In The Weather (04:33)
14. Shakespears Sister - Stay (radio mix) (03:48)
15. Corona - Baby Baby (03:47)
16. The Tamperer feat. Maya - Feel It (02:59)
17. Amber - This Is Your Night (04:02)

Лог создания рипа

CD 1

Exact Audio Copy V1.0 beta 3 from 29. August 2011
EAC extraction logfile from 1. July 2012, 14:48
Various Artists / All The ... 90's - CD1
Used drive  : ASUS    DRW-24B3ST   Adapter: 0  ID: 2
Read mode               : Secure
Utilize accurate stream : Yes
Defeat audio cache      : Yes
Make use of C2 pointers : No
Read offset correction                      : 6
Overread into Lead-In and Lead-Out          : No
Fill up missing offset samples with silence : Yes
Delete leading and trailing silent blocks   : No
Null samples used in CRC calculations       : Yes
Used interface                              : Native Win32 interface for Win NT & 2000
Gap handling                                : Appended to previous track
Used output format              : User Defined Encoder
Selected bitrate                : 1024 kBit/s
Quality                         : High
Add ID3 tag                     : No
Command line compressor         : C:\Program Files (x86)\Exact Audio Copy\Flac\flac.exe
Additional command line options : -8 -V -T "Artist=%artist%" -T "Title=%title%" -T "Album=%albumtitle%" -T "Date=%year%" -T "Tracknumber=%tracknr%" -T "Genre=%genre%" %source% -o %dest%
TOC of the extracted CD
     Track |   Start  |  Length  | Start sector | End sector
    ---------------------------------------------------------
        1  |  0:00.00 |  4:29.26 |         0    |    20200
        2  |  4:29.26 |  4:02.11 |     20201    |    38361
        3  |  8:31.37 |  3:47.43 |     38362    |    55429
        4  | 12:19.05 |  3:33.36 |     55430    |    71440
        5  | 15:52.41 |  4:11.14 |     71441    |    90279
        6  | 20:03.55 |  4:50.44 |     90280    |   112073
        7  | 24:54.24 |  4:40.31 |    112074    |   133104
        8  | 29:34.55 |  3:26.49 |    133105    |   148603
        9  | 33:01.29 |  5:04.46 |    148604    |   171449
       10  | 38:06.00 |  3:59.31 |    171450    |   189405
       11  | 42:05.31 |  5:32.69 |    189406    |   214374
       12  | 47:38.25 |  3:24.07 |    214375    |   229681
       13  | 51:02.32 |  3:55.62 |    229682    |   247368
       14  | 54:58.19 |  3:48.39 |    247369    |   264507
       15  | 58:46.58 |  4:44.58 |    264508    |   285865
       16  | 63:31.41 |  5:21.59 |    285866    |   309999
Track  1
     Filename E:\All The ... 90's - flac\CD1\01 - Snow - Informer.wav
     Pre-gap length  0:00:02.00
     Peak level 100.0 %
     Extraction speed 3.7 X
     Track quality 100.0 %
     Test CRC 3FF2A348
     Copy CRC 3FF2A348
     Track not present in AccurateRip database
     Copy OK
Track  2
     Filename E:\All The ... 90's - flac\CD1\02 - Coolio feat. L.V. - Gangsta's Paradise.wav
     Peak level 98.9 %
     Extraction speed 4.0 X
     Track quality 100.0 %
     Test CRC E5FA71CC
     Copy CRC E5FA71CC
     Track not present in AccurateRip database
     Copy OK
Track  3
     Filename E:\All The ... 90's - flac\CD1\03 - Inner Circle - Sweat (a la la la la long).wav
     Peak level 100.0 %
     Extraction speed 4.3 X
     Track quality 100.0 %
     Test CRC 969A0BDC
     Copy CRC 969A0BDC
     Track not present in AccurateRip database
     Copy OK
Track  4
     Filename E:\All The ... 90's - flac\CD1\04 - Mark Morrison - Return Of The Mack (c&j radio edit).wav
     Peak level 99.1 %
     Extraction speed 3.6 X
     Track quality 99.9 %
     Test CRC C1499177
     Copy CRC C1499177
     Track not present in AccurateRip database
     Copy OK
Track  5
     Filename E:\All The ... 90's - flac\CD1\05 - Keith Sweat - Twisted.wav
     Peak level 97.0 %
     Extraction speed 5.0 X
     Track quality 100.0 %
     Test CRC 70DAE1A7
     Copy CRC 70DAE1A7
     Track not present in AccurateRip database
     Copy OK
Track  6
     Filename E:\All The ... 90's - flac\CD1\06 - En Vogue - Don't Let Go (love).wav
     Peak level 98.8 %
     Extraction speed 5.4 X
     Track quality 100.0 %
     Test CRC CFD81967
     Copy CRC CFD81967
     Track not present in AccurateRip database
     Copy OK
Track  7
     Filename E:\All The ... 90's - flac\CD1\07 - East 17 - It's Alright.wav
     Peak level 99.8 %
     Extraction speed 5.6 X
     Track quality 100.0 %
     Test CRC B280CDF4
     Copy CRC B280CDF4
     Track not present in AccurateRip database
     Copy OK
Track  8
     Filename E:\All The ... 90's - flac\CD1\08 - Stars On 45 - If You Could Read My Mind.wav
     Peak level 95.0 %
     Extraction speed 5.6 X
     Track quality 100.0 %
     Test CRC F4A109A1
     Copy CRC F4A109A1
     Track not present in AccurateRip database
     Copy OK
Track  9
     Filename E:\All The ... 90's - flac\CD1\09 - De La Soul - Ring Ring Ring (ha ha hey).wav
     Peak level 100.0 %
     Extraction speed 6.2 X
     Track quality 100.0 %
     Test CRC 62F6F118
     Copy CRC 62F6F118
     Track not present in AccurateRip database
     Copy OK
Track 10
     Filename E:\All The ... 90's - flac\CD1\10 - All Saints - Never Ever.wav
     Peak level 100.0 %
     Extraction speed 6.3 X
     Track quality 100.0 %
     Test CRC 533BC128
     Copy CRC 533BC128
     Track not present in AccurateRip database
     Copy OK
Track 11
     Filename E:\All The ... 90's - flac\CD1\11 - Simply Red - Fairground.wav
     Peak level 97.4 %
     Extraction speed 6.7 X
     Track quality 100.0 %
     Test CRC D43A63D5
     Copy CRC D43A63D5
     Track not present in AccurateRip database
     Copy OK
Track 12
     Filename E:\All The ... 90's - flac\CD1\12 - Gina G - Just A Little Bit (motiv8 radio edit).wav
     Peak level 99.6 %
     Extraction speed 6.6 X
     Track quality 100.0 %
     Test CRC 18389745
     Copy CRC 18389745
     Track not present in AccurateRip database
     Copy OK
Track 13
     Filename E:\All The ... 90's - flac\CD1\13 - Dario G - Sunchyme.wav
     Peak level 100.0 %
     Extraction speed 6.9 X
     Track quality 100.0 %
     Test CRC B2CAFCB0
     Copy CRC B2CAFCB0
     Track not present in AccurateRip database
     Copy OK
Track 14
     Filename E:\All The ... 90's - flac\CD1\14 - Snap - The Power.wav
     Peak level 100.0 %
     Extraction speed 7.1 X
     Track quality 100.0 %
     Test CRC 68CF3841
     Copy CRC 68CF3841
     Track not present in AccurateRip database
     Copy OK
Track 15
     Filename E:\All The ... 90's - flac\CD1\15 - Eifel 65 - Blue (da ba dee).wav
     Peak level 100.0 %
     Extraction speed 7.4 X
     Track quality 100.0 %
     Test CRC 4D1A0DCF
     Copy CRC 4D1A0DCF
     Track not present in AccurateRip database
     Copy OK
Track 16
     Filename E:\All The ... 90's - flac\CD1\16 - Julee Cruise - Falling.wav
     Peak level 100.0 %
     Extraction speed 7.8 X
     Track quality 100.0 %
     Test CRC 3252A687
     Copy CRC 3252A687
     Track not present in AccurateRip database
     Copy OK
None of the tracks are present in the AccurateRip database
No errors occurred
End of status report

CD 2

Exact Audio Copy V1.0 beta 3 from 29. August 2011
EAC extraction logfile from 1. July 2012, 17:23
Various Artists / All The ... 90's - CD2
Used drive  : ASUS    DRW-24B3ST   Adapter: 0  ID: 2
Read mode               : Secure
Utilize accurate stream : Yes
Defeat audio cache      : Yes
Make use of C2 pointers : No
Read offset correction                      : 6
Overread into Lead-In and Lead-Out          : No
Fill up missing offset samples with silence : Yes
Delete leading and trailing silent blocks   : No
Null samples used in CRC calculations       : Yes
Used interface                              : Native Win32 interface for Win NT & 2000
Gap handling                                : Appended to previous track
Used output format              : User Defined Encoder
Selected bitrate                : 1024 kBit/s
Quality                         : High
Add ID3 tag                     : No
Command line compressor         : C:\Program Files (x86)\Exact Audio Copy\Flac\flac.exe
Additional command line options : -8 -V -T "Artist=%artist%" -T "Title=%title%" -T "Album=%albumtitle%" -T "Date=%year%" -T "Tracknumber=%tracknr%" -T "Genre=%genre%" %source% -o %dest%
TOC of the extracted CD
     Track |   Start  |  Length  | Start sector | End sector
    ---------------------------------------------------------
        1  |  0:00.00 |  3:52.68 |         0    |    17467
        2  |  3:52.68 |  3:56.24 |     17468    |    35191
        3  |  7:49.17 |  4:30.46 |     35192    |    55487
        4  | 12:19.63 |  4:30.11 |     55488    |    75748
        5  | 16:49.74 |  3:07.00 |     75749    |    89773
        6  | 19:56.74 |  2:50.27 |     89774    |   102550
        7  | 22:47.26 |  3:07.72 |    102551    |   116647
        8  | 25:55.23 |  4:00.38 |    116648    |   134685
        9  | 29:55.61 |  4:39.02 |    134686    |   155612
       10  | 34:34.63 |  3:29.06 |    155613    |   171293
       11  | 38:03.69 |  2:55.33 |    171294    |   184451
       12  | 40:59.27 |  3:41.43 |    184452    |   201069
       13  | 44:40.70 |  3:56.52 |    201070    |   218821
       14  | 48:37.47 |  3:41.52 |    218822    |   235448
       15  | 52:19.24 |  4:54.12 |    235449    |   257510
       16  | 57:13.36 |  3:56.39 |    257511    |   275249
       17  | 61:10.00 |  3:49.15 |    275250    |   292439
Track  1
     Filename E:\All The ... 90's - flac\CD2\01 - Deee-Lite - Groove Is In The Heart.wav
     Pre-gap length  0:00:02.00
     Peak level 96.7 %
     Extraction speed 3.5 X
     Track quality 100.0 %
     Test CRC 063DED66
     Copy CRC 063DED66
     Track not present in AccurateRip database
     Copy OK
Track  2
     Filename E:\All The ... 90's - flac\CD2\02 - Everything But The Girl - Missing (todd terry remix).wav
     Peak level 99.9 %
     Extraction speed 4.0 X
     Track quality 100.0 %
     Test CRC 2823D5EA
     Copy CRC 2823D5EA
     Track not present in AccurateRip database
     Copy OK
Track  3
     Filename E:\All The ... 90's - flac\CD2\03 - Seal - Crazy.wav
     Peak level 99.9 %
     Extraction speed 4.4 X
     Track quality 100.0 %
     Test CRC BD6CCF97
     Copy CRC BD6CCF97
     Track not present in AccurateRip database
     Copy OK
Track  4
     Filename E:\All The ... 90's - flac\CD2\04 - Third Eye Blind - Semi-Charmed Life.wav
     Peak level 97.6 %
     Extraction speed 4.8 X
     Track quality 100.0 %
     Test CRC 3DE69E5A
     Copy CRC 3DE69E5A
     Track not present in AccurateRip database
     Copy OK
Track  5
     Filename E:\All The ... 90's - flac\CD2\05 - Faith No More - Easy.wav
     Peak level 99.9 %
     Extraction speed 4.8 X
     Track quality 100.0 %
     Test CRC ABBDA8F8
     Copy CRC ABBDA8F8
     Track not present in AccurateRip database
     Copy OK
Track  6
     Filename E:\All The ... 90's - flac\CD2\06 - Barenaked Ladies - One Week.wav
     Peak level 99.5 %
     Extraction speed 4.9 X
     Track quality 100.0 %
     Test CRC F2D59157
     Copy CRC F2D59157
     Track not present in AccurateRip database
     Copy OK
Track  7
     Filename E:\All The ... 90's - flac\CD2\07 - The Rembrandts - I'll Be There For You (theme from friends).wav
     Peak level 98.6 %
     Extraction speed 5.1 X
     Track quality 100.0 %
     Test CRC F98FA4E9
     Copy CRC F98FA4E9
     Track not present in AccurateRip database
     Copy OK
Track  8
     Filename E:\All The ... 90's - flac\CD2\08 - Pretenders - I'll Stand By You.wav
     Peak level 99.9 %
     Extraction speed 5.5 X
     Track quality 100.0 %
     Test CRC 55B35E60
     Copy CRC 55B35E60
     Track not present in AccurateRip database
     Copy OK
Track  9
     Filename E:\All The ... 90's - flac\CD2\09 - Alannah Myles - Black Velvet.wav
     Peak level 99.9 %
     Extraction speed 6.0 X
     Track quality 100.0 %
     Test CRC 1A210F1F
     Copy CRC 1A210F1F
     Track not present in AccurateRip database
     Copy OK
Track 10
     Filename E:\All The ... 90's - flac\CD2\10 - Mr Big - To Be With You.wav
     Peak level 99.9 %
     Extraction speed 5.9 X
     Track quality 100.0 %
     Test CRC CAA52513
     Copy CRC CAA52513
     Track not present in AccurateRip database
     Copy OK
Track 11
     Filename E:\All The ... 90's - flac\CD2\11 - Stone Temple Pilots - Vasoline.wav
     Peak level 99.8 %
     Extraction speed 5.9 X
     Track quality 100.0 %
     Test CRC E3A5025A
     Copy CRC E3A5025A
     Track not present in AccurateRip database
     Copy OK
Track 12
     Filename E:\All The ... 90's - flac\CD2\12 - Filter - Take A Picture.wav
     Peak level 98.3 %
     Extraction speed 6.3 X
     Track quality 100.0 %
     Test CRC C7729874
     Copy CRC C7729874
     Track not present in AccurateRip database
     Copy OK
Track 13
     Filename E:\All The ... 90's - flac\CD2\13 - Collective Soul - Shine.wav
     Peak level 99.9 %
     Extraction speed 5.2 X
     Track quality 99.9 %
     Test CRC 49138A65
     Copy CRC 49138A65
     Track not present in AccurateRip database
     Copy OK
Track 14
     Filename E:\All The ... 90's - flac\CD2\14 - The Lemonheads - Mrs Robinson.wav
     Peak level 99.9 %
     Extraction speed 6.7 X
     Track quality 100.0 %
     Test CRC A98A136F
     Copy CRC A98A136F
     Track not present in AccurateRip database
     Copy OK
Track 15
     Filename E:\All The ... 90's - flac\CD2\15 - The B-52's - Roam.wav
     Peak level 99.9 %
     Extraction speed 5.9 X
     Track quality 99.9 %
     Test CRC 94A2B901
     Copy CRC 94A2B901
     Track not present in AccurateRip database
     Copy OK
Track 16
     Filename E:\All The ... 90's - flac\CD2\16 - Taxiride - Get Set.wav
     Peak level 92.8 %
     Extraction speed 7.2 X
     Track quality 100.0 %
     Test CRC 91172027
     Copy CRC 91172027
     Track not present in AccurateRip database
     Copy OK
Track 17
     Filename E:\All The ... 90's - flac\CD2\17 - Bingo Boys - How To Dance.wav
     Peak level 99.9 %
     Extraction speed 7.3 X
     Track quality 100.0 %
     Test CRC 27DCCE10
     Copy CRC 27DCCE10
     Track not present in AccurateRip database
     Copy OK
None of the tracks are present in the AccurateRip database
No errors occurred
End of status report

CD 3

Exact Audio Copy V1.0 beta 3 from 29. August 2011
EAC extraction logfile from 1. July 2012, 19:53
Various Artists / All The ... 90's - CD3
Used drive  : ASUS    DRW-24B3ST   Adapter: 0  ID: 2
Read mode               : Secure
Utilize accurate stream : Yes
Defeat audio cache      : Yes
Make use of C2 pointers : No
Read offset correction                      : 6
Overread into Lead-In and Lead-Out          : No
Fill up missing offset samples with silence : Yes
Delete leading and trailing silent blocks   : No
Null samples used in CRC calculations       : Yes
Used interface                              : Native Win32 interface for Win NT & 2000
Gap handling                                : Appended to previous track
Used output format              : User Defined Encoder
Selected bitrate                : 1024 kBit/s
Quality                         : High
Add ID3 tag                     : No
Command line compressor         : C:\Program Files (x86)\Exact Audio Copy\Flac\flac.exe
Additional command line options : -8 -V -T "Artist=%artist%" -T "Title=%title%" -T "Album=%albumtitle%" -T "Date=%year%" -T "Tracknumber=%tracknr%" -T "Genre=%genre%" %source% -o %dest%
TOC of the extracted CD
     Track |   Start  |  Length  | Start sector | End sector
    ---------------------------------------------------------
        1  |  0:00.00 |  3:43.66 |         0    |    16790
        2  |  3:43.66 |  3:43.13 |     16791    |    33528
        3  |  7:27.04 |  6:00.46 |     33529    |    60574
        4  | 13:27.50 |  3:44.23 |     60575    |    77397
        5  | 17:11.73 |  5:56.17 |     77398    |   104114
        6  | 23:08.15 |  3:15.22 |    104115    |   118761
        7  | 26:23.37 |  3:31.68 |    118762    |   134654
        8  | 29:55.30 |  4:34.19 |    134655    |   155223
        9  | 34:29.49 |  4:43.57 |    155224    |   176505
       10  | 39:13.31 |  4:32.07 |    176506    |   196912
       11  | 43:45.38 |  3:19.22 |    196913    |   211859
       12  | 47:04.60 |  3:44.20 |    211860    |   228679
       13  | 50:49.05 |  4:32.29 |    228680    |   249108
       14  | 55:21.34 |  3:47.38 |    249109    |   266171
       15  | 59:08.72 |  3:46.23 |    266172    |   283144
       16  | 62:55.20 |  2:58.56 |    283145    |   296550
       17  | 65:54.01 |  4:01.25 |    296551    |   314650
Track  1
     Filename E:\All The ... 90's - flac\CD3\01 - All-4-One - I Swear.wav
     Pre-gap length  0:00:02.00
     Peak level 99.9 %
     Extraction speed 3.5 X
     Track quality 100.0 %
     Test CRC 437EB67A
     Copy CRC 437EB67A
     Track not present in AccurateRip database
     Copy OK
Track  2
     Filename E:\All The ... 90's - flac\CD3\02 - Snap - Rhythm Is A Dancer.wav
     Peak level 99.9 %
     Extraction speed 3.9 X
     Track quality 100.0 %
     Test CRC 05FED310
     Copy CRC 05FED310
     Track not present in AccurateRip database
     Copy OK
Track  3
     Filename E:\All The ... 90's - flac\CD3\03 - D Ream - U R The Best Thing.wav
     Peak level 99.9 %
     Extraction speed 4.6 X
     Track quality 100.0 %
     Test CRC F2DA0207
     Copy CRC F2DA0207
     Track not present in AccurateRip database
     Copy OK
Track  4
     Filename E:\All The ... 90's - flac\CD3\04 - Urban Cookie Collective - The Key The Secret (glamorously developed mix).wav
     Peak level 99.9 %
     Extraction speed 4.7 X
     Track quality 100.0 %
     Test CRC A90D48DD
     Copy CRC A90D48DD
     Track not present in AccurateRip database
     Copy OK
Track  5
     Filename E:\All The ... 90's - flac\CD3\05 - Utah Saints - Something Good.wav
     Peak level 99.9 %
     Extraction speed 4.5 X
     Track quality 99.9 %
     Test CRC 9F7F019B
     Copy CRC 9F7F019B
     Track not present in AccurateRip database
     Copy OK
Track  6
     Filename E:\All The ... 90's - flac\CD3\06 - JX - Son Of A Gun.wav
     Peak level 99.9 %
     Extraction speed 5.2 X
     Track quality 100.0 %
     Test CRC 501FDB13
     Copy CRC 501FDB13
     Track not present in AccurateRip database
     Copy OK
Track  7
     Filename E:\All The ... 90's - flac\CD3\07 - Color Me Badd - All 4 Love.wav
     Peak level 99.9 %
     Extraction speed 5.5 X
     Track quality 100.0 %
     Test CRC AD91DA20
     Copy CRC AD91DA20
     Track not present in AccurateRip database
     Copy OK
Track  8
     Filename E:\All The ... 90's - flac\CD3\08 - Silk - Freak Me.wav
     Peak level 99.9 %
     Extraction speed 5.9 X
     Track quality 100.0 %
     Test CRC 8BD23C4A
     Copy CRC 8BD23C4A
     Track not present in AccurateRip database
     Copy OK
Track  9
     Filename E:\All The ... 90's - flac\CD3\09 - Tevin Campbell - Can We Talk.wav
     Peak level 99.9 %
     Extraction speed 6.2 X
     Track quality 100.0 %
     Test CRC 7A35256C
     Copy CRC 7A35256C
     Track not present in AccurateRip database
     Copy OK
Track 10
     Filename E:\All The ... 90's - flac\CD3\10 - Jeremy Jordan - The Right Kind Of Love.wav
     Peak level 99.9 %
     Extraction speed 6.4 X
     Track quality 100.0 %
     Test CRC A55F9A7C
     Copy CRC A55F9A7C
     Track not present in AccurateRip database
     Copy OK
Track 11
     Filename E:\All The ... 90's - flac\CD3\11 - Sixpence None The Richer - Kiss Me.wav
     Peak level 99.9 %
     Extraction speed 6.4 X
     Track quality 100.0 %
     Test CRC A7D65644
     Copy CRC A7D65644
     Track not present in AccurateRip database
     Copy OK
Track 12
     Filename E:\All The ... 90's - flac\CD3\12 - The Corrs - Runaway.wav
     Peak level 99.9 %
     Extraction speed 6.6 X
     Track quality 100.0 %
     Test CRC 188EE000
     Copy CRC 188EE000
     Track not present in AccurateRip database
     Copy OK
Track 13
     Filename E:\All The ... 90's - flac\CD3\13 - Jenny Morris - Break In The Weather.wav
     Peak level 99.9 %
     Extraction speed 7.0 X
     Track quality 100.0 %
     Test CRC 107ECE47
     Copy CRC 107ECE47
     Track not present in AccurateRip database
     Copy OK
Track 14
     Filename E:\All The ... 90's - flac\CD3\14 - Shakespears Sister - Stay (radio mix).wav
     Peak level 99.9 %
     Extraction speed 7.0 X
     Track quality 100.0 %
     Test CRC 3461530D
     Copy CRC 3461530D
     Track not present in AccurateRip database
     Copy OK
Track 15
     Filename E:\All The ... 90's - flac\CD3\15 - Corona - Baby Baby.wav
     Peak level 99.9 %
     Extraction speed 7.2 X
     Track quality 100.0 %
     Test CRC 7F5E2B91
     Copy CRC 7F5E2B91
     Track not present in AccurateRip database
     Copy OK
Track 16
     Filename E:\All The ... 90's - flac\CD3\16 - The Tamperer feat. Maya - Feel It.wav
     Peak level 99.9 %
     Extraction speed 7.1 X
     Track quality 100.0 %
     Test CRC F652F147
     Copy CRC F652F147
     Track not present in AccurateRip database
     Copy OK
Track 17
     Filename E:\All The ... 90's - flac\CD3\17 - Amber - This Is Your Night.wav
     Peak level 99.9 %
     Extraction speed 6.0 X
     Track quality 99.9 %
     Test CRC 2368E542
     Copy CRC 2368E542
     Track not present in AccurateRip database
     Copy OK
None of the tracks are present in the AccurateRip database
No errors occurred
End of status report

Индексная карта (non-compilant .cue)

CD 1

REM GENRE Other
REM DATE 2012
REM DISCID E1102510
REM COMMENT "Exact Audio Copy V1.0 beta 3"
PERFORMER "VA"
TITLE "All The ...90's CD1"
FILE "01. Snow - Informer.flac" WAVE
  TRACK 01 AUDIO
    TITLE Informer
    PERFORMER Snow
    INDEX 01 00:00:00
FILE "02. Coolio feat. L.V. - Gangsta's Paradise.flac" WAVE
  TRACK 02 AUDIO
    TITLE "Gangsta's Paradise"
    PERFORMER "Coolio feat. L.V."
    INDEX 01 00:00:00
FILE "03. Inner Circle - Sweat (a la la la la long).flac" WAVE
  TRACK 03 AUDIO
    TITLE "Sweat (a la la la la long)"
    PERFORMER "Inner Circle"
    INDEX 01 00:00:00
FILE "04. Mark Morrison - Return Of The Mack (c&j radio edit).flac" WAVE
  TRACK 04 AUDIO
    TITLE "Return Of The Mack (c&j radio edit)"
    PERFORMER "Mark Morrison"
    INDEX 01 00:00:00
FILE "05. Keith Sweat - Twisted.flac" WAVE
  TRACK 05 AUDIO
    TITLE Twisted
    PERFORMER "Keith Sweat"
    INDEX 01 00:00:00
FILE "06. En Vogue - Don't Let Go (love).flac" WAVE
  TRACK 06 AUDIO
    TITLE "Don't Let Go (love)"
    PERFORMER "En Vogue"
    INDEX 01 00:00:00
FILE "07. East 17 - It's Alright.flac" WAVE
  TRACK 07 AUDIO
    TITLE "It's Alright"
    PERFORMER "East 17"
    INDEX 01 00:00:00
FILE "08. Stars On 45 - If You Could Read My Mind.flac" WAVE
  TRACK 08 AUDIO
    TITLE "If You Could Read My Mind"
    PERFORMER "Stars On 45"
    INDEX 01 00:00:00
FILE "09. De La Soul - Ring Ring Ring (ha ha hey).flac" WAVE
  TRACK 09 AUDIO
    TITLE "Ring Ring Ring (ha ha hey)"
    PERFORMER "De La Soul"
    INDEX 01 00:00:00
FILE "10. All Saints - Never Ever.flac" WAVE
  TRACK 10 AUDIO
    TITLE "Never Ever"
    PERFORMER "All Saints"
    INDEX 01 00:00:00
FILE "11. Simply Red - Fairground.flac" WAVE
  TRACK 11 AUDIO
    TITLE Fairground
    PERFORMER "Simply Red"
    INDEX 01 00:00:00
FILE "12. Gina G - Just A Little Bit (motiv8 radio edit).flac" WAVE
  TRACK 12 AUDIO
    TITLE "Just A Little Bit (motiv8 radio edit)"
    PERFORMER "Gina G"
    INDEX 01 00:00:00
FILE "13. Dario G - Sunchyme.flac" WAVE
  TRACK 13 AUDIO
    TITLE Sunchyme
    PERFORMER "Dario G"
    INDEX 01 00:00:00
FILE "14. Snap - The Power.flac" WAVE
  TRACK 14 AUDIO
    TITLE "The Power"
    PERFORMER Snap
    INDEX 01 00:00:00
FILE "15. Eifel 65 - Blue (da ba dee).flac" WAVE
  TRACK 15 AUDIO
    TITLE "Blue (da ba dee)"
    PERFORMER "Eifel 65"
    INDEX 01 00:00:00
FILE "16. Julee Cruise - Falling.flac" WAVE
  TRACK 16 AUDIO
    TITLE Falling
    PERFORMER "Julee Cruise"
    INDEX 01 00:00:00

CD 2

REM GENRE Other
REM DATE 2012
REM DISCID F40F3B11
REM COMMENT "Exact Audio Copy V1.0 beta 3"
PERFORMER "VA"
TITLE "All The ...90's CD2"
FILE "01. Deee-Lite - Groove Is In The Heart.flac" WAVE
  TRACK 01 AUDIO
    TITLE "Groove Is In The Heart"
    PERFORMER Deee-Lite
    INDEX 01 00:00:00
FILE "02. Everything But The Girl - Missing (todd terry remix).flac" WAVE
  TRACK 02 AUDIO
    TITLE "Missing (todd terry remix)"
    PERFORMER "Everything But The Girl"
    INDEX 01 00:00:00
FILE "03. Seal - Crazy.flac" WAVE
  TRACK 03 AUDIO
    TITLE Crazy
    PERFORMER Seal
    INDEX 01 00:00:00
FILE "04. Third Eye Blind - Semi-Charmed Life.flac" WAVE
  TRACK 04 AUDIO
    TITLE "Semi-Charmed Life"
    PERFORMER "Third Eye Blind"
    INDEX 01 00:00:00
FILE "05. Faith No More - Easy.flac" WAVE
  TRACK 05 AUDIO
    TITLE Easy
    PERFORMER "Faith No More"
    INDEX 01 00:00:00
FILE "06. Barenaked Ladies - One Week.flac" WAVE
  TRACK 06 AUDIO
    TITLE "One Week"
    PERFORMER "Barenaked Ladies"
    INDEX 01 00:00:00
FILE "07. The Rembrandts - I'll Be There For You (theme from friends).flac" WAVE
  TRACK 07 AUDIO
    TITLE "I'll Be There For You (theme from friends)"
    PERFORMER "The Rembrandts"
    INDEX 01 00:00:00
FILE "08. Pretenders - I'll Stand By You.flac" WAVE
  TRACK 08 AUDIO
    TITLE "I'll Stand By You"
    PERFORMER Pretenders
    INDEX 01 00:00:00
FILE "09. Alannah Myles - Black Velvet.flac" WAVE
  TRACK 09 AUDIO
    TITLE "Black Velvet"
    PERFORMER "Alannah Myles"
    INDEX 01 00:00:00
FILE "10. Mr Big - To Be With You.flac" WAVE
  TRACK 10 AUDIO
    TITLE "To Be With You"
    PERFORMER "Mr Big"
    INDEX 01 00:00:00
FILE "11. Stone Temple Pilots - Vasoline.flac" WAVE
  TRACK 11 AUDIO
    TITLE Vasoline
    PERFORMER "Stone Temple Pilots"
    INDEX 01 00:00:00
FILE "12. Filter - Take A Picture.flac" WAVE
  TRACK 12 AUDIO
    TITLE "Take A Picture"
    PERFORMER Filter
    INDEX 01 00:00:00
FILE "13. Collective Soul - Shine.flac" WAVE
  TRACK 13 AUDIO
    TITLE Shine
    PERFORMER "Collective Soul"
    INDEX 01 00:00:00
FILE "14. The Lemonheads - Mrs Robinson.flac" WAVE
  TRACK 14 AUDIO
    TITLE "Mrs Robinson"
    PERFORMER "The Lemonheads"
    INDEX 01 00:00:00
FILE "15. The B-52's - Roam.flac" WAVE
  TRACK 15 AUDIO
    TITLE Roam
    PERFORMER "The B-52's"
    INDEX 01 00:00:00
FILE "16. Taxiride - Get Set.flac" WAVE
  TRACK 16 AUDIO
    TITLE "Get Set"
    PERFORMER Taxiride
    INDEX 01 00:00:00
FILE "17. Bingo Boys - How To Dance.flac" WAVE
  TRACK 17 AUDIO
    TITLE "How To Dance"
    PERFORMER "Bingo Boys"
    INDEX 01 00:00:00

CD 3

REM GENRE Other
REM DATE 2012
REM DISCID F8106311
REM COMMENT "Exact Audio Copy V1.0 beta 3"
PERFORMER "VA"
TITLE "All The ...90's CD3"
FILE "01. All-4-One - I Swear.flac" WAVE
  TRACK 01 AUDIO
    TITLE "I Swear"
    PERFORMER All-4-One
    INDEX 01 00:00:00
FILE "02. Snap - Rhythm Is A Dancer.flac" WAVE
  TRACK 02 AUDIO
    TITLE "Rhythm Is A Dancer"
    PERFORMER Snap
    INDEX 01 00:00:00
FILE "03. D Ream - U R The Best Thing.flac" WAVE
  TRACK 03 AUDIO
    TITLE "U R The Best Thing"
    PERFORMER "D Ream"
    INDEX 01 00:00:00
FILE "04. Urban Cookie Collective - The Key The Secret (glamorously developed mix).flac" WAVE
  TRACK 04 AUDIO
    TITLE "The Key The Secret (glamorously developed mix)"
    PERFORMER "Urban Cookie Collective"
    INDEX 01 00:00:00
FILE "05. Utah Saints - Something Good.flac" WAVE
  TRACK 05 AUDIO
    TITLE "Something Good"
    PERFORMER "Utah Saints"
    INDEX 01 00:00:00
FILE "06. JX - Son Of A Gun.flac" WAVE
  TRACK 06 AUDIO
    TITLE "Son Of A Gun"
    PERFORMER JX
    INDEX 01 00:00:00
FILE "07. Color Me Badd - All 4 Love.flac" WAVE
  TRACK 07 AUDIO
    TITLE "All 4 Love"
    PERFORMER "Color Me Badd"
    INDEX 01 00:00:00
FILE "08. Silk - Freak Me.flac" WAVE
  TRACK 08 AUDIO
    TITLE "Freak Me"
    PERFORMER Silk
    INDEX 01 00:00:00
FILE "09. Tevin Campbell - Can We Talk.flac" WAVE
  TRACK 09 AUDIO
    TITLE "Can We Talk"
    PERFORMER "Tevin Campbell"
    INDEX 01 00:00:00
FILE "10. Jeremy Jordan - The Right Kind Of Love.flac" WAVE
  TRACK 10 AUDIO
    TITLE "The Right Kind Of Love"
    PERFORMER "Jeremy Jordan"
    INDEX 01 00:00:00
FILE "11. Sixpence None The Richer - Kiss Me.flac" WAVE
  TRACK 11 AUDIO
    TITLE "Kiss Me"
    PERFORMER "Sixpence None The Richer"
    INDEX 01 00:00:00
FILE "12. The Corrs - Runaway.flac" WAVE
  TRACK 12 AUDIO
    TITLE Runaway
    PERFORMER "The Corrs"
    INDEX 01 00:00:00
FILE "13. Jenny Morris - Break In The Weather.flac" WAVE
  TRACK 13 AUDIO
    TITLE "Break In The Weather"
    PERFORMER "Jenny Morris"
    INDEX 01 00:00:00
FILE "14. Shakespears Sister - Stay (radio mix).flac" WAVE
  TRACK 14 AUDIO
    TITLE "Stay (radio mix)"
    PERFORMER "Shakespears Sister"
    INDEX 01 00:00:00
FILE "15. Corona - Baby Baby.flac" WAVE
  TRACK 15 AUDIO
    TITLE "Baby Baby"
    PERFORMER Corona
    INDEX 01 00:00:00
FILE "16. The Tamperer feat. Maya - Feel It.flac" WAVE
  TRACK 16 AUDIO
    TITLE "Feel It"
    PERFORMER "The Tamperer feat. Maya"
    INDEX 01 00:00:00
FILE "17. Amber - This Is Your Night.flac" WAVE
  TRACK 17 AUDIO
    TITLE "This Is Your Night"
    PERFORMER Amber
    INDEX 01 00:00:00

Лог Audiochecker

CD 1

AUDIOCHECKER v2.0 beta (build 457) - by Dester - opdester@freemail.hu
~~~~~~~~~~~~~~~~~~~~~~~~~~~~~~~~~~
-=== НЕ РЕДАКТИРУЙТЕ ЭТОТ ФАЙЛ! ===-
Путь: ...\CD1
01 -=- 01. Snow - Informer.flac -=- CDDA (100%)
02 -=- 02. Coolio feat. L.V. - Gangsta's Paradise.flac -=- CDDA (100%)
03 -=- 03. Inner Circle - Sweat (a la la la la long).flac -=- CDDA (100%)
04 -=- 04. Mark Morrison - Return Of The Mack (c&j radio edit).flac -=- CDDA (100%)
05 -=- 05. Keith Sweat - Twisted.flac -=- CDDA (100%)
06 -=- 06. En Vogue - Don't Let Go (love).flac -=- CDDA (100%)
07 -=- 07. East 17 - It's Alright.flac -=- CDDA (100%)
08 -=- 08. Stars On 45 - If You Could Read My Mind.flac -=- CDDA (99%)
09 -=- 09. De La Soul - Ring Ring Ring (ha ha hey).flac -=- CDDA (99%)
10 -=- 10. All Saints - Never Ever.flac -=- CDDA (100%)
11 -=- 11. Simply Red - Fairground.flac -=- CDDA (100%)
12 -=- 12. Gina G - Just A Little Bit (motiv8 radio edit).flac -=- CDDA (100%)
13 -=- 13. Dario G - Sunchyme.flac -=- CDDA (100%)
14 -=- 14. Snap - The Power.flac -=- CDDA (100%)
15 -=- 15. Eifel 65 - Blue (da ba dee).flac -=- CDDA (100%)
16 -=- 16. Julee Cruise - Falling.flac -=- CDDA (100%)
Сводка 99,88% CDDA

CD 2

AUDIOCHECKER v2.0 beta (build 457) - by Dester - opdester@freemail.hu
~~~~~~~~~~~~~~~~~~~~~~~~~~~~~~~~~~
-=== НЕ РЕДАКТИРУЙТЕ ЭТОТ ФАЙЛ! ===-
Путь: ...\CD2
01 -=- 01. Deee-Lite - Groove Is In The Heart.flac -=- CDDA (100%)
02 -=- 02. Everything But The Girl - Missing (todd terry remix).flac -=- CDDA (100%)
03 -=- 03. Seal - Crazy.flac -=- CDDA (100%)
04 -=- 04. Third Eye Blind - Semi-Charmed Life.flac -=- CDDA (99%)
05 -=- 05. Faith No More - Easy.flac -=- CDDA (100%)
06 -=- 06. Barenaked Ladies - One Week.flac -=- CDDA (99%)
07 -=- 07. The Rembrandts - I'll Be There For You (theme from friends).flac -=- CDDA (100%)
08 -=- 08. Pretenders - I'll Stand By You.flac -=- CDDA (100%)
09 -=- 09. Alannah Myles - Black Velvet.flac -=- CDDA (100%)
10 -=- 10. Mr Big - To Be With You.flac -=- CDDA (99%)
11 -=- 11. Stone Temple Pilots - Vasoline.flac -=- CDDA (100%)
12 -=- 12. Filter - Take A Picture.flac -=- CDDA (100%)
13 -=- 13. Collective Soul - Shine.flac -=- CDDA (99%)
14 -=- 14. The Lemonheads - Mrs Robinson.flac -=- CDDA (100%)
15 -=- 15. The B-52's - Roam.flac -=- CDDA (100%)
16 -=- 16. Taxiride - Get Set.flac -=- CDDA (100%)
17 -=- 17. Bingo Boys - How To Dance.flac -=- CDDA (100%)
Сводка 99,76% CDDA

CD 3

AUDIOCHECKER v2.0 beta (build 457) - by Dester - opdester@freemail.hu
~~~~~~~~~~~~~~~~~~~~~~~~~~~~~~~~~~
-=== НЕ РЕДАКТИРУЙТЕ ЭТОТ ФАЙЛ! ===-
Путь: ...\CD3
01 -=- 01. All-4-One - I Swear.flac -=- CDDA (100%)
02 -=- 02. Snap - Rhythm Is A Dancer.flac -=- CDDA (100%)
03 -=- 03. D Ream - U R The Best Thing.flac -=- CDDA (100%)
04 -=- 04. Urban Cookie Collective - The Key The Secret (glamorously developed mix).flac -=- MPEG (95%)
05 -=- 05. Utah Saints - Something Good.flac -=- CDDA (100%)
06 -=- 06. JX - Son Of A Gun.flac -=- CDDA (100%)
07 -=- 07. Color Me Badd - All 4 Love.flac -=- CDDA (100%)
08 -=- 08. Silk - Freak Me.flac -=- CDDA (76%)
09 -=- 09. Tevin Campbell - Can We Talk.flac -=- CDDA (99%)
10 -=- 10. Jeremy Jordan - The Right Kind Of Love.flac -=- CDDA (100%)
11 -=- 11. Sixpence None The Richer - Kiss Me.flac -=- CDDA (100%)
12 -=- 12. The Corrs - Runaway.flac -=- CDDA (100%)
13 -=- 13. Jenny Morris - Break In The Weather.flac -=- CDDA (86%)
14 -=- 14. Shakespears Sister - Stay (radio mix).flac -=- CDDA (99%)
15 -=- 15. Corona - Baby Baby.flac -=- CDDA (100%)
16 -=- 16. The Tamperer feat. Maya - Feel It.flac -=- CDDA (100%)
17 -=- 17. Amber - This Is Your Night.flac -=- CDDA (100%)
Сводка 92,06% CDDA

Скриншот спектра частот

--Не забываем говорить
[Профиль] [ЛС]

Создавать темы 13-Авг-2015 11:16 (спустя 5 месяцев 22 дня)

Топик был перенесен из форума Сборники в форум Music from other genres
sergej644
 
Показать сообщения:    

Текущее время: Сегодня 12:29

Часовой пояс: GMT



Вы не можете начинать темы
Вы не можете отвечать на сообщения
Вы не можете редактировать свои сообщения
Вы не можете удалять свои сообщения
Вы не можете голосовать в опросах
Вы не можете прикреплять файлы к сообщениям
Вы не можете скачивать файлы