(Italo-Disco,Synth-pop) VA - 80's Revolution - Disco Fox Volume 2 (2 CD) - 2010, FLAC (image+.cue) lossless

 
Автор Сообщение

sergej644 ®

Пол:

Стаж: 4 года 11 месяцев

Сообщений: 6044

Откуда: Soviet Union



Награды: Нет

Торрент-статистика

Создавать темы 10-Дек-2014 14:54

[Цитировать]

Various Artists - 80's Revolution - Disco Fox Volume 2 (2 CD)
Жанр: Italo-Disco,Synth-pop
Страна-производитель диска: Germany
Год издания диска: 2010
Издатель (лейбл): ZYX Music
Номер по каталогу: ZYX 82412-2
Аудио кодек: FLAC (*.flac)
Тип рипа: image+.cue
Битрейт аудио: lossless
Продолжительность: 1:16:31+1:18:29
Источник (релизер): zbyk1975
Наличие сканов в содержимом раздачи: да
Треклист:

CD 1

01. PET SHOP BOYS - West End Girls (Remix'86) 5:00
02. FACTS & FICTION – Give Me The Night (Extended) 6:15
03. LUISA - Parole (Extended Version) 7:28
04. ROXANNE - Boys In Black Cars (Dance-Remix) (Vocal) 5:23
05. THE HURRICANES – Only One Night (Extended Version) 5:22
06. M.C. Miker G & DJ Sven - Holiday Rap (Extended) 6:30
07. LATIN LOVER – Casanova Action ('87 Re-Edit) 6:20
08. JOY PETERS – Don't Loose Your Heart Tonight (Extended Version) 5:20
09. SABRINA - All Of Me (Extended Version) 5:11
10. NEIL SMITH - Help Me Through The Summer (The Palm Beach Remix) 8:28
11. NICK STRAKER - A Walk In The Park (PWL Remix) 6:33
12. MIQUEL BROWN - So Many Man, So Little Time (Extedned Version) 8:00

CD 2

01. FANCY – Flames Of Love (Extented Version) 5:20
02. DJ's PROJECT - Vision Of Love (Extended Vocal Version) 7:46
03. MAURO - Buona Sera - Ciao Ciao (Club Mix) 7:20
04. BAD BOYS BLUE - Gimme Gimme Your Lovin' (Little Lady) (Long Version) 5:09
05. LINDA JO RIZZO - Heartflash (Tonight) (Extended Swedish Remix) 7:25
06. O.K. - Okay! (International Version) 6:16
07. MOZZART - Malice And Vice (Extended Version) 5:10
08. SAMMY ALLEN - Slave To Love (Extended Version) 6:01
09. DOLLAR - Oh L'Amour (The Extra Beat Boys Mix) 6:53
10. DEL FARO - Don't Let Me Down (Digital Remix) 5:30
11. NEW BACCARA - Fantasy Boy (Hot Cut Mix) 5:42
12. EVELYN THOMAS - High Energy (Special Remix) 9:35

Отчёт EAC CD 1

Exact Audio Copy V1.0 beta 1 from 15. November 2010
EAC extraction logfile from 8. January 2011, 21:18
Various / 80'S Revolution Disco Fox Vol. 2 - Disc 1
Used drive : PIONEER DVD-RW DVR-215 Adapter: 1 ID: 0
Read mode : Secure
Utilize accurate stream : Yes
Defeat audio cache : Yes
Make use of C2 pointers : No
Read offset correction : 48
Overread into Lead-In and Lead-Out : No
Fill up missing offset samples with silence : Yes
Delete leading and trailing silent blocks : No
Null samples used in CRC calculations : Yes
Used interface : Native Win32 interface for Win NT & 2000
Used output format : User Defined Encoder
Selected bitrate : 1024 kBit/s
Quality : High
Add ID3 tag : No
Command line compressor : G:\PROGRAMY\EAC\Exact Audio Copy\FLAC\flac.exe
Additional command line options : -8 -V -T "ARTIST=%a" -T "TITLE=%t" -T "ALBUM=%g" -T "DATE=%y" -T "TRACKNUMBER=%n" -T "GENRE=%m" -T "COMMENT=EAC FLAC -8" %s
TOC of the extracted CD
Track | Start | Length | Start sector | End sector
---------------------------------------------------------
1 | 0:00.00 | 5:02.22 | 0 | 22671
2 | 5:02.22 | 6:15.74 | 22672 | 50870
3 | 11:18.21 | 7:26.74 | 50871 | 84394
4 | 18:45.20 | 5:25.74 | 84395 | 108843
5 | 24:11.19 | 5:52.74 | 108844 | 135317
6 | 30:04.18 | 6:22.74 | 135318 | 164041
7 | 36:27.17 | 6:16.74 | 164042 | 192315
8 | 42:44.16 | 5:22.74 | 192316 | 216539
9 | 48:07.15 | 5:11.74 | 216540 | 239938
10 | 53:19.14 | 8:27.74 | 239939 | 278037
11 | 61:47.13 | 6:28.74 | 278038 | 307211
12 | 68:16.12 | 8:14.73 | 307212 | 344334
Range status and errors
Selected range
Filename G:\Music\Various - 80's Revolution - Disco Fox Volume 2\Various - 80's Revolution - Disco Fox Volume 2 CD1\Various - 80'S Revolution Disco Fox Vol. 2 - Disc 1.wav
Peak level 98.5 %
Extraction speed 0.9 X
Range quality 99.9 %
Test CRC 54912BFA
Copy CRC 54912BFA
Copy OK
No errors occurred
AccurateRip summary
Track 1 not present in database
Track 2 not present in database
Track 3 not present in database
Track 4 not present in database
Track 5 not present in database
Track 6 not present in database
Track 7 not present in database
Track 8 not present in database
Track 9 not present in database
Track 10 not present in database
Track 11 not present in database
Track 12 not present in database
None of the tracks are present in the AccurateRip database
End of status report

Отчёт EAC CD 2

Exact Audio Copy V1.0 beta 1 from 15. November 2010
EAC extraction logfile from 8. January 2011, 22:14
Various Artists / 80'S Revolution Disco Fox Vol. 2 - Disc 2
Used drive : PIONEER DVD-RW DVR-215 Adapter: 1 ID: 0
Read mode : Secure
Utilize accurate stream : Yes
Defeat audio cache : Yes
Make use of C2 pointers : No
Read offset correction : 48
Overread into Lead-In and Lead-Out : No
Fill up missing offset samples with silence : Yes
Delete leading and trailing silent blocks : No
Null samples used in CRC calculations : Yes
Used interface : Native Win32 interface for Win NT & 2000
Used output format : User Defined Encoder
Selected bitrate : 1024 kBit/s
Quality : High
Add ID3 tag : No
Command line compressor : G:\PROGRAMY\EAC\Exact Audio Copy\FLAC\flac.exe
Additional command line options : -8 -V -T "ARTIST=%a" -T "TITLE=%t" -T "ALBUM=%g" -T "DATE=%y" -T "TRACKNUMBER=%n" -T "GENRE=%m" -T "COMMENT=EAC FLAC -8" %s
TOC of the extracted CD
Track | Start | Length | Start sector | End sector
---------------------------------------------------------
1 | 0:00.00 | 5:22.74 | 0 | 24223
2 | 5:22.74 | 7:52.74 | 24224 | 59697
3 | 13:15.73 | 7:22.74 | 59698 | 92921
4 | 20:38.72 | 5:07.74 | 92922 | 116020
5 | 25:46.71 | 7:26.74 | 116021 | 149544
6 | 33:13.70 | 6:18.74 | 149545 | 177968
7 | 39:32.69 | 5:21.74 | 177969 | 202117
8 | 44:54.68 | 5:51.74 | 202118 | 228516
9 | 50:46.67 | 6:52.74 | 228517 | 259490
10 | 57:39.66 | 5:33.74 | 259491 | 284539
11 | 63:13.65 | 5:38.74 | 284540 | 309963
12 | 68:52.64 | 9:36.74 | 309964 | 353237
Range status and errors
Selected range
Filename G:\Music\Various - 80's Revolution - Disco Fox Volume 2\Various - 80's Revolution - Disco Fox Volume 2 CD2\Various Artists - 80'S Revolution Disco Fox Vol. 2 - Disc 2.wav
Peak level 97.4 %
Extraction speed 1.0 X
Range quality 100.0 %
Test CRC DA45BF18
Copy CRC DA45BF18
Copy OK
No errors occurred
AccurateRip summary
Track 1 not present in database
Track 2 not present in database
Track 3 not present in database
Track 4 not present in database
Track 5 not present in database
Track 6 not present in database
Track 7 not present in database
Track 8 not present in database
Track 9 not present in database
Track 10 not present in database
Track 11 not present in database
Track 12 not present in database
None of the tracks are present in the AccurateRip database
End of status report
[Профиль] [ЛС]

Создавать темы 13-Авг-2015 11:32 (спустя 8 месяцев 2 дня)

Топик был перенесен из форума Сборники в форум Music from other genres
sergej644
 
Показать сообщения:    

Текущее время: Сегодня 10:06

Часовой пояс: GMT



Вы не можете начинать темы
Вы не можете отвечать на сообщения
Вы не можете редактировать свои сообщения
Вы не можете удалять свои сообщения
Вы не можете голосовать в опросах
Вы не можете прикреплять файлы к сообщениям
Вы не можете скачивать файлы