(Dance, Pop) VA - Танцевальный Рай 32 - 2013 [FLAC, image+.cue, lossless]

 
Автор Сообщение

sergej644 ®

Пол:

Стаж: 4 года 11 месяцев

Сообщений: 6041

Откуда: Soviet Union



Награды: Нет

Торрент-статистика

Создавать темы 24-Окт-2014 09:02

[Цитировать]

-Various Artists - Танцевальный Рай 32--Год издания: 2013
Жанр: Dance, Pop
Продолжительность: 01:15:57-Лейбл издания: Танцевальный Рай
Номер по каталогу: TР-866
Формат: FLAC
Битрейт аудио: lossless
Тип рипа: image+.cue
Наличие сканов в содержимом раздачи: да-

Трэклист

01. Rameez - La La La (Radio Edit)
02. Avicii - Wake Me Up
03. Stromae - Papaoutai
04. Muttonheads feat. Eden Martin - Snow White (Alive) (Radio Edit)
05. Capital Cities - Safe And Sound
06. Arty - Take Me Away (Grand Finale) (Edit)
07. Dj Samuel Kimko - La Zumbera (Jack Mazzoni vs. Christopher Vitale Remix)
08. Radio Killer feat. Junior Caldera - Beautiful People (Radio Edit)
09. Infected Mushroom feat. Hope 6 - Where Do I Belong
10. LoL Deejays vs. Minelli & FYI - Portilla de Bobo (Bodybangers Remix)
11. Mish & Movetown feat. Big Daddi - How We Do (DJ Nejtrino & DJ Baur Remix)
12. DJ Kuba & Neltan feat. Nicco - Body Move (Jump) (Radio Edit)
13. Otto Le Blanc & Alain Prideux - Loco (Radio Edit)
14. Gordon & Doyle - Let's Go Crazy (Radio Edit)
15. Lolita Jolie - I Wanna Dance With You (Video Edit)
16. Dexter & Gold - Gonna Make You Sweat (Everybody Dance Now) (Radio Edit)
17. Jordi MB feat. Eimy Sue - Close Your Eyes (Radio Edit)
18. Scotty & Ray K. - Let The Beat Hit Em (Scotty Remix Edit)
19. Example - Crying Out For Help [4:15.38]
20. Colmo & Masta - Get Up (Original Mix)

Лог создания рипа

Exact Audio Copy V0.99 prebeta 3 from 28. July 2007
Отчёт EAC об извлечении, выполненном 4. января 2014, 1:40
Various / Танцевальный рай 32
Дисковод: Optiarc DVD RW AD-7203A Adapter: 0 ID: 0
Режим чтения : Достоверность
Использование точного потока : Да
Отключение кэша аудио : Да
Использование указателей C2 : Нет
Коррекция смещения при чтении : 48
Способность читать области Lead-in и Lead-out : Нет
Заполнение пропущенных сэмплов тишиной : Да
Удаление блоков с тишиной в начале и конце : Нет
При вычислениях CRC использовались нулевые сэмплы : Да
Интерфейс : Встроенный Win32-интерфейс для Win NT/2000
Выходной формат : Внутренние WAV-операции
Формат сэмплов : 44.100 Гц; 16 бит; стерео
TOC извлечённого CD
Трек | Старт | Длительность | Начальный сектор | Конечный сектор
---------------------------------------------------------------------
1 | 0:00.00 | 3:10.12 | 0 | 14261
2 | 3:10.12 | 4:11.51 | 14262 | 33137
3 | 7:21.63 | 3:53.38 | 33138 | 50650
4 | 11:15.26 | 3:20.15 | 50651 | 65665
5 | 14:35.41 | 3:12.65 | 65666 | 80130
6 | 17:48.31 | 3:41.40 | 80131 | 96745
7 | 21:29.71 | 4:32.74 | 96746 | 117219
8 | 26:02.70 | 3:11.24 | 117220 | 131568
9 | 29:14.19 | 3:28.36 | 131569 | 147204
10 | 32:42.55 | 3:06.27 | 147205 | 161181
11 | 35:49.07 | 4:49.38 | 161182 | 182894
12 | 40:38.45 | 3:14.23 | 182895 | 197467
13 | 43:52.68 | 4:13.56 | 197468 | 216498
14 | 48:06.49 | 3:45.10 | 216499 | 233383
15 | 51:51.59 | 2:45.57 | 233384 | 245815
16 | 54:37.41 | 2:41.28 | 245816 | 257918
17 | 57:18.69 | 3:19.40 | 257919 | 272883
18 | 60:38.34 | 3:45.17 | 272884 | 289775
19 | 64:23.51 | 4:15.38 | 289776 | 308938
20 | 68:39.14 | 7:18.32 | 308939 | 341820
Характеристики диапазона извлечения и сообщения об ошибках
Выбранный диапазон
Имя файла D:\VA - Dance Paradise 32 '13\Various - Танцевальный рай 32.wav
Пиковый уровень 100.0 %
Качество диапазона 100.0 %
CRC теста DCDA5C83
CRC копии DCDA5C83
Копирование... OK
Ошибок не произошло
AccurateRip: сводка
Трек 1 нет в базе данных
Трек 2 нет в базе данных
Трек 3 нет в базе данных
Трек 4 нет в базе данных
Трек 5 нет в базе данных
Трек 6 нет в базе данных
Трек 7 нет в базе данных
Трек 8 нет в базе данных
Трек 9 нет в базе данных
Трек 10 нет в базе данных
Трек 11 нет в базе данных
Трек 12 нет в базе данных
Трек 13 нет в базе данных
Трек 14 нет в базе данных
Трек 15 нет в базе данных
Трек 16 нет в базе данных
Трек 17 нет в базе данных
Трек 18 нет в базе данных
Трек 19 нет в базе данных
Трек 20 нет в базе данных
Ни одного трека нет в базе AccurateRip
Конец отчёта

Индексная карта (non-compilant .cue)

REM GENRE Dance
REM DATE 2013
REM DISCID 1F11CD14
REM COMMENT "ExactAudioCopy v0.99pb3. SiriusNightE for flacmusic.ru"
PERFORMER "Various"
TITLE "Танцевальный рай 32"
FILE "Various - Танцевальный рай 32.flac" WAVE
TRACK 01 AUDIO
TITLE "La La La (Radio Edit)"
PERFORMER "Rameez"
FLAGS DCP
INDEX 01 00:00:00
TRACK 02 AUDIO
TITLE "Wake Me Up"
PERFORMER "Avicii"
FLAGS DCP
INDEX 00 03:08:12
INDEX 01 03:10:12
TRACK 03 AUDIO
TITLE "Papaoutai"
PERFORMER "Stromae"
FLAGS DCP
INDEX 00 07:19:63
INDEX 01 07:21:63
TRACK 04 AUDIO
TITLE "Snow White (Alive) (Radio Edit)"
PERFORMER "Muttonheads feat. Eden Martin"
FLAGS DCP
INDEX 00 11:13:26
INDEX 01 11:15:26
TRACK 05 AUDIO
TITLE "Safe And Sound"
PERFORMER "Capital Cities"
FLAGS DCP
INDEX 00 14:33:41
INDEX 01 14:35:41
TRACK 06 AUDIO
TITLE "Take Me Away (Grand Finale) (Edit)"
PERFORMER "Arty"
FLAGS DCP
INDEX 00 17:46:31
INDEX 01 17:48:31
TRACK 07 AUDIO
TITLE "La Zumbera (Jack Mazzoni vs. Christopher Vitale Remix)"
PERFORMER "Dj Samuel Kimko"
FLAGS DCP
INDEX 00 21:27:71
INDEX 01 21:29:71
TRACK 08 AUDIO
TITLE "Beautiful People (Radio Edit)"
PERFORMER "Radio Killer feat. Junior Caldera"
FLAGS DCP
INDEX 00 26:00:70
INDEX 01 26:02:70
TRACK 09 AUDIO
TITLE "Where Do I Belong"
PERFORMER "Infected Mushroom feat. Hope 6"
FLAGS DCP
INDEX 00 29:12:19
INDEX 01 29:14:19
TRACK 10 AUDIO
TITLE "Portilla de Bobo (Bodybangers Remix)"
PERFORMER "LoL Deejays vs. Minelli & FYI"
FLAGS DCP
INDEX 00 32:40:55
INDEX 01 32:42:55
TRACK 11 AUDIO
TITLE "How We Do (DJ Nejtrino & DJ Baur Remix)"
PERFORMER "Mish & Movetown feat. Big Daddi"
FLAGS DCP
INDEX 00 35:47:07
INDEX 01 35:49:07
TRACK 12 AUDIO
TITLE "Body Move (Jump) (Radio Edit)"
PERFORMER "DJ Kuba & Neltan feat. Nicco"
FLAGS DCP
INDEX 00 40:36:45
INDEX 01 40:38:45
TRACK 13 AUDIO
TITLE "Loco (Radio Edit)"
PERFORMER "Otto Le Blanc & Alain Prideux"
FLAGS DCP
INDEX 00 43:50:68
INDEX 01 43:52:68
TRACK 14 AUDIO
TITLE "Let's Go Crazy (Radio Edit)"
PERFORMER "Gordon & Doyle"
FLAGS DCP
INDEX 00 48:04:49
INDEX 01 48:06:49
TRACK 15 AUDIO
TITLE "I Wanna Dance With You (Video Edit)"
PERFORMER "Lolita Jolie"
FLAGS DCP
INDEX 00 51:49:59
INDEX 01 51:51:59
TRACK 16 AUDIO
TITLE "Gonna Make You Sweat (Everybody Dance Now) (Radio Edit)"
PERFORMER "Dexter & Gold"
FLAGS DCP
INDEX 00 54:35:41
INDEX 01 54:37:41
INDEX 02 54:43:12
TRACK 17 AUDIO
TITLE "Close Your Eyes (Radio Edit)"
PERFORMER "Jordi MB feat. Eimy Sue"
FLAGS DCP
INDEX 00 57:16:69
INDEX 01 57:18:69
TRACK 18 AUDIO
TITLE "Let The Beat Hit Em (Scotty Remix Edit)"
PERFORMER "Scotty & Ray K."
FLAGS DCP
INDEX 00 60:36:34
INDEX 01 60:38:34
TRACK 19 AUDIO
TITLE "Crying Out For Help"
PERFORMER "Example"
FLAGS DCP
INDEX 00 64:21:51
INDEX 01 64:23:51
TRACK 20 AUDIO
TITLE "Get Up (Original Mix)"
PERFORMER "Colmo & Masta"
FLAGS DCP
INDEX 00 68:37:14
INDEX 01 68:39:14

Лог Audiochecker

AUDIOCHECKER v2.0 beta (build 457) - by Dester - opdester@freemail.hu
~~~~~~~~~~~~~~~~~~~~~~~~~~~~~~~~~~
-=== НЕ РЕДАКТИРУЙТЕ ЭТОТ ФАЙЛ! ===-
Путь: ...\VA - Танцевальный рай -32. 2013
1 -=- Various - Танцевальный рай 32.wav -=- CDDA (100%)
11196724

Об альбоме (сборнике)

Компания «Танцевальный Рай» выпускает новый сборник лучшей музыки в стиле dance «Танцевальный рай 32».
В новой компиляции «Танцевальный Рай 32» собраны лучшие хиты года от топовых диджеев и исполнителей: новый хит от создателя «Alors on danse», 28-летнего музыканта из Бельгии Stromae - «Papaoutai», хит-сингл диджея и продюсера номер 1 Avicii - "Wake Me Up" с вокалом американского соул-певца Aloe Blacc, топ-10 канала «Муз-тв» Rameez с композицией «La La La», рвущий чарты сингл американского дуэта «Capital Cities» - "Safe and Sound", а также лидеры мировых чартов: Muttonheads, ARTY, Example, LoL Deejays, Radio Killer feat. Junior Caldera и многие другие.
[Профиль] [ЛС]

Создавать темы 13-Авг-2015 10:05 (спустя 9 месяцев 20 дней)

Топик был перенесен из форума Отечественная в форум Pop
sergej644
 
Показать сообщения:    

Текущее время: Сегодня 08:33

Часовой пояс: GMT



Вы не можете начинать темы
Вы не можете отвечать на сообщения
Вы не можете редактировать свои сообщения
Вы не можете удалять свои сообщения
Вы не можете голосовать в опросах
Вы не можете прикреплять файлы к сообщениям
Вы не можете скачивать файлы