(Pop, Dance) VA - Танцевальный рай 31 - 2013 [FLAC, image+.cue, lossless]

 
Автор Сообщение

sergej644 ®

Пол:

Стаж: 4 года 11 месяцев

Сообщений: 6035

Откуда: Soviet Union



Награды: Нет

Торрент-статистика

Создавать темы 24-Окт-2014 09:01

[Цитировать]

-Various Artists - Танцевальный рай 31--Год издания: 2013
Жанр: Pop, Dance
Продолжительность: 01:04:13-Лейбл издания: Танцевальный рай, ArturMusic
Номер по каталогу: АМ КД-454
Формат: FLAC
Битрейт аудио: lossless
Тип рипа: image+.cue
Наличие сканов в содержимом раздачи: да-

Трэклист

01. Anise K feat Snoop Dogg & Bella Blue - Walking on Air
02. Avicii vs Nicky Romero - I Could Be The One
03. Ahmed Chawki ft Pitbull - Habibi I Love you
04. Lykke Li - Lykke Li
05. Mia Martina - Tu Me Manques
06. Daniel Powter - Crazy All My Life
07. Alex Clare - Too Close
08. Katia Ronaldo feat Wildboyz - Boom Sem Parar
09. Betoko - Raining Again
10. Michael Mind Project - Antiheroes
11. Milk Inc. - Last Night a DJ Saved My Life
12. Kodie - All Night Long
13. Duke Dumont - Need U 100%
14. Alex Ferrari - Te Pego
15. Example - Queen of Your Dreams
16. Turbotronic - Ye Ye Ye
17. Trap - Harlem Shake
18. GUENTA K. vs. SHAUN BAKER feat. SKI & REAL DJANES - Pussy DJane
19. Global Deejays & Chris Willis - Party 2 Daylight
20. Lolita Jolie - Moi Lolita

Лог создания рипа

Exact Audio Copy V1.0 beta 3 from 29. August 2011
Отчёт EAC об извлечении, выполненном 7. января 2014, 8:44
Various Artists / Танцевальный рай 31
Дисковод: TSSTcorpCDDVDW TS-L633J Adapter: 0 ID: 1
Режим чтения : Достоверность
Использование точного потока : Да
Отключение кэша аудио : Да
Использование указателей C2 : Нет
Коррекция смещения при чтении : 6
Способность читать области Lead-in и Lead-out : Нет
Заполнение пропущенных сэмплов тишиной : Да
Удаление блоков с тишиной в начале и конце : Нет
При вычислениях CRC использовались нулевые сэмплы : Да
Интерфейс : Встроенный Win32-интерфейс для Win NT/2000
Выходной формат : Пользовательский кодировщик
Выбранный битрейт : 1024 kBit/s
Качество : Высокий
Добавление ID3-тега : Нет
Утилита сжатия : C:\Program Files (x86)\Exact Audio Copy\FLAC\FLAC.EXE
Дополнительные параметры : -8 -V -T "ARTIST=%artist%" -T "TITLE=%title%" -T "ALBUM=%albumtitle%" -T "DATE=%year%" -T "TRACKNUMBER=%tracknr%" -T "GENRE=%genre%" -T "COMMENT=%comment%" -T "BAND=%albuminterpret%" -T "ALBUMARTIST=%albuminterpret%" -T "COMPOSER=%composer%" %haslyrics%--tag-from-file=LYRICS="%lyricsfile%"%haslyrics% -T "DISCNUMBER=%cdnumber%" -T "TOTALDISCS=%totalcds%" -T "TOTALTRACKS=%numtracks%" %hascover%--picture="%coverfile%"%hascover% %source% -o %dest%
TOC извлечённого CD
Трек | Старт | Длительность | Начальный сектор | Конечный сектор
---------------------------------------------------------------------
1 | 0:00.00 | 3:48.34 | 0 | 17133
2 | 3:48.34 | 3:30.23 | 17134 | 32906
3 | 7:18.57 | 3:42.09 | 32907 | 49565
4 | 11:00.66 | 4:41.05 | 49566 | 70645
5 | 15:41.71 | 3:51.00 | 70646 | 87970
6 | 19:32.71 | 4:26.66 | 87971 | 107986
7 | 23:59.62 | 3:43.46 | 107987 | 124757
8 | 27:43.33 | 3:25.40 | 124758 | 140172
9 | 31:08.73 | 8:09.01 | 140173 | 176848
10 | 39:17.74 | 3:45.73 | 176849 | 193796
11 | 43:03.72 | 3:36.01 | 193797 | 209997
12 | 46:39.73 | 2:35.23 | 209998 | 221645
13 | 49:15.21 | 2:54.36 | 221646 | 234731
14 | 52:09.57 | 3:10.49 | 234732 | 249030
15 | 55:20.31 | 3:14.01 | 249031 | 263581
16 | 58:34.32 | 3:55.21 | 263582 | 281227
17 | 62:29.53 | 3:17.19 | 281228 | 296021
18 | 65:46.72 | 3:30.24 | 296022 | 311795
19 | 69:17.21 | 3:11.11 | 311796 | 326131
20 | 72:28.32 | 4:41.62 | 326132 | 347268
Характеристики диапазона извлечения и сообщения об ошибках
Выбранный диапазон
Имя файла D:\VA - Танцевальный рай -31. 2013\Various Artists - Танцевальный рай 31.wav
Пиковый уровень 100.0 %
Скорость извлечения 3.4 X
Качество диапазона 100.0 %
CRC теста D181D636
CRC копии D181D636
Копирование... OK
Ошибок не произошло
AccurateRip: сводка
Трек 1 точность не определена (достоверность 3) [AD0158D5], AccurateRip вернул [5B52EA19] (AR v2)
Трек 2 точность не определена (достоверность 3) [F9DF9792], AccurateRip вернул [79F12A69] (AR v2)
Трек 3 точность не определена (достоверность 3) [A534B2F7], AccurateRip вернул [D47B057A] (AR v2)
Трек 4 точность не определена (достоверность 3) [565B10AD], AccurateRip вернул [424BCC71] (AR v2)
Трек 5 точность не определена (достоверность 3) [00E641A5], AccurateRip вернул [25249F7D] (AR v2)
Трек 6 точность не определена (достоверность 3) [48C6C7F0], AccurateRip вернул [2A55DA16] (AR v2)
Трек 7 точность не определена (достоверность 3) [2E0C9654], AccurateRip вернул [FF73BFD0] (AR v2)
Трек 8 точность не определена (достоверность 3) [17895E38], AccurateRip вернул [6B86E14A] (AR v2)
Трек 9 точность не определена (достоверность 3) [68135C20], AccurateRip вернул [6066ED88] (AR v2)
Трек 10 точность не определена (достоверность 3) [EE2CFE5B], AccurateRip вернул [0F3ABE29] (AR v2)
Трек 11 точность не определена (достоверность 3) [309412D6], AccurateRip вернул [A15D7D05] (AR v2)
Трек 12 точность не определена (достоверность 3) [F790197B], AccurateRip вернул [08F0C412] (AR v2)
Трек 13 точность не определена (достоверность 3) [3A9F39C8], AccurateRip вернул [3657EB02] (AR v2)
Трек 14 точность не определена (достоверность 3) [44398941], AccurateRip вернул [06F96B7E] (AR v2)
Трек 15 точность не определена (достоверность 3) [7C907AFC], AccurateRip вернул [6ADAD064] (AR v2)
Трек 16 точность не определена (достоверность 3) [774837E9], AccurateRip вернул [21A8F2A8] (AR v2)
Трек 17 точность не определена (достоверность 3) [5C801531], AccurateRip вернул [1A470512] (AR v2)
Трек 18 точность не определена (достоверность 3) [CEE2842C], AccurateRip вернул [59A0E27E] (AR v2)
Трек 19 точность не определена (достоверность 3) [98ED2D73], AccurateRip вернул [1C7E61DB] (AR v2)
Трек 20 точность не определена (достоверность 3) [28B698EF], AccurateRip вернул [1A3C02F8] (AR v2)
Ни один трек не прошёл проверки на точность
В вашей базе может быть иной вариант штамповки диска
Конец отчёта
==== Контрольная сумма отчёта 1ED93A177644175A011A090F0BED649D2BC60F8DE547939284C7C356679683A6 ====

Индексная карта (non-compilant .cue)

REM GENRE pop
REM DATE 2013
REM DISCID 18121614
REM COMMENT "ExactAudioCopy v1.0b3"
PERFORMER "Various Artists"
TITLE "Танцевальный рай 31"
FILE "Various Artists - Танцевальный рай 31.flac" WAVE
TRACK 01 AUDIO
TITLE "Walking on Air"
PERFORMER "Anise K feat Snoop Dogg & Bella Blue"
INDEX 01 00:00:00
TRACK 02 AUDIO
TITLE "I Could Be The One"
PERFORMER "Avicii vs Nicky Romero "
INDEX 01 03:48:34
TRACK 03 AUDIO
TITLE "Habibi I Love you"
PERFORMER "Ahmed Chawki ft Pitbull "
INDEX 01 07:18:57
TRACK 04 AUDIO
TITLE " Lykke Li "
PERFORMER "Lykke Li "
INDEX 01 11:00:66
TRACK 05 AUDIO
TITLE "Tu Me Manques"
PERFORMER "Mia Martina"
INDEX 01 15:41:71
TRACK 06 AUDIO
TITLE "Crazy All My Life"
PERFORMER "Daniel Powter "
INDEX 01 19:32:71
TRACK 07 AUDIO
TITLE "Too Close"
PERFORMER "Alex Clare"
INDEX 01 23:59:62
TRACK 08 AUDIO
TITLE "Boom Sem Parar"
PERFORMER "Katia Ronaldo feat Wildboyz "
INDEX 01 27:43:33
TRACK 09 AUDIO
TITLE "Raining Again"
PERFORMER "Betoko"
INDEX 01 31:08:73
TRACK 10 AUDIO
TITLE "Antiheroes"
PERFORMER "Michael Mind Project"
INDEX 01 39:17:74
TRACK 11 AUDIO
TITLE "Last Night a DJ Saved My Life"
PERFORMER "Milk Inc."
INDEX 01 43:03:72
TRACK 12 AUDIO
TITLE "All Night Long"
PERFORMER "Kodie"
INDEX 01 46:39:73
TRACK 13 AUDIO
TITLE "Need U 100%"
PERFORMER "Duke Dumont"
INDEX 01 49:15:21
TRACK 14 AUDIO
TITLE "Te Pego"
PERFORMER "Alex Ferrari "
INDEX 01 52:09:57
TRACK 15 AUDIO
TITLE "Queen of Your Dreams"
PERFORMER "Example "
INDEX 01 55:20:31
TRACK 16 AUDIO
TITLE "Ye Ye Ye"
PERFORMER "Turbotronic"
INDEX 01 58:34:32
TRACK 17 AUDIO
TITLE "Harlem Shake"
PERFORMER "Trap "
INDEX 01 62:29:53
TRACK 18 AUDIO
TITLE "Pussy DJane"
PERFORMER "GUENTA K. vs. SHAUN BAKER feat. SKI & REAL DJANES"
INDEX 01 65:46:72
TRACK 19 AUDIO
TITLE "Party 2 Daylight"
PERFORMER "Global Deejays & Chris Willis"
INDEX 01 69:17:21
TRACK 20 AUDIO
TITLE "Moi Lolita"
PERFORMER "Lolita Jolie"
INDEX 01 72:28:32

Об альбоме (сборнике)

Новый номерной сборник легендарной серии «Танцевальный рай 31» с самыми горячими хитами! В новой компиляции «Танцевальный рай 31» собраны лучшие хиты от хэдлайнеров клубной сцены и музыкальных хит-парадов: Avicii vs Nicky Romero – «I Could Be The One», Duke Dumont – «Need U 100%», Lykke Li – «I Follow Rivers», Alex Clare – «Too Close», Alex Ferrari – «Te Pego» и многие другие.
[Профиль] [ЛС]

Создавать темы 13-Авг-2015 10:05 (спустя 9 месяцев 20 дней)

Топик был перенесен из форума Отечественная в форум Pop
sergej644
 
Показать сообщения:    

Текущее время: Сегодня 20:09

Часовой пояс: GMT



Вы не можете начинать темы
Вы не можете отвечать на сообщения
Вы не можете редактировать свои сообщения
Вы не можете удалять свои сообщения
Вы не можете голосовать в опросах
Вы не можете прикреплять файлы к сообщениям
Вы не можете скачивать файлы