(Шансон) VA - Серия «XXXL» ШАНСОН - 5 - 2001, FLAC (image+.cue), lossless

 
Автор Сообщение

sergej644 ®

Пол:

Стаж: 4 года 11 месяцев

Сообщений: 6038

Откуда: Soviet Union



Награды: Нет

Торрент-статистика

Создавать темы 11-Ноя-2014 19:51

[Цитировать]

Серия «XXXL» ШАНСОН - 5
Жанр: Шансон
Страна-производитель диска: Россия
Год издания: 2001
Издатель (лейбл): Монолит
Номер по каталогу: МТ-209-1
Страна: Россия
Аудиокодек: FLAC (*.flac)
Тип рипа: image+.cue
Битрейт аудио: lossless
Продолжительность: 01:17:38
Источник (релизер): STOJAK
Наличие сканов в содержимом раздачи: да
Треклист:
01. "Тройка (В. Клименков - В.Клименков, М. Шуфутинский)" "Михаил Шуфутинский"
02. "Игра воображения (А. Розенбаум)" "Александр Розенбаум"
03. "Киллер (Г. Жаров)" "Геннадий Жаров"
04. "Уезжаю (В. Клименков)" "Катя Огонёк"
05. "Померкшая весна [Ремикс] (Автор неизвестен)" "Александр Дюмин"
06. "На малолетке (Ю. Алмазов - В. Лизнер)" "Группа «ВОРОВАЙКИ»"
07. "Мой брат по крови (А. Кузнецов)" "Александр Кузнецов"
08. "Севастополь (Е. Кемеровский)" "Евгений Кемеровский"
09. "Где - то там... (А.Климнюк)" "Андрей Климнюк"
10. "Уголовка (Ю. Алмазов)" "Юрий Алмазов"
11. "В память о друге (А. Каплан)" "Михаил Гулько"
12. "Городок таёжный (В. Бобков)" "Слава Бобков"
13. "Я устал (С. Аратюнян)" "Группа «БЕЛОМОРКАНАЛ»"
14. "Против лома (А. Федорков - М. Танич)" "Группа «ЛЕСОПОВАЛ»"
15. "По переписке (С. Русских)" "Сергей Север"
16. "Нехорошая (С. Медяник - В. Федоров)" "Слава Медяник"
17. "Номерок (Е. Хрулева)" "Таня Тишинская"
18. "Кастет (А. Звинцов)" "Александр Звинцов"
19. "Без тебя (А. Шапиро)" "Александр Шапиро"
20. "Сирень (Ю. Алмазов - О. Павлова)" "Владимир Утёсов"
21. "Там-там-там (С. Трофимов)" "ТРОФИМ"

Отчёт EAC об извлечении, выполненном 4. сентября 2013, 10:28

Exact Audio Copy V1.0 beta 2 from 29. April 2011
Отчёт EAC об извлечении, выполненном 4. сентября 2013, 10:28
Various Artists / СЕРИЯ «XXXL» ШАНСОН - 5
Дисковод: TSSTcorpBDDVDW SE-506BB   Adapter: 1  ID: 0
Режим чтения                 : Достоверность
Использование точного потока : Да
Отключение кэша аудио        : Да
Использование указателей C2  : Нет
Коррекция смещения при чтении                     : 6
Способность читать области Lead-in и Lead-out     : Нет
Заполнение пропущенных сэмплов тишиной            : Да
Удаление блоков с тишиной в начале и конце        : Нет
При вычислениях CRC использовались нулевые сэмплы : Да
Интерфейс                                         : Встроенный Win32-интерфейс для Win NT/2000
Выходной формат : Внутренние WAV-операции
Формат сэмплов  : 44.100 Гц; 16 бит; стерео
TOC извлечённого CD
     Трек |   Старт  | Длительность | Начальный сектор | Конечный сектор
    ---------------------------------------------------------------------
       1  |  0:00.00 |    3:22.62   |           0      |      15211
       2  |  3:22.62 |    3:23.07   |       15212      |      30443
       3  |  6:45.69 |    3:30.52   |       30444      |      46245
       4  | 10:16.46 |    3:16.09   |       46246      |      60954
       5  | 13:32.55 |    4:25.63   |       60955      |      80892
       6  | 17:58.43 |    2:33.39   |       80893      |      92406
       7  | 20:32.07 |    2:58.56   |       92407      |     105812
       8  | 23:30.63 |    3:34.29   |      105813      |     121891
       9  | 27:05.17 |    4:12.02   |      121892      |     140793
      10  | 31:17.19 |    3:55.36   |      140794      |     158454
      11  | 35:12.55 |    3:03.72   |      158455      |     172251
      12  | 38:16.52 |    4:12.42   |      172252      |     191193
      13  | 42:29.19 |    4:15.01   |      191194      |     210319
      14  | 46:44.20 |    3:27.11   |      210320      |     225855
      15  | 50:11.31 |    4:33.38   |      225856      |     246368
      16  | 54:44.69 |    3:30.08   |      246369      |     262126
      17  | 58:15.02 |    3:42.73   |      262127      |     278849
      18  | 61:58.00 |    4:36.62   |      278850      |     299611
      19  | 66:34.62 |    4:02.72   |      299612      |     317833
      20  | 70:37.59 |    3:18.17   |      317834      |     332700
      21  | 73:56.01 |    3:51.73   |      332701      |     350098
Характеристики диапазона извлечения и сообщения об ошибках
Выбранный диапазон
     Имя файла J:\ШАНСОН\SCHANSON [SBORNIKI] LOSSLESS\СЕРИЯ «XXXL» (с) 2000-2013 [Шансон]\(c) 2001 ХХХL ШАНСОН [5]\Various Artists - СЕРИЯ «XXXL» ШАНСОН - 5.wav
     Пиковый уровень 100.0 %
     Скорость извлечения 2.3 X
     Качество диапазона 100.0 %
     CRC теста EB606491
     CRC копии EB606491
     Копирование... OK
Ошибок не произошло
AccurateRip: сводка
Трек  1  отсутствует в базе данных
Трек  2  отсутствует в базе данных
Трек  3  отсутствует в базе данных
Трек  4  отсутствует в базе данных
Трек  5  отсутствует в базе данных
Трек  6  отсутствует в базе данных
Трек  7  отсутствует в базе данных
Трек  8  отсутствует в базе данных
Трек  9  отсутствует в базе данных
Трек 10  отсутствует в базе данных
Трек 11  отсутствует в базе данных
Трек 12  отсутствует в базе данных
Трек 13  отсутствует в базе данных
Трек 14  отсутствует в базе данных
Трек 15  отсутствует в базе данных
Трек 16  отсутствует в базе данных
Трек 17  отсутствует в базе данных
Трек 18  отсутствует в базе данных
Трек 19  отсутствует в базе данных
Трек 20  отсутствует в базе данных
Трек 21  отсутствует в базе данных
Ни одного трека нет в базе AccurateRip
Конец отчёта
==== Контрольная сумма отчёта 5627BC9DD7E26BB83A7685FFDF150AFE89FCE81A97B173764FDE2694AF667E8F ====

Содержание индексной карты (.CUE)

REM GENRE Chanson
REM DATE 2001
REM DISCID 2B123B15
REM COMMENT "ExactAudioCopy v1.0b2"
PERFORMER "Various Artists"
TITLE "СЕРИЯ «XXXL» ШАНСОН - 5"
FILE "Various Artists - СЕРИЯ «XXXL» ШАНСОН - 5.flac" WAVE
  TRACK 01 AUDIO
    TITLE "Тройка (В. Клименков - В.Клименков, М. Шуфутинский)"
    PERFORMER "Михаил Шуфутинский"
    INDEX 01 00:00:00
  TRACK 02 AUDIO
    TITLE "Игра воображения (А. Розенбаум)"
    PERFORMER "Александр Розенбаум"
    INDEX 01 03:22:62
  TRACK 03 AUDIO
    TITLE "Киллер (Г. Жаров)"
    PERFORMER "Геннадий Жаров"
    INDEX 01 06:45:69
  TRACK 04 AUDIO
    TITLE "Уезжаю (В. Клименков)"
    PERFORMER "Катя Огонёк"
    INDEX 01 10:16:46
  TRACK 05 AUDIO
    TITLE "Померкшая весна [Ремикс] (Автор неизвестен)"
    PERFORMER "Александр Дюмин"
    INDEX 01 13:32:55
  TRACK 06 AUDIO
    TITLE "На малолетке (Ю. Алмазов - В. Лизнер)"
    PERFORMER "Группа «ВОРОВАЙКИ»"
    INDEX 01 17:58:43
  TRACK 07 AUDIO
    TITLE "Мой брат по крови (А. Кузнецов)"
    PERFORMER "Александр Кузнецов"
    INDEX 01 20:32:07
  TRACK 08 AUDIO
    TITLE "Севастополь (Е. Кемеровский)"
    PERFORMER "Евгений Кемеровский"
    INDEX 01 23:30:63
  TRACK 09 AUDIO
    TITLE "Где - то там... (А.Климнюк)"
    PERFORMER "Андрей Климнюк"
    INDEX 01 27:05:17
  TRACK 10 AUDIO
    TITLE "Уголовка (Ю. Алмазов)"
    PERFORMER "Юрий Алмазов"
    INDEX 01 31:17:19
  TRACK 11 AUDIO
    TITLE "В память о друге (А. Каплан)"
    PERFORMER "Михаил Гулько"
    INDEX 01 35:12:55
  TRACK 12 AUDIO
    TITLE "Городок таёжный (В. Бобков)"
    PERFORMER "Слава Бобков"
    INDEX 01 38:16:52
  TRACK 13 AUDIO
    TITLE "Я устал (С. Аратюнян)"
    PERFORMER "Группа «БЕЛОМОРКАНАЛ»"
    INDEX 01 42:29:19
  TRACK 14 AUDIO
    TITLE "Против лома (А. Федорков - М. Танич)"
    PERFORMER "Группа «ЛЕСОПОВАЛ»"
    INDEX 01 46:44:20
  TRACK 15 AUDIO
    TITLE "По переписке (С. Русских)"
    PERFORMER "Сергей Север"
    INDEX 01 50:11:31
  TRACK 16 AUDIO
    TITLE "Нехорошая (С. Медяник - В. Федоров)"
    PERFORMER "Слава Медяник"
    INDEX 01 54:44:69
  TRACK 17 AUDIO
    TITLE "Номерок (Е. Хрулева)"
    PERFORMER "Таня Тишинская"
    INDEX 01 58:15:02
  TRACK 18 AUDIO
    TITLE "Кастет (А. Звинцов)"
    PERFORMER "Александр Звинцов"
    INDEX 01 61:58:00
  TRACK 19 AUDIO
    TITLE "Без тебя (А. Шапиро)"
    PERFORMER "Александр Шапиро"
    INDEX 01 66:34:62
  TRACK 20 AUDIO
    TITLE "Сирень (Ю. Алмазов - О. Павлова)"
    PERFORMER "Владимир Утёсов"
    INDEX 01 70:37:59
  TRACK 21 AUDIO
    TITLE "Там-там-там (С. Трофимов)"
    PERFORMER "ТРОФИМ"
    INDEX 01 73:56:01

Tau Analyzer - 1.2

AUDIOCHECKER v2.0 beta (build 457) - by Dester - opdester@freemail.hu
~~~~~~~~~~~~~~~~~~~~~~~~~~~~~~~~~~
-=== DO NOT EDIT THIS FILE! ===-
Path: ...\(c) 2001 ХХХL ШАНСОН [5]
1 -=- Various Artists - СЕРИЯ «XXXL» ШАНСОН - 5.wav -=- CDDA (100%)
4959444

CD

[Профиль] [ЛС]

Создавать темы 13-Авг-2015 11:30 (спустя 9 месяцев 1 день)

Топик был перенесен из форума Сборники в форум Сhanson
sergej644
 
Кто просматривает тему:

Показать сообщения:    

Текущее время: Сегодня 02:16

Часовой пояс: GMT



Вы не можете начинать темы
Вы не можете отвечать на сообщения
Вы не можете редактировать свои сообщения
Вы не можете удалять свои сообщения
Вы не можете голосовать в опросах
Вы не можете прикреплять файлы к сообщениям
Вы не можете скачивать файлы