(Pop,Retro,Советская эстрада)VA - Сделано в С.С.С.Р. (Ретро сборник)(10CD)2007 - 2010 FLAC(Image+*cue), Lossless

 
Автор Сообщение

sergej644 ®

Пол:

Стаж: 4 года 11 месяцев

Сообщений: 6041

Откуда: Soviet Union



Награды: Нет

Торрент-статистика

Создавать темы 09-Июн-2014 14:06

[Цитировать]

- VA - Сделано в С.С.С.Р. (Ретро сборник) Страна: СССР
Страна производитель дисков: Россия
Жанр: Pop,Retro,Советская эстрада
Год выпуска: 2007 - 2010
Формат: FLAC (Image + .cue)
Битрейт аудио: lossless
Продолжительность: 10:03:04
- -

VA - Сделано в С.С.С.Р. 10 дисков

2007 VA - Сделано в С.С.С.Р. / CD 1

-продолжительность: 00:49:54-01. Г.Великанова - Эй, Рулатэ (Обр. О. Фельцмана - В. Войнович) (02:31)
02. Аида Ведищева - Гуси, гуси (С. Пожлаков - Н. Малышев) (02:19)
03. В.Копылов & В.Матусов - Лодочка (Т. Хренников - М. Матусовский) (01:29)
04. Иосиф Кобзон - А у нас во дворе (А. Островский - Л. Ошанин) (02:16)
05. Л.Овчинникова & Н.Погодин - Старый клён (А. Пахмутова - М. Матусовский) (02:48)
06. Муслим Магомаев - Лучший город Земли (А. Бабаджанян - Л. Дербенёв) (02:34)
07. Жан Татлян - Уличные фонари (Ж. Татлян - Ю. Гарин) (04:02)
08. В.Доронин - Куплеты Курочкина (Б. Мокроусов - И. Фатьянов) (01:59)
09. Эмиль Горовец - Голубые города (А. Петров - Л. Куклин) (03:02)
10. Николай Рыбников - Когда весна придёт ( Б. Мокроусов - Н. Фатьянов) (02:49)
11. Муслим Магомаев - Королева красоты (А. Бабаджанян - А. Горохов) (02:32)
12. Эдита Пьеха - Венок Дуная (О. Фельцман- Е. Долматовский) (02:35)
13. Полад Бюль-Бюль Оглы - Позвони (П. Бюль-Бюль Оглы - О. Гаджикасимов) (03:19)
14. Леонид Утёсов - Теплоход (0. Фельцман - Л. Давидович, В. Драгунский) (03:10)
15. Николай Рыбников - Марш высотников (Р. Щедрин - В. Котов) (02:02)
16. Владимир Трошин - Подмосковные вечера (B. Соловьев-Седой - М. Матусовский) (04:28)
17. Олег Анофриев - Робинзоны (О. Фельцман - Н. Олев) (02:59)
18. Лев Барашков - Главное, ребята, сердцем ( А. Пахмутова - С. Гребенников,Н.Добронравов) (02:50)

лог создания рипа

Exact Audio Copy V0.99 prebeta 5 from 4. May 2009
Отчёт EAC об извлечении, выполненном 13. мая 2011, 8:20
Various / [01] - 2007 [Сделано в С.С.С.Р.]
Дисковод: Optiarc DVD RW AD-7190A   Adapter: 0  ID: 0
Режим чтения                 : Достоверность
Использование точного потока : Да
Отключение кэша аудио        : Да
Использование указателей C2  : Нет
Коррекция смещения при чтении                     : 6
Способность читать области Lead-in и Lead-out     : Нет
Заполнение пропущенных сэмплов тишиной            : Да
Удаление блоков с тишиной в начале и конце        : Нет
При вычислениях CRC использовались нулевые сэмплы : Да
Интерфейс                                         : Встроенный Win32-интерфейс для Win NT/2000
Выходной формат : Внутренние WAV-операции
Формат сэмплов  : 44.100 Гц; 16 бит; стерео
TOC извлечённого CD
     Трек |   Старт  | Длительность | Начальный сектор | Конечный сектор
    ---------------------------------------------------------------------
       1  |  0:00.00 |    2:31.30   |           0      |      11354
       2  |  2:31.30 |    2:19.64   |       11355      |      21843
       3  |  4:51.19 |    1:29.31   |       21844      |      28549
       4  |  6:20.50 |    2:16.21   |       28550      |      38770
       5  |  8:36.71 |    2:48.65   |       38771      |      51435
       6  | 11:25.61 |    2:34.47   |       51436      |      63032
       7  | 14:00.33 |    4:02.71   |       63033      |      81253
       8  | 18:03.29 |    1:59.47   |       81254      |      90225
       9  | 20:03.01 |    3:02.30   |       90226      |     103905
      10  | 23:05.31 |    2:49.56   |      103906      |     116636
      11  | 25:55.12 |    2:32.74   |      116637      |     128110
      12  | 28:28.11 |    2:35.05   |      128111      |     139740
      13  | 31:03.16 |    3:19.26   |      139741      |     154691
      14  | 34:22.42 |    3:10.40   |      154692      |     168981
      15  | 37:33.07 |    2:02.17   |      168982      |     178148
      16  | 39:35.24 |    4:28.22   |      178149      |     198270
      17  | 44:03.46 |    2:59.58   |      198271      |     211753
      18  | 47:03.29 |    2:50.65   |      211754      |     224568
Характеристики диапазона извлечения и сообщения об ошибках
Выбранный диапазон
     Имя файла C:\МУЗЫКА\RETRO SBORNIK [Сделано в С.С.С.Р.] (с) Мелодия\[01] - 2007 [Сделано в С.С.С.Р.]\Various - [01] - 2007 [Сделано в С.С.С.Р.].wav
     Пиковый уровень 99.4 %
     Качество диапазона 100.0 %
     CRC теста 00E9D063
     CRC копии 00E9D063
     Копирование... OK
Ошибок не произошло
AccurateRip: сводка
Трек  1  нет в базе данных
Трек  2  нет в базе данных
Трек  3  нет в базе данных
Трек  4  нет в базе данных
Трек  5  нет в базе данных
Трек  6  нет в базе данных
Трек  7  нет в базе данных
Трек  8  нет в базе данных
Трек  9  нет в базе данных
Трек 10  нет в базе данных
Трек 11  нет в базе данных
Трек 12  нет в базе данных
Трек 13  нет в базе данных
Трек 14  нет в базе данных
Трек 15  нет в базе данных
Трек 16  нет в базе данных
Трек 17  нет в базе данных
Трек 18  нет в базе данных
Ни одного трека нет в базе AccurateRip
Конец отчёта

содержание индексной карты *cue

REM GENRE Retro
REM DATE 2007
REM DISCID FE0BB212
REM COMMENT "ExactAudioCopy v0.99pb5"
PERFORMER "Various"
TITLE "[01] - 2007 [Сделано в С.С.С.Р.]"
FILE "Various - [01] - 2007 [Сделано в С.С.С.Р.].flac" WAVE
  TRACK 01 AUDIO
    TITLE "Эй, Рулатэ (Обр. О. Фельцмана - В. Войнович)"
    PERFORMER "Г.Великанова"
    FLAGS DCP
    INDEX 01 00:00:00
  TRACK 02 AUDIO
    TITLE "Гуси, гуси (С. Пожлаков - Н. Малышев)"
    PERFORMER "Аида Ведищева"
    FLAGS DCP
    INDEX 01 02:31:30
  TRACK 03 AUDIO
    TITLE "Лодочка (Т. Хренников - М. Матусовский)"
    PERFORMER "В.Копылов & В.Матусов"
    FLAGS DCP
    INDEX 01 04:51:19
  TRACK 04 AUDIO
    TITLE "А у нас во дворе (А. Островский - Л. Ошанин)"
    PERFORMER "Иосиф Кобзон"
    FLAGS DCP
    INDEX 01 06:20:50
  TRACK 05 AUDIO
    TITLE "Старый клён (А. Пахмутова - М. Матусовский)"
    PERFORMER "Л.Овчинникова & Н.Погодин"
    FLAGS DCP
    INDEX 01 08:36:71
  TRACK 06 AUDIO
    TITLE "Лучший город Земли (А. Бабаджанян - Л. Дербенёв)"
    PERFORMER "Муслим Магомаев"
    FLAGS DCP
    INDEX 01 11:25:61
  TRACK 07 AUDIO
    TITLE "Уличные фонари (Ж. Татлян - Ю. Гарин)"
    PERFORMER "Жан Татлян"
    FLAGS DCP
    INDEX 01 14:00:33
  TRACK 08 AUDIO
    TITLE "Куплеты Курочкина (Б. Мокроусов - И. Фатьянов)"
    PERFORMER "В.Доронин"
    FLAGS DCP
    INDEX 01 18:03:29
  TRACK 09 AUDIO
    TITLE "Голубые города (А. Петров - Л. Куклин)"
    PERFORMER "Эмиль Горовец"
    FLAGS DCP
    INDEX 01 20:03:01
  TRACK 10 AUDIO
    TITLE "Когда весна придёт ( Б. Мокроусов - Н. Фатьянов)"
    PERFORMER "Николай Рыбников"
    FLAGS DCP
    INDEX 01 23:05:31
  TRACK 11 AUDIO
    TITLE "Королева красоты (А. Бабаджанян - А. Горохов)"
    PERFORMER "Муслим Магомаев"
    FLAGS DCP
    INDEX 01 25:55:12
  TRACK 12 AUDIO
    TITLE "Венок Дуная (О. Фельцман- Е. Долматовский)"
    PERFORMER "Эдита Пьеха"
    FLAGS DCP
    INDEX 01 28:28:11
  TRACK 13 AUDIO
    TITLE "Позвони (П. Бюль-Бюль Оглы - О. Гаджикасимов)"
    PERFORMER "Полад Бюль-Бюль Оглы"
    FLAGS DCP
    INDEX 01 31:03:16
  TRACK 14 AUDIO
    TITLE "Теплоход (0. Фельцман - Л. Давидович, В. Драгунский)"
    PERFORMER "Леонид Утёсов"
    FLAGS DCP
    INDEX 01 34:22:42
  TRACK 15 AUDIO
    TITLE "Марш высотников (Р. Щедрин - В. Котов)"
    PERFORMER "Николай Рыбников"
    FLAGS DCP
    INDEX 01 37:33:07
  TRACK 16 AUDIO
    TITLE "Подмосковные вечера (B. Соловьев-Седой - М. Матусовский)"
    PERFORMER "Владимир Трошин"
    FLAGS DCP
    INDEX 01 39:35:24
  TRACK 17 AUDIO
    TITLE "Робинзоны (О. Фельцман - Н. Олев)"
    PERFORMER "Олег Анофриев"
    FLAGS DCP
    INDEX 01 44:03:46
  TRACK 18 AUDIO
    TITLE "Главное, ребята, сердцем ( А. Пахмутова - С. Гребенников,Н.Добронравов)"
    PERFORMER "Лев Барашков"
    FLAGS DCP
    INDEX 01 47:03:29

2007 VA - Сделано в С.С.С.Р. / CD 2

-продолжительность: 01:12:12-01. ВИА«АРИЭЛЬ» - На горе, на горенке (Русская народная песня) (05:26)
02. ВИА«АРИЭЛЬ» - Уходишь ты (А.Зацепин - Л.Дербенёв) (04:49)
03. ВИА«АРИЭЛЬ» - Баба-Яга (Т.Ефимов - Ю.Мажаров) (02:42)
04. ВИА«СЯБРЫ» - Лесная колдунья (О.Иванов - А.Поперечный) (06:05)
05. ВИА«СЯБРЫ» - Глухариная заря (О.Иванов - А.Поперечный) (04:35)
06. ВИА«Но То Цо» - Дими (Е.Кшеминский - Г.Вальчак, А.Кавецкий) (03:02)
07. ВИА«СКАЛЬДЫ» - Размышления деревенского почтальона (А.Зеленский - Л.Мочульский, р.т. Г.Хила) (03:01)
08. ВИА«СКАЛЬДЫ» - Прелестная виолончелистка (А.Зеленский - В.Минарскиий, р.т. Г.Хила) (03:27)
09. ВИА«ЯЛЛА» - Это любовь (А.Рыбников - Р.Тагор, р.т. А.Адолиса) (06:01)
10. ВИА«ВЕРАСЫ» - Завируха (Э.Ханок - Г.Буравкин) (04:16)
11. ВИА«КРАСНЫЕ МАКИ» - Кружатся диски (Д.Тухманов - И.Кохановский) (06:30)
12. ВИА«ОРИЗОНТ» - Калина (М.Новикас - Ю.Кобрин) (03:04)
13. ВИА«ОРИЗОНТ» - Апрель (О.Мильштейн - А.Дементьев) (03:40)
14. ВИА«САМОЦВЕТЫ» - Школьный бал (С.Дьячков - П.Леонидов) (03:46)
15. ВИА«САМОЦВЕТЫ» - Песня моя песня (О.Иванов - П.Леонидов) (03:05)
16. ВИА«ПОЮЩИЕ СЕРДЦА» - Обманщица (В.Добрынин - М.Пляцковский) (03:59)
17. ВИА«СИНЯЯ ПТИЦА» - Записка (С.Дьячков - О.Гаджикасимов) (04:34)

лог создания рипа

Exact Audio Copy V0.99 prebeta 5 from 4. May 2009
Отчёт EAC об извлечении, выполненном 13. мая 2011, 19:40
Various / [02] - 2007 [Сделано в С.С.С.Р.]
Дисковод: Optiarc DVD RW AD-7190A   Adapter: 0  ID: 0
Режим чтения                 : Достоверность
Использование точного потока : Да
Отключение кэша аудио        : Да
Использование указателей C2  : Нет
Коррекция смещения при чтении                     : 6
Способность читать области Lead-in и Lead-out     : Нет
Заполнение пропущенных сэмплов тишиной            : Да
Удаление блоков с тишиной в начале и конце        : Нет
При вычислениях CRC использовались нулевые сэмплы : Да
Интерфейс                                         : Встроенный Win32-интерфейс для Win NT/2000
Выходной формат : Внутренние WAV-операции
Формат сэмплов  : 44.100 Гц; 16 бит; стерео
TOC извлечённого CD
     Трек |   Старт  | Длительность | Начальный сектор | Конечный сектор
    ---------------------------------------------------------------------
       1  |  0:00.00 |    5:26.52   |           0      |      24501
       2  |  5:26.52 |    4:49.33   |       24502      |      46209
       3  | 10:16.10 |    2:42.33   |       46210      |      58392
       4  | 12:58.43 |    6:05.70   |       58393      |      85837
       5  | 19:04.38 |    4:35.52   |       85838      |     106514
       6  | 23:40.15 |    3:02.64   |      106515      |     120228
       7  | 26:43.04 |    3:01.46   |      120229      |     133849
       8  | 29:44.50 |    3:27.63   |      133850      |     149437
       9  | 33:12.38 |    6:01.54   |      149438      |     176566
      10  | 39:14.17 |    4:16.20   |      176567      |     195786
      11  | 43:30.37 |    6:30.46   |      195787      |     225082
      12  | 50:01.08 |    3:04.38   |      225083      |     238920
      13  | 53:05.46 |    3:40.44   |      238921      |     255464
      14  | 56:46.15 |    3:46.34   |      255465      |     272448
      15  | 60:32.49 |    3:05.35   |      272449      |     286358
      16  | 63:38.09 |    3:59.61   |      286359      |     304344
      17  | 67:37.70 |    4:34.09   |      304345      |     324903
Характеристики диапазона извлечения и сообщения об ошибках
Выбранный диапазон
     Имя файла C:\МУЗЫКА\RETRO SBORNIK [Сделано в С.С.С.Р.] (с) Мелодия\[02] - 2007 [Сделано в С.С.С.Р.]\Various - [02] - 2007 [Сделано в С.С.С.Р.].wav
     Пиковый уровень 98.1 %
     Качество диапазона 100.0 %
     CRC теста 8731001B
     CRC копии 8731001B
     Копирование... OK
Ошибок не произошло
AccurateRip: сводка
Трек  1  нет в базе данных
Трек  2  нет в базе данных
Трек  3  нет в базе данных
Трек  4  нет в базе данных
Трек  5  нет в базе данных
Трек  6  нет в базе данных
Трек  7  нет в базе данных
Трек  8  нет в базе данных
Трек  9  нет в базе данных
Трек 10  нет в базе данных
Трек 11  нет в базе данных
Трек 12  нет в базе данных
Трек 13  нет в базе данных
Трек 14  нет в базе данных
Трек 15  нет в базе данных
Трек 16  нет в базе данных
Трек 17  нет в базе данных
Ни одного трека нет в базе AccurateRip
Конец отчёта

содержание индексной карты *cue

REM GENRE Retro
REM DATE 2007
REM DISCID ED10EC11
REM COMMENT "ExactAudioCopy v0.99pb5"
PERFORMER "Various"
TITLE "[02] - 2007 [Сделано в С.С.С.Р.]"
FILE "Various - [02] - 2007 [Сделано в С.С.С.Р.].flac" WAVE
  TRACK 01 AUDIO
    TITLE "На горе, на горенке (Русская народная песня)"
    PERFORMER "ВИА«АРИЭЛЬ»"
    INDEX 01 00:00:00
  TRACK 02 AUDIO
    TITLE "Уходишь ты (А.Зацепин - Л.Дербенёв)"
    PERFORMER "ВИА«АРИЭЛЬ»"
    INDEX 00 05:22:52
    INDEX 01 05:26:52
  TRACK 03 AUDIO
    TITLE "Баба-Яга (Т.Ефимов - Ю.Мажаров)"
    PERFORMER "ВИА«АРИЭЛЬ»"
    INDEX 00 10:12:10
    INDEX 01 10:16:10
  TRACK 04 AUDIO
    TITLE "Лесная колдунья (О.Иванов - А.Поперечный)"
    PERFORMER "ВИА«СЯБРЫ»"
    INDEX 00 12:54:43
    INDEX 01 12:58:43
  TRACK 05 AUDIO
    TITLE "Глухариная заря (О.Иванов - А.Поперечный)"
    PERFORMER "ВИА«СЯБРЫ»"
    INDEX 00 19:00:38
    INDEX 01 19:04:38
  TRACK 06 AUDIO
    TITLE "Дими (Е.Кшеминский - Г.Вальчак, А.Кавецкий)"
    PERFORMER "ВИА«Но То Цо»"
    INDEX 00 23:36:15
    INDEX 01 23:40:15
  TRACK 07 AUDIO
    TITLE "Размышления деревенского почтальона (А.Зеленский - Л.Мочульский, р.т. Г.Хила)"
    PERFORMER "ВИА«СКАЛЬДЫ»"
    INDEX 00 26:39:04
    INDEX 01 26:43:04
  TRACK 08 AUDIO
    TITLE "Прелестная виолончелистка (А.Зеленский - В.Минарскиий, р.т. Г.Хила)"
    PERFORMER "ВИА«СКАЛЬДЫ»"
    INDEX 00 29:40:50
    INDEX 01 29:44:50
  TRACK 09 AUDIO
    TITLE "Это любовь (А.Рыбников - Р.Тагор, р.т. А.Адолиса)"
    PERFORMER "ВИА«ЯЛЛА»"
    INDEX 00 33:08:38
    INDEX 01 33:12:38
  TRACK 10 AUDIO
    TITLE "Завируха (Э.Ханок - Г.Буравкин)"
    PERFORMER "ВИА«ВЕРАСЫ»"
    INDEX 00 39:10:17
    INDEX 01 39:14:17
  TRACK 11 AUDIO
    TITLE "Кружатся диски (Д.Тухманов - И.Кохановский)"
    PERFORMER "ВИА«КРАСНЫЕ МАКИ»"
    INDEX 00 43:26:37
    INDEX 01 43:30:37
  TRACK 12 AUDIO
    TITLE "Калина (М.Новикас - Ю.Кобрин)"
    PERFORMER "ВИА«ОРИЗОНТ»"
    INDEX 00 49:57:08
    INDEX 01 50:01:08
  TRACK 13 AUDIO
    TITLE "Апрель (О.Мильштейн - А.Дементьев)"
    PERFORMER "ВИА«ОРИЗОНТ»"
    INDEX 00 53:01:46
    INDEX 01 53:05:46
  TRACK 14 AUDIO
    TITLE "Школьный бал (С.Дьячков - П.Леонидов)"
    PERFORMER "ВИА«САМОЦВЕТЫ»"
    INDEX 00 56:42:15
    INDEX 01 56:46:15
  TRACK 15 AUDIO
    TITLE "Песня моя песня (О.Иванов - П.Леонидов)"
    PERFORMER "ВИА«САМОЦВЕТЫ»"
    INDEX 00 60:28:49
    INDEX 01 60:32:49
  TRACK 16 AUDIO
    TITLE "Обманщица (В.Добрынин - М.Пляцковский)"
    PERFORMER "ВИА«ПОЮЩИЕ СЕРДЦА»"
    INDEX 00 63:34:09
    INDEX 01 63:38:09
  TRACK 17 AUDIO
    TITLE "Записка (С.Дьячков - О.Гаджикасимов)"
    PERFORMER "ВИА«СИНЯЯ ПТИЦА»"
    INDEX 00 67:33:70
    INDEX 01 67:37:70

2007 VA - Сделано в С.С.С.Р. / CD 3

-продолжительность: 01:04:22-01. ВИА «ЯЛЛА» - Три колодца (Ф.Закиров - Ю.Энтин) (04:44)
02. Группа «КРУИЗ» - Кружится волчок (С.Сарычев - В.Сауткин) (03:38)
03. ВИА «ДОБРЫ МОЛОДЦЫ» - Песенка о снежинке (Е.Крылатов - Л.Дербенёв) (02:43)
04. ВИА «ЗЕМЛЯНЕ» - Взлётная полоса (В.Добрынин - М.Пляцковский) (03:29)
05. ВИА «ЗЕМЛЯНЕ» - Трава у дома (В.Мигуля - А.Поперечный) (04:47)
06. Группа «АВТОГРАФ» - Блюз «Каприз» (А.Ситковецкий - А.Ситковецкий) (03:34)
07. ВИА «ЛЕЙСЯ, ПЕСНЯ!» - Песенка про сапожника (Д.Тухманов - В.Харитонов) (03:18)
08. ВИА «ЛЕЙСЯ, ПЕСНЯ!» - Как мы любили (В.Добрынин - И.Шаферан) (04:00)
09. Группа «ЛАСКОВЫЙ МАЙ» - Белые розы (Ю.Шатунов - С.Кузнецов) (05:49)
10. Крис Кельми & Группа «РОК-АТЕЛЬЕ» - Замыкая круг (К.Кельми - М.Пушкина) (05:05)
11. Группа «РОК-АТЕЛЬЕ» - Ночное рандеву (К.Кельми - К.Кавалерьян) (04:41)
12. Бит-квартет «СЕКРЕТ» - Лиза (М.Леонидов - Д.Рубин) (05:31)
13. Группа «ЭЛЕКТРОКЛУБ» - Ты замуж за него не выходи (Д.Тухманов - И.Шаферан) (03:24)
14. Группа «ЧЁРНЫЙ КОФЕ» - Владимирская Русь (Д.Варшавский - А.Шаганов) (05:20)
15. Группа «ЧЁРНЫЙ КОФЕ» - Брожу по городу один (Д.Варшавский - А.Шаганов) (04:14)

лог создания рипа

Exact Audio Copy V0.99 prebeta 5 from 4. May 2009
Отчёт EAC об извлечении, выполненном 13. мая 2011, 20:23
Various / [03] - 2008 [Сделано в С.С.С.Р.]
Дисковод: Optiarc DVD RW AD-7190A   Adapter: 0  ID: 0
Режим чтения                 : Достоверность
Использование точного потока : Да
Отключение кэша аудио        : Да
Использование указателей C2  : Нет
Коррекция смещения при чтении                     : 6
Способность читать области Lead-in и Lead-out     : Нет
Заполнение пропущенных сэмплов тишиной            : Да
Удаление блоков с тишиной в начале и конце        : Нет
При вычислениях CRC использовались нулевые сэмплы : Да
Интерфейс                                         : Встроенный Win32-интерфейс для Win NT/2000
Выходной формат : Внутренние WAV-операции
Формат сэмплов  : 44.100 Гц; 16 бит; стерео
TOC извлечённого CD
     Трек |   Старт  | Длительность | Начальный сектор | Конечный сектор
    ---------------------------------------------------------------------
       1  |  0:01.00 |    4:44.00   |          75      |      21374
       2  |  4:45.00 |    3:38.47   |       21375      |      37771
       3  |  8:23.47 |    2:43.19   |       37772      |      50015
       4  | 11:06.66 |    3:29.51   |       50016      |      65741
       5  | 14:36.42 |    4:47.00   |       65742      |      87266
       6  | 19:23.42 |    3:34.15   |       87267      |     103331
       7  | 22:57.57 |    3:18.17   |      103332      |     118198
       8  | 26:15.74 |    4:00.56   |      118199      |     136254
       9  | 30:16.55 |    5:49.70   |      136255      |     162499
      10  | 36:06.50 |    5:05.01   |      162500      |     185375
      11  | 41:11.51 |    4:41.08   |      185376      |     206458
      12  | 45:52.59 |    5:31.13   |      206459      |     231296
      13  | 51:23.72 |    3:24.21   |      231297      |     246617
      14  | 54:48.18 |    5:20.52   |      246618      |     270669
      15  | 60:08.70 |    4:14.19   |      270670      |     289738
Характеристики диапазона извлечения и сообщения об ошибках
Выбранный диапазон
     Имя файла C:\МУЗЫКА\RETRO SBORNIK [Сделано в С.С.С.Р.] (с) Мелодия\[03] - 2008 [Сделано в С.С.С.Р.]\Various - [03] - 2008 [Сделано в С.С.С.Р.].wav
     Пиковый уровень 100.0 %
     Качество диапазона 100.0 %
     CRC теста F152F405
     CRC копии F152F405
     Копирование... OK
Ошибок не произошло
AccurateRip: сводка
Трек  1  нет в базе данных
Трек  2  нет в базе данных
Трек  3  нет в базе данных
Трек  4  нет в базе данных
Трек  5  нет в базе данных
Трек  6  нет в базе данных
Трек  7  нет в базе данных
Трек  8  нет в базе данных
Трек  9  нет в базе данных
Трек 10  нет в базе данных
Трек 11  нет в базе данных
Трек 12  нет в базе данных
Трек 13  нет в базе данных
Трек 14  нет в базе данных
Трек 15  нет в базе данных
Ни одного трека нет в базе AccurateRip
Конец отчёта

содержание индексной карты *cue

REM GENRE Retro
REM DATE 2008
REM DISCID EB0F160F
REM COMMENT "ExactAudioCopy v0.99pb5"
PERFORMER "Various"
TITLE "[03] - 2008 [Сделано в С.С.С.Р.]"
FILE "Various - [03] - 2008 [Сделано в С.С.С.Р.].flac" WAVE
  TRACK 01 AUDIO
    TITLE "Три колодца (Ф.Закиров - Ю.Энтин)"
    PERFORMER "ВИА «ЯЛЛА»"
    FLAGS DCP
    INDEX 00 00:00:00
    INDEX 01 00:01:00
  TRACK 02 AUDIO
    TITLE "Кружится волчок (С.Сарычев - В.Сауткин)"
    PERFORMER "Группа «КРУИЗ»"
    FLAGS DCP
    INDEX 00 04:42:00
    INDEX 01 04:45:00
  TRACK 03 AUDIO
    TITLE "Песенка о снежинке (Е.Крылатов - Л.Дербенёв)"
    PERFORMER "ВИА «ДОБРЫ МОЛОДЦЫ»"
    FLAGS DCP
    INDEX 00 08:20:47
    INDEX 01 08:23:47
  TRACK 04 AUDIO
    TITLE "Взлётная полоса (В.Добрынин - М.Пляцковский)"
    PERFORMER "ВИА «ЗЕМЛЯНЕ»"
    FLAGS DCP
    INDEX 00 11:03:66
    INDEX 01 11:06:66
  TRACK 05 AUDIO
    TITLE "Трава у дома (В.Мигуля - А.Поперечный)"
    PERFORMER "ВИА «ЗЕМЛЯНЕ»"
    FLAGS DCP
    INDEX 00 14:33:42
    INDEX 01 14:36:42
  TRACK 06 AUDIO
    TITLE "Блюз  «Каприз» (А.Ситковецкий - А.Ситковецкий)"
    PERFORMER "Группа «АВТОГРАФ»"
    FLAGS DCP
    INDEX 00 19:20:42
    INDEX 01 19:23:42
  TRACK 07 AUDIO
    TITLE "Песенка про сапожника (Д.Тухманов - В.Харитонов)"
    PERFORMER "ВИА «ЛЕЙСЯ, ПЕСНЯ!»"
    FLAGS DCP
    INDEX 00 22:54:57
    INDEX 01 22:57:57
  TRACK 08 AUDIO
    TITLE "Как мы любили  (В.Добрынин - И.Шаферан)"
    PERFORMER "ВИА «ЛЕЙСЯ, ПЕСНЯ!»"
    FLAGS DCP
    INDEX 00 26:12:74
    INDEX 01 26:15:74
  TRACK 09 AUDIO
    TITLE "Белые розы (Ю.Шатунов - С.Кузнецов)"
    PERFORMER "Группа «ЛАСКОВЫЙ МАЙ»"
    FLAGS DCP
    INDEX 00 30:13:55
    INDEX 01 30:16:55
  TRACK 10 AUDIO
    TITLE "Замыкая круг (К.Кельми - М.Пушкина)"
    PERFORMER "Крис Кельми & Группа «РОК-АТЕЛЬЕ»"
    FLAGS DCP
    INDEX 00 36:03:50
    INDEX 01 36:06:50
  TRACK 11 AUDIO
    TITLE "Ночное рандеву (К.Кельми - К.Кавалерьян)"
    PERFORMER "Группа «РОК-АТЕЛЬЕ»"
    FLAGS DCP
    INDEX 00 41:08:51
    INDEX 01 41:11:51
  TRACK 12 AUDIO
    TITLE "Лиза  (М.Леонидов - Д.Рубин)"
    PERFORMER "Бит-квартет «СЕКРЕТ»"
    FLAGS DCP
    INDEX 00 45:49:59
    INDEX 01 45:52:59
  TRACK 13 AUDIO
    TITLE "Ты замуж за него не выходи  (Д.Тухманов - И.Шаферан)"
    PERFORMER "Группа «ЭЛЕКТРОКЛУБ»"
    FLAGS DCP
    INDEX 00 51:20:72
    INDEX 01 51:23:72
  TRACK 14 AUDIO
    TITLE "Владимирская Русь (Д.Варшавский - А.Шаганов)"
    PERFORMER "Группа «ЧЁРНЫЙ КОФЕ»"
    FLAGS DCP
    INDEX 00 54:45:18
    INDEX 01 54:48:18
  TRACK 15 AUDIO
    TITLE "Брожу по городу один  (Д.Варшавский - А.Шаганов)"
    PERFORMER "Группа «ЧЁРНЫЙ КОФЕ»"
    FLAGS DCP
    INDEX 00 60:05:70
    INDEX 01 60:08:70

2007 VA - Сделано в С.С.С.Р. / CD 4

-продолжительность: 01:05:45-01. ВИА «ИВЕРИЯ» - Лейтмотив (А.Басилая - рус.текст. Ю.Ряшенцева) (04:13)
02. ВИА «ИВЕРИЯ» - Неужели всё так просто (Г.Цабадзе - И.Шаферан) (02:41)
03. ВИА «ИВЕРИЯ» - О чём ты думаешь (А.Басилая - Р.Рождественский) (04:04)
04. ВИА «ИНТЕГРАЛ» - Сулико (Грузинская народная песня) (03:16)
05. ВИА «ЯЛЛА» - Звезда Востока (Д.Тухманов - Р.Бабаджан, Л.Ошанин) (03:07)
06. ВИА «ОРЭРА» - Синеглазая колдунья (Ш.Милорава - Л.Чубабрия, П.Грузинский, перевод Б.Брянского) (02:55)
07. ВИА «ОРЭРА» - Тополя (Г.Пономаренко - А.Колесников) (03:19)
08. ВИА «ОРЭРА» - Лалеби (Грузинская народная - рус. текст А.Дмоховского) (01:55)
09. ВИА «ГАЯ» - Если Волга разольётся (И.Дунаевский - В.Лебедев-Кумач) (03:34)
10. ВИА «ГАЯ» - Дрозды (В.Шаинский - С.Островой) (03:44)
11. ВИА «ВЕРАСЫ» - Малиновки заслышав голосок (Э.Ханок - А.Поперечный) (02:32)
12. ВИА «ВЕРАСЫ» - Андрюша (И.Жак - Г.Гридов) (02:46)
13. ВИА «ВЕРАСЫ» - Первое свидание (В.Раинчик - Г.Буравский, перевод П.Кошеля) (04:04)
14. ВИА «ОРИЗОНТ» - Апрель (О.Мильштейн - А.Дементьев) (03:39)
15. ВИА «ОРИЗОНТ» - А любовь жива (А.Бабаджанян - А.Монастырев, О.Писаржевская) (02:46)
16. Трио «МАРЕНИЧ» - Несе Галя воду (Украинская народная песня, обр. В.Маренича) (03:47)
17. Трио «МАРЕНИЧ» - Ой, у гаю при Дунаю (Украинская народная песня, обр.А.Маренич) (04:01)
18. ВИА «ПЕСНЯРЫ» - Вологда (Б.Мокроусов - М.Матусовский) (03:39)
19. ВИА «ПЕСНЯРЫ» - Зачарованная моя (И.Лученок - Г.Буравкин) (05:31)

лог создания рипа

Exact Audio Copy V0.99 prebeta 5 from 4. May 2009
Отчёт EAC об извлечении, выполненном 13. мая 2011, 21:09
Various / [04] - 2008 [Сделано в С.С.С.Р.]
Дисковод: Optiarc DVD RW AD-7190A   Adapter: 0  ID: 0
Режим чтения                 : Достоверность
Использование точного потока : Да
Отключение кэша аудио        : Да
Использование указателей C2  : Нет
Коррекция смещения при чтении                     : 6
Способность читать области Lead-in и Lead-out     : Нет
Заполнение пропущенных сэмплов тишиной            : Да
Удаление блоков с тишиной в начале и конце        : Нет
При вычислениях CRC использовались нулевые сэмплы : Да
Интерфейс                                         : Встроенный Win32-интерфейс для Win NT/2000
Выходной формат : Внутренние WAV-операции
Формат сэмплов  : 44.100 Гц; 16 бит; стерео
TOC извлечённого CD
     Трек |   Старт  | Длительность | Начальный сектор | Конечный сектор
    ---------------------------------------------------------------------
       1  |  0:00.00 |    4:13.45   |           0      |      19019
       2  |  4:13.45 |    2:41.55   |       19020      |      31149
       3  |  6:55.25 |    4:04.37   |       31150      |      49486
       4  | 10:59.62 |    3:16.68   |       49487      |      64254
       5  | 14:16.55 |    3:07.50   |       64255      |      78329
       6  | 17:24.30 |    2:55.52   |       78330      |      91506
       7  | 20:20.07 |    3:19.58   |       91507      |     106489
       8  | 23:39.65 |    1:55.72   |      106490      |     115186
       9  | 25:35.62 |    3:34.68   |      115187      |     131304
      10  | 29:10.55 |    3:44.60   |      131305      |     148164
      11  | 32:55.40 |    2:32.05   |      148165      |     159569
      12  | 35:27.45 |    2:46.35   |      159570      |     172054
      13  | 38:14.05 |    4:04.62   |      172055      |     190416
      14  | 42:18.67 |    3:39.35   |      190417      |     206876
      15  | 45:58.27 |    2:46.30   |      206877      |     219356
      16  | 48:44.57 |    3:47.23   |      219357      |     236404
      17  | 52:32.05 |    4:01.65   |      236405      |     254544
      18  | 56:33.70 |    3:39.57   |      254545      |     271026
      19  | 60:13.52 |    5:31.70   |      271027      |     295921
Характеристики диапазона извлечения и сообщения об ошибках
Выбранный диапазон
     Имя файла C:\МУЗЫКА\RETRO SBORNIK [Сделано в С.С.С.Р.] (с) Мелодия\[04] - 2008 [Сделано в С.С.С.Р.]\Various - [04] - 2008 [Сделано в С.С.С.Р.].wav
     Пиковый уровень 100.0 %
     Качество диапазона 100.0 %
     CRC теста CAF874AF
     CRC копии CAF874AF
     Копирование... OK
Ошибок не произошло
AccurateRip: сводка
Трек  1  нет в базе данных
Трек  2  нет в базе данных
Трек  3  нет в базе данных
Трек  4  нет в базе данных
Трек  5  нет в базе данных
Трек  6  нет в базе данных
Трек  7  нет в базе данных
Трек  8  нет в базе данных
Трек  9  нет в базе данных
Трек 10  нет в базе данных
Трек 11  нет в базе данных
Трек 12  нет в базе данных
Трек 13  нет в базе данных
Трек 14  нет в базе данных
Трек 15  нет в базе данных
Трек 16  нет в базе данных
Трек 17  нет в базе данных
Трек 18  нет в базе данных
Трек 19  нет в базе данных
Ни одного трека нет в базе AccurateRip
Конец отчёта

содержание индексной карты *cue

REM GENRE Retro
REM DATE 2008
REM DISCID 0C0F6913
REM COMMENT "ExactAudioCopy v0.99pb5"
PERFORMER "Various"
TITLE "[04] - 2008 [Сделано в С.С.С.Р.]"
FILE "Various - [04] - 2008 [Сделано в С.С.С.Р.].flac" WAVE
  TRACK 01 AUDIO
    TITLE "Лейтмотив (А.Басилая - рус.текст. Ю.Ряшенцева)"
    PERFORMER "ВИА «ИВЕРИЯ»"
    INDEX 01 00:00:00
  TRACK 02 AUDIO
    TITLE "Неужели всё так просто (Г.Цабадзе - И.Шаферан)"
    PERFORMER "ВИА «ИВЕРИЯ»"
    INDEX 00 04:09:47
    INDEX 01 04:13:45
  TRACK 03 AUDIO
    TITLE "О чём ты думаешь (А.Басилая - Р.Рождественский)"
    PERFORMER "ВИА «ИВЕРИЯ»"
    INDEX 00 06:51:20
    INDEX 01 06:55:25
  TRACK 04 AUDIO
    TITLE "Сулико (Грузинская народная песня)"
    PERFORMER "ВИА «ИНТЕГРАЛ»"
    INDEX 00 10:55:60
    INDEX 01 10:59:62
  TRACK 05 AUDIO
    TITLE "Звезда Востока (Д.Тухманов - Р.Бабаджан, Л.Ошанин)"
    PERFORMER "ВИА «ЯЛЛА»"
    INDEX 00 14:12:52
    INDEX 01 14:16:55
  TRACK 06 AUDIO
    TITLE "Синеглазая колдунья (Ш.Милорава - Л.Чубабрия, П.Грузинский, перевод Б.Брянского)"
    PERFORMER "ВИА «ОРЭРА»"
    INDEX 00 17:20:27
    INDEX 01 17:24:30
  TRACK 07 AUDIO
    TITLE "Тополя (Г.Пономаренко - А.Колесников)"
    PERFORMER "ВИА «ОРЭРА»"
    INDEX 00 20:16:05
    INDEX 01 20:20:07
  TRACK 08 AUDIO
    TITLE "Лалеби (Грузинская народная - рус. текст А.Дмоховского)"
    PERFORMER "ВИА «ОРЭРА»"
    INDEX 00 23:35:60
    INDEX 01 23:39:65
  TRACK 09 AUDIO
    TITLE "Если Волга разольётся (И.Дунаевский - В.Лебедев-Кумач)"
    PERFORMER "ВИА «ГАЯ»"
    INDEX 00 25:31:60
    INDEX 01 25:35:62
  TRACK 10 AUDIO
    TITLE "Дрозды (В.Шаинский - С.Островой)"
    PERFORMER "ВИА «ГАЯ»"
    INDEX 00 29:06:52
    INDEX 01 29:10:55
  TRACK 11 AUDIO
    TITLE "Малиновки заслышав голосок (Э.Ханок - А.Поперечный)"
    PERFORMER "ВИА «ВЕРАСЫ»"
    INDEX 00 32:51:37
    INDEX 01 32:55:40
  TRACK 12 AUDIO
    TITLE "Андрюша (И.Жак - Г.Гридов)"
    PERFORMER "ВИА «ВЕРАСЫ»"
    INDEX 00 35:23:42
    INDEX 01 35:27:45
  TRACK 13 AUDIO
    TITLE "Первое свидание (В.Раинчик - Г.Буравский, перевод П.Кошеля)"
    PERFORMER "ВИА «ВЕРАСЫ»"
    INDEX 00 38:10:00
    INDEX 01 38:14:05
  TRACK 14 AUDIO
    TITLE "Апрель (О.Мильштейн - А.Дементьев)"
    PERFORMER "ВИА «ОРИЗОНТ»"
    INDEX 00 42:14:67
    INDEX 01 42:18:67
  TRACK 15 AUDIO
    TITLE "А любовь жива (А.Бабаджанян - А.Монастырев, О.Писаржевская)"
    PERFORMER "ВИА «ОРИЗОНТ»"
    INDEX 00 45:54:25
    INDEX 01 45:58:27
  TRACK 16 AUDIO
    TITLE "Несе Галя воду (Украинская народная песня, обр. В.Маренича)"
    PERFORMER "Трио «МАРЕНИЧ»"
    INDEX 00 48:40:55
    INDEX 01 48:44:57
  TRACK 17 AUDIO
    TITLE "Ой, у гаю при Дунаю (Украинская народная песня, обр.А.Маренич)"
    PERFORMER "Трио «МАРЕНИЧ»"
    INDEX 00 52:28:02
    INDEX 01 52:32:05
  TRACK 18 AUDIO
    TITLE "Вологда (Б.Мокроусов - М.Матусовский)"
    PERFORMER "ВИА «ПЕСНЯРЫ»"
    INDEX 00 56:29:65
    INDEX 01 56:33:70
  TRACK 19 AUDIO
    TITLE "Зачарованная моя (И.Лученок - Г.Буравкин)"
    PERFORMER "ВИА «ПЕСНЯРЫ»"
    INDEX 00 60:09:40
    INDEX 01 60:13:52

2007 VA - Сделано в С.С.С.Р. / CD 5

-продолжительность: 01:01:15-01. Оркестр - Свадебный марш [Отрывок] (Ф.Мендельсон) (01:04)
02. Алла Пугачёва - И продолжение следует (Ю.Левитин - М.Матусовский) (03:01)
03. С.Давидян & оркестр п/у Арно Бабаджаняна - Песня первой любви (А.Бабаджанян - Г.Регистан) (02:59)
04. Нина Бродская - Выходной (Б.Потёмкин) (02:34)
05. D.Reed - Вчера когда я был молод (C.Aznavour - H.Kretzmer) (03:39)
06. ВИА «НОРОК» - Артист поёт (М.Долган - Е.Кримерман) (02:37)
07. Рашид Бейбутов - О, песня звонкая (Р.Бабаев - З.Лоташ) (04:37)
08. ВИА «Но То Цо» - Червона рута (В.Ивасюк) (03:19)
09. T.Jones - Делайла [Delilah] (B.Mason - L.Reed) (03:24)
10. Лариса Долина - Свет улыбки твоей (Д.Львов-Компанеец - В.Татаринов) (02:54)
11. Янош Коош - Весёлый дедушка (Я.Коош - Я.Коош) (02:08)
12. Янош Коош - Чёрный поезд (В.Хаваши-В.Хаваши,пер. О.Жукова) (03:08)
13. Арно Бабаджанян - Год любви (А.Бабаджанян - А.Вознесенский) (02:27)
14. А.Дедич - Черемшина (В.Михайлюк - М.Юрийчук) (03:46)
15. Тынис Мяги - Сердце не спит (В.Добрынин - Л.Дербенёв) (05:26)
16. Ансамбль «Филипинки» - Мы «Филипинки» (Я.Яниковский) (02:28)
17. Ансамбль «Филипинки» - Валентина (Я.Яниковский) (02:41)
18. Екатерина Суржикова - Чудо-Юдо (В.Семёнов - В.Дюнин) (03:12)
19. Янош Коош - Хенки-пенки (Ф.Пуго) (02:57)
20. Аида Ведищева - Арифметика (В.Хвойницкий - Н.Олев) (02:46)

лог создания рипа

Exact Audio Copy V0.99 prebeta 5 from 4. May 2009
Отчёт EAC об извлечении, выполненном 12. мая 2011, 20:27
Various / [05] - 2008 [Сделано в С.С.С.Р.]
Дисковод: Optiarc DVD RW AD-7190A   Adapter: 0  ID: 0
Режим чтения                 : Достоверность
Использование точного потока : Да
Отключение кэша аудио        : Да
Использование указателей C2  : Нет
Коррекция смещения при чтении                     : 6
Способность читать области Lead-in и Lead-out     : Нет
Заполнение пропущенных сэмплов тишиной            : Да
Удаление блоков с тишиной в начале и конце        : Нет
При вычислениях CRC использовались нулевые сэмплы : Да
Интерфейс                                         : Встроенный Win32-интерфейс для Win NT/2000
Выходной формат : Внутренние WAV-операции
Формат сэмплов  : 44.100 Гц; 16 бит; стерео
TOC извлечённого CD
     Трек |   Старт  | Длительность | Начальный сектор | Конечный сектор
    ---------------------------------------------------------------------
       1  |  0:00.00 |    1:04.31   |           0      |       4830
       2  |  1:04.31 |    3:01.55   |        4831      |      18460
       3  |  4:06.11 |    2:59.59   |       18461      |      31944
       4  |  7:05.70 |    2:34.53   |       31945      |      43547
       5  |  9:40.48 |    3:39.27   |       43548      |      59999
       6  | 13:20.00 |    2:37.08   |       60000      |      71782
       7  | 15:57.08 |    4:37.23   |       71783      |      92580
       8  | 20:34.31 |    3:19.62   |       92581      |     107567
       9  | 23:54.18 |    3:24.72   |      107568      |     122939
      10  | 27:19.15 |    2:54.04   |      122940      |     135993
      11  | 30:13.19 |    2:08.05   |      135994      |     145598
      12  | 32:21.24 |    3:08.30   |      145599      |     159728
      13  | 35:29.54 |    2:27.10   |      159729      |     170763
      14  | 37:56.64 |    3:46.12   |      170764      |     187725
      15  | 41:43.01 |    5:26.27   |      187726      |     212202
      16  | 47:09.28 |    2:28.52   |      212203      |     223354
      17  | 49:38.05 |    2:41.44   |      223355      |     235473
      18  | 52:19.49 |    3:12.57   |      235474      |     249930
      19  | 55:32.31 |    2:57.07   |      249931      |     263212
      20  | 58:29.38 |    2:46.36   |      263213      |     275698
Характеристики диапазона извлечения и сообщения об ошибках
Выбранный диапазон
     Имя файла C:\МУЗЫКА\RETRO SBORNIK [Сделано в С.С.С.Р.] (с) Мелодия\[05] - 2008 [Сделано в С.С.С.Р.]\Various - [05] - 2008 [Сделано в С.С.С.Р.].wav
     Пиковый уровень 100.0 %
     Качество диапазона 100.0 %
     CRC теста 54F84928
     CRC копии 54F84928
     Копирование... OK
Ошибок не произошло
AccurateRip: сводка
Трек  1  нет в базе данных
Трек  2  нет в базе данных
Трек  3  нет в базе данных
Трек  4  нет в базе данных
Трек  5  нет в базе данных
Трек  6  нет в базе данных
Трек  7  нет в базе данных
Трек  8  нет в базе данных
Трек  9  нет в базе данных
Трек 10  нет в базе данных
Трек 11  нет в базе данных
Трек 12  нет в базе данных
Трек 13  нет в базе данных
Трек 14  нет в базе данных
Трек 15  нет в базе данных
Трек 16  нет в базе данных
Трек 17  нет в базе данных
Трек 18  нет в базе данных
Трек 19  нет в базе данных
Трек 20  нет в базе данных
Ни одного трека нет в базе AccurateRip
Конец отчёта

содержание индексной карты *cue

REM GENRE Retro
REM DATE 2008
REM DISCID 070E5B14
REM COMMENT "ExactAudioCopy v0.99pb5"
PERFORMER "Various"
TITLE "[05] - 2008 [Сделано в С.С.С.Р.]"
FILE "Various - [05] - 2008 [Сделано в С.С.С.Р.].flac" WAVE
  TRACK 01 AUDIO
    TITLE "Свадебный марш [Отрывок] (Ф.Мендельсон)"
    PERFORMER "Оркестр"
    INDEX 01 00:00:00
  TRACK 02 AUDIO
    TITLE "И продолжение следует (Ю.Левитин - М.Матусовский)"
    PERFORMER "Алла Пугачёва"
    INDEX 00 01:00:31
    INDEX 01 01:04:31
  TRACK 03 AUDIO
    TITLE "Песня первой любви (А.Бабаджанян - Г.Регистан)"
    PERFORMER "С.Давидян & оркестр п/у Арно Бабаджаняна"
    INDEX 00 04:02:11
    INDEX 01 04:06:11
  TRACK 04 AUDIO
    TITLE "Выходной (Б.Потёмкин)"
    PERFORMER "Нина Бродская"
    INDEX 00 07:01:70
    INDEX 01 07:05:70
  TRACK 05 AUDIO
    TITLE "Вчера когда я был молод (C.Aznavour - H.Kretzmer) "
    PERFORMER "D.Reed"
    INDEX 00 09:36:48
    INDEX 01 09:40:48
  TRACK 06 AUDIO
    TITLE "Артист поёт (М.Долган - Е.Кримерман)"
    PERFORMER "ВИА «НОРОК»"
    INDEX 00 13:16:00
    INDEX 01 13:20:00
  TRACK 07 AUDIO
    TITLE "О, песня звонкая (Р.Бабаев - З.Лоташ)"
    PERFORMER "Рашид Бейбутов"
    INDEX 00 15:53:08
    INDEX 01 15:57:08
  TRACK 08 AUDIO
    TITLE "Червона рута (В.Ивасюк)"
    PERFORMER "ВИА «Но То Цо»"
    INDEX 00 20:30:31
    INDEX 01 20:34:31
  TRACK 09 AUDIO
    TITLE "Делайла [Delilah] (B.Mason - L.Reed)"
    PERFORMER "T.Jones"
    INDEX 00 23:50:18
    INDEX 01 23:54:18
  TRACK 10 AUDIO
    TITLE "Свет улыбки твоей (Д.Львов-Компанеец - В.Татаринов)"
    PERFORMER "Лариса Долина"
    INDEX 00 27:15:15
    INDEX 01 27:19:15
  TRACK 11 AUDIO
    TITLE "Весёлый дедушка (Я.Коош - Я.Коош)"
    PERFORMER "Янош Коош"
    INDEX 00 30:09:19
    INDEX 01 30:13:19
  TRACK 12 AUDIO
    TITLE "Чёрный поезд (В.Хаваши-В.Хаваши,пер. О.Жукова)"
    PERFORMER "Янош Коош"
    INDEX 00 32:17:24
    INDEX 01 32:21:24
  TRACK 13 AUDIO
    TITLE "Год любви (А.Бабаджанян - А.Вознесенский)"
    PERFORMER "Арно Бабаджанян"
    INDEX 00 35:25:54
    INDEX 01 35:29:54
  TRACK 14 AUDIO
    TITLE "Черемшина (В.Михайлюк - М.Юрийчук)"
    PERFORMER "А.Дедич"
    INDEX 00 37:52:64
    INDEX 01 37:56:64
  TRACK 15 AUDIO
    TITLE "Сердце не спит (В.Добрынин - Л.Дербенёв)"
    PERFORMER "Тынис Мяги"
    INDEX 00 41:39:01
    INDEX 01 41:43:01
  TRACK 16 AUDIO
    TITLE "Мы «Филипинки» (Я.Яниковский)"
    PERFORMER "Ансамбль «Филипинки»"
    INDEX 00 47:05:28
    INDEX 01 47:09:28
  TRACK 17 AUDIO
    TITLE "Валентина (Я.Яниковский)"
    PERFORMER "Ансамбль «Филипинки»"
    INDEX 00 49:34:05
    INDEX 01 49:38:05
  TRACK 18 AUDIO
    TITLE "Чудо-Юдо (В.Семёнов - В.Дюнин)"
    PERFORMER "Екатерина Суржикова"
    INDEX 00 52:15:49
    INDEX 01 52:19:49
  TRACK 19 AUDIO
    TITLE "Хенки-пенки (Ф.Пуго)"
    PERFORMER "Янош Коош"
    INDEX 00 55:28:31
    INDEX 01 55:32:31
  TRACK 20 AUDIO
    TITLE "Арифметика (В.Хвойницкий - Н.Олев)"
    PERFORMER "Аида Ведищева"
    INDEX 00 58:25:38
    INDEX 01 58:29:38

2007 VA - Сделано в С.С.С.Р. / CD 6

-продолжительность: 00:45:26-01. Мария Пахоменко - А весна была до нас (С.Касторский - М.Танич) (02:35)
02. Ф.Боккара - Белый свет (О.Фельцман - М.Танич,И.Шаферан) (02:39)
03. В.Круглова & В.Мулерман - Для чего ? (Б.Савельев - Л.Меснянкин) (02:10)
04. Л.Берлинская & И.Капитанников - Ты мне веришь (А.Рыбников - И.Кохановский) (02:55)
05. ВИА «САМОЦВЕТЫ» - Что со мной ты сделала (Р.Майоров - М.Пляцковский) (03:32)
06. Катарина Валенте - В субботний вечер (Кайми) (02:42)
07. Сёстры Пинатс - Каникулы любви (Я.Миягава) (03:08)
08. Мирза Зивере & Имант Ванзович - Надо подумать (З.Лиепиньш - В.Костров) (03:54)
09. Мирза Зивере & Имант Ванзович - Вот это да (З.Лиепиньш - В.Костров) (03:11)
10. Джанни Моранди - Знакомая мелодия (Легар) (02:38)
11. Джорже Марьянович - Марко Поло (Дж.Марьянович) (02:04)
12. Мирза Зивере & Имант Ванзович - Чудак (З.Лиепиньш - В.Костров) (03:04)
13. Ансамбль «СЕМЕРО СМЕЛЫХ» - Соловьи поют, заливаются (Е.Мартынов - Д.Усманов) (03:11)
14. Мануэль - В эту ночь (Мануэль) (02:07)
15. Мария Пахоменко & Наталья Пахоменко - Невеста (В.Шаинский - М.Рябинин) (03:23)
16. Инструментальный ансамбль - Лепестки розы (Х.Накамура) (02:06)

лог создания рипа

Exact Audio Copy V0.99 prebeta 5 from 4. May 2009
Отчёт EAC об извлечении, выполненном 12. мая 2011, 21:08
Various / [06] - 2008 [Сделано в С.С.С.Р.]
Дисковод: Optiarc DVD RW AD-7190A   Adapter: 0  ID: 0
Режим чтения                 : Достоверность
Использование точного потока : Да
Отключение кэша аудио        : Да
Использование указателей C2  : Нет
Коррекция смещения при чтении                     : 6
Способность читать области Lead-in и Lead-out     : Нет
Заполнение пропущенных сэмплов тишиной            : Да
Удаление блоков с тишиной в начале и конце        : Нет
При вычислениях CRC использовались нулевые сэмплы : Да
Интерфейс                                         : Встроенный Win32-интерфейс для Win NT/2000
Выходной формат : Внутренние WAV-операции
Формат сэмплов  : 44.100 Гц; 16 бит; стерео
TOC извлечённого CD
     Трек |   Старт  | Длительность | Начальный сектор | Конечный сектор
    ---------------------------------------------------------------------
       1  |  0:00.00 |    2:35.04   |           0      |      11628
       2  |  2:35.04 |    2:39.40   |       11629      |      23593
       3  |  5:14.44 |    2:10.18   |       23594      |      33361
       4  |  7:24.62 |    2:55.57   |       33362      |      46543
       5  | 10:20.44 |    3:32.10   |       46544      |      62453
       6  | 13:52.54 |    2:42.11   |       62454      |      74614
       7  | 16:34.65 |    3:08.22   |       74615      |      88736
       8  | 19:43.12 |    3:54.65   |       88737      |     106351
       9  | 23:38.02 |    3:11.05   |      106352      |     120681
      10  | 26:49.07 |    2:38.66   |      120682      |     132597
      11  | 29:27.73 |    2:04.62   |      132598      |     141959
      12  | 31:32.60 |    3:04.68   |      141960      |     155827
      13  | 34:37.53 |    3:11.42   |      155828      |     170194
      14  | 37:49.20 |    2:07.14   |      170195      |     179733
      15  | 39:56.34 |    3:23.47   |      179734      |     195005
      16  | 43:20.06 |    2:06.58   |      195006      |     204513
Характеристики диапазона извлечения и сообщения об ошибках
Выбранный диапазон
     Имя файла C:\МУЗЫКА\RETRO SBORNIK [Сделано в С.С.С.Р.] (с) Мелодия\[06] - 2008 [Сделано в С.С.С.Р.]\Various - [06] - 2008 [Сделано в С.С.С.Р.].wav
     Пиковый уровень 100.0 %
     Качество диапазона 100.0 %
     CRC теста 91CCDCEC
     CRC копии 91CCDCEC
     Копирование... OK
Ошибок не произошло
AccurateRip: сводка
Трек  1  нет в базе данных
Трек  2  нет в базе данных
Трек  3  нет в базе данных
Трек  4  нет в базе данных
Трек  5  нет в базе данных
Трек  6  нет в базе данных
Трек  7  нет в базе данных
Трек  8  нет в базе данных
Трек  9  нет в базе данных
Трек 10  нет в базе данных
Трек 11  нет в базе данных
Трек 12  нет в базе данных
Трек 13  нет в базе данных
Трек 14  нет в базе данных
Трек 15  нет в базе данных
Трек 16  нет в базе данных
Ни одного трека нет в базе AccurateRip
Конец отчёта

содержание индексной карты *cue

REM GENRE Retro
REM DATE 2008
REM DISCID E20AA610
REM COMMENT "ExactAudioCopy v0.99pb5"
PERFORMER "Various"
TITLE "[06] - 2008 [Сделано в С.С.С.Р.]"
FILE "Various - [06] - 2008 [Сделано в С.С.С.Р.].flac" WAVE
  TRACK 01 AUDIO
    TITLE "А весна была до нас (С.Касторский - М.Танич)"
    PERFORMER "Мария Пахоменко"
    INDEX 01 00:00:00
  TRACK 02 AUDIO
    TITLE "Белый свет (О.Фельцман - М.Танич,И.Шаферан)"
    PERFORMER "Ф.Боккара"
    INDEX 00 02:31:04
    INDEX 01 02:35:04
  TRACK 03 AUDIO
    TITLE "Для чего ? (Б.Савельев - Л.Меснянкин)"
    PERFORMER "В.Круглова & В.Мулерман"
    INDEX 00 05:10:44
    INDEX 01 05:14:44
  TRACK 04 AUDIO
    TITLE "Ты мне веришь (А.Рыбников - И.Кохановский)"
    PERFORMER "Л.Берлинская & И.Капитанников"
    INDEX 00 07:20:62
    INDEX 01 07:24:62
  TRACK 05 AUDIO
    TITLE "Что со мной ты сделала (Р.Майоров - М.Пляцковский)"
    PERFORMER "ВИА «САМОЦВЕТЫ»"
    INDEX 00 10:16:44
    INDEX 01 10:20:44
  TRACK 06 AUDIO
    TITLE "В субботний вечер (Кайми)"
    PERFORMER "Катарина Валенте"
    INDEX 00 13:48:54
    INDEX 01 13:52:54
  TRACK 07 AUDIO
    TITLE "Каникулы любви (Я.Миягава)"
    PERFORMER "Сёстры Пинатс"
    INDEX 00 16:30:65
    INDEX 01 16:34:65
  TRACK 08 AUDIO
    TITLE "Надо подумать (З.Лиепиньш - В.Костров)"
    PERFORMER "Мирза Зивере & Имант Ванзович"
    INDEX 00 19:38:47
    INDEX 01 19:43:12
  TRACK 09 AUDIO
    TITLE "Вот это да (З.Лиепиньш - В.Костров)"
    PERFORMER "Мирза Зивере & Имант Ванзович"
    INDEX 00 23:34:02
    INDEX 01 23:38:02
  TRACK 10 AUDIO
    TITLE "Знакомая мелодия (Легар)"
    PERFORMER "Джанни Моранди"
    INDEX 00 26:45:07
    INDEX 01 26:49:07
  TRACK 11 AUDIO
    TITLE "Марко Поло (Дж.Марьянович)"
    PERFORMER "Джорже Марьянович"
    INDEX 00 29:23:73
    INDEX 01 29:27:73
  TRACK 12 AUDIO
    TITLE "Чудак (З.Лиепиньш - В.Костров) "
    PERFORMER "Мирза Зивере & Имант Ванзович"
    INDEX 00 31:28:60
    INDEX 01 31:32:60
  TRACK 13 AUDIO
    TITLE "Соловьи поют, заливаются (Е.Мартынов - Д.Усманов)"
    PERFORMER "Ансамбль «СЕМЕРО СМЕЛЫХ»"
    INDEX 00 34:33:53
    INDEX 01 34:37:53
  TRACK 14 AUDIO
    TITLE "В эту ночь (Мануэль)"
    PERFORMER "Мануэль"
    INDEX 00 37:45:20
    INDEX 01 37:49:20
  TRACK 15 AUDIO
    TITLE "Невеста (В.Шаинский - М.Рябинин)"
    PERFORMER "Мария Пахоменко & Наталья Пахоменко"
    INDEX 00 39:52:34
    INDEX 01 39:56:34
  TRACK 16 AUDIO
    TITLE "Лепестки розы (Х.Накамура)"
    PERFORMER "Инструментальный ансамбль"
    INDEX 00 43:16:06
    INDEX 01 43:20:06

2007 VA - Сделано в С.С.С.Р. / CD 7

-продолжительность: 01:04:18-01. Людмила Сенчина - Романс из к-ф «Дни Турбиных» (В.Баснер - М.Матусовский) (03:48)
02. Ион Саручану - Зачем (П.Теодорович - В.Дагуров) (03:32)
03. Вячеслав Малежик - Провинциалка (В.Малежик - М.Танич) (03:17)
04. Александр Серов - Музыка венчальная (И.Крутой - Р.Казакова) (04:42)
05. Ольга Зарубина - Заговорные слова (Б.Емельянов - Ю.Кацук) (02:48)
06. Екатерина Семёнова - Подруги замужем давно (О.Сорокин - М.Шабров) (03:17)
07. Михаил Муромов - Ариадна (А.Зубков, М.Муромов - Р.Казакова) (06:05)
08. Алла Пугачёва - Надо же (В.Кузьмин) (03:53)
09. Екатерина Семёнова - На минутку (В.Дорохин - Л.Дорохин) (04:13)
10. Вокальный дуэт Е.Дрицкая и В.Артюк - Не забывай (И.Дунаевский - М.Матусовский) (02:11)
11. Г.Бонам - Хаббл-Баббл (М.Берри - Г.Шапер) (03:23)
12. ВИА «АВТОГРАФ» - Каприз (А.Ситковецкий) (04:26)
13. М.Головня - На Тихорецкую (М.Таривердыев - М.Львовский) (02:53)
14. Группа «КРУИЗ» - Волчок (С.Сарычев - В.Сауткин) (03:40)
15. Ольга Зарубина - Ты приехал (В.Добрынин - М.Рябинин) (03:30)
16. Валентина Толкунова & Леонид Серебренников - Уходит теплоход (А.Изотов - М.Лисянский) (02:49)
17. А.Ефремов - Мечта из к-ф «Раба любви» (Э.Артемьев - Н.Кончаловская) (05:43)

лог создания рипа

Exact Audio Copy V0.99 prebeta 5 from 4. May 2009
Отчёт EAC об извлечении, выполненном 12. мая 2011, 22:08
Various / [07] - 2010 [Сделано в С.С.С.Р.]
Дисковод: Optiarc DVD RW AD-7190A   Adapter: 0  ID: 0
Режим чтения                 : Достоверность
Использование точного потока : Да
Отключение кэша аудио        : Да
Использование указателей C2  : Нет
Коррекция смещения при чтении                     : 6
Способность читать области Lead-in и Lead-out     : Нет
Заполнение пропущенных сэмплов тишиной            : Да
Удаление блоков с тишиной в начале и конце        : Нет
При вычислениях CRC использовались нулевые сэмплы : Да
Интерфейс                                         : Встроенный Win32-интерфейс для Win NT/2000
Выходной формат : Внутренние WAV-операции
Формат сэмплов  : 44.100 Гц; 16 бит; стерео
TOC извлечённого CD
     Трек |   Старт  | Длительность | Начальный сектор | Конечный сектор
    ---------------------------------------------------------------------
       1  |  0:00.00 |    3:48.50   |           0      |      17149
       2  |  3:48.50 |    3:32.03   |       17150      |      33052
       3  |  7:20.53 |    3:17.25   |       33053      |      47852
       4  | 10:38.03 |    4:42.59   |       47853      |      69061
       5  | 15:20.62 |    2:48.16   |       69062      |      81677
       6  | 18:09.03 |    3:17.63   |       81678      |      96515
       7  | 21:26.66 |    6:05.54   |       96516      |     123944
       8  | 27:32.45 |    3:53.30   |      123945      |     141449
       9  | 31:26.00 |    4:13.06   |      141450      |     160430
      10  | 35:39.06 |    2:11.14   |      160431      |     170269
      11  | 37:50.20 |    3:23.74   |      170270      |     185568
      12  | 41:14.19 |    4:26.09   |      185569      |     205527
      13  | 45:40.28 |    2:53.54   |      205528      |     218556
      14  | 48:34.07 |    3:40.72   |      218557      |     235128
      15  | 52:15.04 |    3:30.60   |      235129      |     250938
      16  | 55:45.64 |    2:49.39   |      250939      |     263652
      17  | 58:35.28 |    5:43.02   |      263653      |     289379
Характеристики диапазона извлечения и сообщения об ошибках
Выбранный диапазон
     Имя файла C:\МУЗЫКА\RETRO SBORNIK [Сделано в С.С.С.Р.] (с) Мелодия\[07] - 2010 [Сделано в С.С.С.Р.]\Various - [07] - 2010 [Сделано в С.С.С.Р.].wav
     Пиковый уровень 100.0 %
     Качество диапазона 100.0 %
     CRC теста EB339826
     CRC копии EB339826
     Копирование... OK
Ошибок не произошло
AccurateRip: сводка
Трек  1  нет в базе данных
Трек  2  нет в базе данных
Трек  3  нет в базе данных
Трек  4  нет в базе данных
Трек  5  нет в базе данных
Трек  6  нет в базе данных
Трек  7  нет в базе данных
Трек  8  нет в базе данных
Трек  9  нет в базе данных
Трек 10  нет в базе данных
Трек 11  нет в базе данных
Трек 12  нет в базе данных
Трек 13  нет в базе данных
Трек 14  нет в базе данных
Трек 15  нет в базе данных
Трек 16  нет в базе данных
Трек 17  нет в базе данных
Ни одного трека нет в базе AccurateRip
Конец отчёта

содержание индексной карты *cue

REM GENRE Retro
REM DATE 2010
REM DISCID E70F1211
REM COMMENT "ExactAudioCopy v0.99pb5"
PERFORMER "Various"
TITLE "[07] - 2010 [Сделано в С.С.С.Р.]"
FILE "Various - [07] - 2010 [Сделано в С.С.С.Р.].flac" WAVE
  TRACK 01 AUDIO
    TITLE "Романс из к-ф «Дни Турбиных» (В.Баснер - М.Матусовский)"
    PERFORMER "Людмила Сенчина"
    FLAGS DCP
    INDEX 01 00:00:00
  TRACK 02 AUDIO
    TITLE "Зачем (П.Теодорович - В.Дагуров)"
    PERFORMER "Ион Саручану"
    FLAGS DCP
    INDEX 00 03:44:50
    INDEX 01 03:48:50
  TRACK 03 AUDIO
    TITLE "Провинциалка (В.Малежик - М.Танич)"
    PERFORMER "Вячеслав Малежик"
    FLAGS DCP
    INDEX 00 07:16:53
    INDEX 01 07:20:53
  TRACK 04 AUDIO
    TITLE "Музыка венчальная (И.Крутой - Р.Казакова)"
    PERFORMER "Александр Серов"
    FLAGS DCP
    INDEX 00 10:34:03
    INDEX 01 10:38:03
  TRACK 05 AUDIO
    TITLE "Заговорные слова (Б.Емельянов - Ю.Кацук)"
    PERFORMER "Ольга Зарубина"
    FLAGS DCP
    INDEX 00 15:16:62
    INDEX 01 15:20:62
  TRACK 06 AUDIO
    TITLE "Подруги замужем давно (О.Сорокин - М.Шабров)"
    PERFORMER "Екатерина Семёнова"
    FLAGS DCP
    INDEX 00 18:05:03
    INDEX 01 18:09:03
  TRACK 07 AUDIO
    TITLE "Ариадна (А.Зубков, М.Муромов - Р.Казакова)"
    PERFORMER "Михаил Муромов"
    FLAGS DCP
    INDEX 00 21:22:66
    INDEX 01 21:26:66
  TRACK 08 AUDIO
    TITLE "Надо же (В.Кузьмин)"
    PERFORMER "Алла Пугачёва"
    FLAGS DCP
    INDEX 00 27:28:45
    INDEX 01 27:32:45
  TRACK 09 AUDIO
    TITLE "На минутку (В.Дорохин - Л.Дорохин)"
    PERFORMER "Екатерина Семёнова"
    FLAGS DCP
    INDEX 00 31:22:00
    INDEX 01 31:26:00
  TRACK 10 AUDIO
    TITLE "Не забывай (И.Дунаевский - М.Матусовский)"
    PERFORMER "Вокальный дуэт Е.Дрицкая и В.Артюк"
    FLAGS DCP
    INDEX 00 35:35:06
    INDEX 01 35:39:06
  TRACK 11 AUDIO
    TITLE "Хаббл-Баббл (М.Берри - Г.Шапер)"
    PERFORMER "Г.Бонам"
    FLAGS DCP
    INDEX 00 37:46:20
    INDEX 01 37:50:20
  TRACK 12 AUDIO
    TITLE "Каприз (А.Ситковецкий)"
    PERFORMER "ВИА «АВТОГРАФ»"
    FLAGS DCP
    INDEX 00 41:10:19
    INDEX 01 41:14:19
  TRACK 13 AUDIO
    TITLE "На Тихорецкую (М.Таривердыев - М.Львовский)"
    PERFORMER "М.Головня"
    FLAGS DCP
    INDEX 00 45:36:28
    INDEX 01 45:40:28
  TRACK 14 AUDIO
    TITLE "Волчок (С.Сарычев - В.Сауткин)"
    PERFORMER "Группа «КРУИЗ»"
    FLAGS DCP
    INDEX 00 48:30:07
    INDEX 01 48:34:07
  TRACK 15 AUDIO
    TITLE "Ты приехал (В.Добрынин - М.Рябинин)"
    PERFORMER "Ольга Зарубина"
    FLAGS DCP
    INDEX 00 52:11:04
    INDEX 01 52:15:04
  TRACK 16 AUDIO
    TITLE "Уходит теплоход (А.Изотов - М.Лисянский)"
    PERFORMER "Валентина Толкунова & Леонид Серебренников"
    FLAGS DCP
    INDEX 00 55:41:64
    INDEX 01 55:45:64
  TRACK 17 AUDIO
    TITLE "Мечта из к-ф «Раба любви» (Э.Артемьев - Н.Кончаловская)"
    PERFORMER "А.Ефремов"
    FLAGS DCP
    INDEX 00 58:31:28
    INDEX 01 58:35:28

2007 VA - Сделано в С.С.С.Р. / CD 8

-продолжительность: 00:59:29-01. Муслим Магомаев & Вокальный квартет «АККОРД» - Лучший город Земли (А.Бабаджанян - Л.Дербенёв) (02:36)
02. Марк Бернес - Когда разлюбишь ты (Э.Колмановский - И.Гофф) (03:16)
03. Майя Кристалинская - В нашем городе дождь (Э.Колмановский - Е.Евтушенко (03:26)
04. Валентина Толкунова - Где ты раньше был (Э.Колмановский - Е.Долматовский) (03:15)
05. ВИА «ГАЯ» - Лучше нету того цвету (М.Блантер - М.Исаковский) (05:30)
06. ВИА «ПЕСНЯРЫ» - Берёзовый сок (В.Баснер - М.Матусовский) (04:05)
07. Анна Герман - Вы хотели мне что-то сказать (Е.Птичкин - И.Шаферан) (03:35)
08. ВИА «ОРЭРА» - А где мне взять такую песню (Г.Паноморенко - О.Агашина) (03:38)
09. Эдуард Хиль - Журавлёнок (Э.Колмановский - И.Шаферан) (03:31)
10. Группа Стаса Намина «ЦВЕТЫ» - Ты только слушай (А.Слизунов - С.Намин) (03:44)
11. Рашид Бейбутов - По горным дорогам (С.Агабабов - Р.Гамзатов ,пер.Я.Козловского) (02:30)
12. Марк Бернес - Я работаю волшебником (Э.Колмановский - Л.Ошанин) (03:16)
13. Клавдия Шульженко - Где же вы теперь, друзья-однополчане (А.Соловьёв-Седой - А.Фатьянова) (03:25)
14. Эмиль Горовец - Твоя любовь (А.Долуханян - М.Лисянский) (02:27)
15. Группа Стаса Намина «ЦВЕТЫ» - Богатырская наша сила (А.Пахмутова - Н.Добронравов) (04:02)
16. Анна Герман - И меня пожалей (А.Пахмутова - И.Гофф) (03:55)
17. ВИА «САМОЦВЕТЫ» - Вся жизнь впереди (А.Экимян - Р.Рождественский) (03:11)

[/align

лог создания рипа

Exact Audio Copy V0.99 prebeta 5 from 4. May 2009
Отчёт EAC об извлечении, выполненном 14. мая 2011, 20:19
Various / [08] - 2010 [Сделано в С.С.С.Р.]
Дисковод: Optiarc DVD RW AD-7190A   Adapter: 0  ID: 0
Режим чтения                 : Достоверность
Использование точного потока : Да
Отключение кэша аудио        : Да
Использование указателей C2  : Нет
Коррекция смещения при чтении                     : 6
Способность читать области Lead-in и Lead-out     : Нет
Заполнение пропущенных сэмплов тишиной            : Да
Удаление блоков с тишиной в начале и конце        : Нет
При вычислениях CRC использовались нулевые сэмплы : Да
Интерфейс                                         : Встроенный Win32-интерфейс для Win NT/2000
Выходной формат : Внутренние WAV-операции
Формат сэмплов  : 44.100 Гц; 16 бит; стерео
TOC извлечённого CD
     Трек |   Старт  | Длительность | Начальный сектор | Конечный сектор
    ---------------------------------------------------------------------
       1  |  0:00.00 |    2:36.28   |           0      |      11727
       2  |  2:36.28 |    3:16.60   |       11728      |      26487
       3  |  5:53.13 |    3:26.27   |       26488      |      41964
       4  |  9:19.40 |    3:15.05   |       41965      |      56594
       5  | 12:34.45 |    5:30.26   |       56595      |      81370
       6  | 18:04.71 |    4:05.55   |       81371      |      99800
       7  | 22:10.51 |    3:35.35   |       99801      |     115960
       8  | 25:46.11 |    3:38.07   |      115961      |     132317
       9  | 29:24.18 |    3:31.11   |      132318      |     148153
      10  | 32:55.29 |    3:44.71   |      148154      |     165024
      11  | 36:40.25 |    2:30.16   |      165025      |     176290
      12  | 39:10.41 |    3:16.06   |      176291      |     190996
      13  | 42:26.47 |    3:25.35   |      190997      |     206406
      14  | 45:52.07 |    2:27.10   |      206407      |     217441
      15  | 48:19.17 |    4:02.59   |      217442      |     235650
      16  | 52:22.01 |    3:55.22   |      235651      |     253297
      17  | 56:17.23 |    3:11.64   |      253298      |     267686
Характеристики диапазона извлечения и сообщения об ошибках
Выбранный диапазон
     Имя файла C:\МУЗЫКА\RETRO SBORNIK [Сделано в С.С.С.Р.] (с) Мелодия\[08] - 2010 [Сделано в С.С.С.Р.]\Various - [08] - 2010 [Сделано в С.С.С.Р.].wav
     Пиковый уровень 100.0 %
     Качество диапазона 100.0 %
     CRC теста E433D86C
     CRC копии E433D86C
     Копирование... OK
Ошибок не произошло
AccurateRip: сводка
Трек  1  нет в базе данных
Трек  2  нет в базе данных
Трек  3  нет в базе данных
Трек  4  нет в базе данных
Трек  5  нет в базе данных
Трек  6  нет в базе данных
Трек  7  нет в базе данных
Трек  8  нет в базе данных
Трек  9  нет в базе данных
Трек 10  нет в базе данных
Трек 11  нет в базе данных
Трек 12  нет в базе данных
Трек 13  нет в базе данных
Трек 14  нет в базе данных
Трек 15  нет в базе данных
Трек 16  нет в базе данных
Трек 17  нет в базе данных
Ни одного трека нет в базе AccurateRip
Конец отчёта

содержание индексной карты *cue

REM GENRE Retro
REM DATE 2010
REM DISCID F60DF111
REM COMMENT "ExactAudioCopy v0.99pb5"
PERFORMER "Various"
TITLE "[08] - 2010 [Сделано в С.С.С.Р.]"
FILE "Various - [08] - 2010 [Сделано в С.С.С.Р.].flac" WAVE
  TRACK 01 AUDIO
    TITLE "Лучший город Земли (А.Бабаджанян - Л.Дербенёв)"
    PERFORMER "Муслим Магомаев & Вокальный квартет «АККОРД»"
    INDEX 01 00:00:00
  TRACK 02 AUDIO
    TITLE "Когда разлюбишь ты (Э.Колмановский - И.Гофф)"
    PERFORMER "Марк Бернес"
    INDEX 01 02:36:28
  TRACK 03 AUDIO
    TITLE "В нашем городе дождь (Э.Колмановский - Е.Евтушенко"
    PERFORMER "Майя Кристалинская"
    INDEX 01 05:53:13
  TRACK 04 AUDIO
    TITLE "Где ты раньше был (Э.Колмановский - Е.Долматовский)"
    PERFORMER "Валентина Толкунова"
    INDEX 01 09:19:40
  TRACK 05 AUDIO
    TITLE "Лучше нету того цвету (М.Блантер - М.Исаковский)"
    PERFORMER "ВИА «ГАЯ»"
    INDEX 01 12:34:45
  TRACK 06 AUDIO
    TITLE "Берёзовый сок (В.Баснер - М.Матусовский)"
    PERFORMER "ВИА «ПЕСНЯРЫ»"
    INDEX 01 18:04:71
  TRACK 07 AUDIO
    TITLE "Вы хотели мне что-то сказать (Е.Птичкин - И.Шаферан)"
    PERFORMER "Анна Герман"
    INDEX 01 22:10:51
  TRACK 08 AUDIO
    TITLE "А где мне взять такую песню (Г.Паноморенко - О.Агашина)"
    PERFORMER "ВИА «ОРЭРА»"
    INDEX 01 25:46:11
  TRACK 09 AUDIO
    TITLE "Журавлёнок (Э.Колмановский - И.Шаферан)"
    PERFORMER "Эдуард Хиль"
    INDEX 01 29:24:18
  TRACK 10 AUDIO
    TITLE "Ты только слушай (А.Слизунов - С.Намин)"
    PERFORMER "Группа Стаса Намина «ЦВЕТЫ»"
    INDEX 01 32:55:29
  TRACK 11 AUDIO
    TITLE "По горным дорогам (С.Агабабов - Р.Гамзатов ,пер.Я.Козловского)"
    PERFORMER "Рашид Бейбутов"
    INDEX 01 36:40:25
  TRACK 12 AUDIO
    TITLE "Я работаю волшебником (Э.Колмановский - Л.Ошанин)"
    PERFORMER "Марк Бернес"
    INDEX 01 39:10:41
  TRACK 13 AUDIO
    TITLE "Где же вы теперь, друзья-однополчане (А.Соловьёв-Седой - А.Фатьянова)"
    PERFORMER "Клавдия Шульженко"
    INDEX 01 42:26:47
  TRACK 14 AUDIO
    TITLE "Твоя любовь (А.Долуханян - М.Лисянский)"
    PERFORMER "Эмиль Горовец"
    INDEX 01 45:52:07
  TRACK 15 AUDIO
    TITLE "Богатырская наша сила (А.Пахмутова - Н.Добронравов)"
    PERFORMER "Группа Стаса Намина «ЦВЕТЫ»"
    INDEX 01 48:19:17
  TRACK 16 AUDIO
    TITLE "И меня пожалей (А.Пахмутова - И.Гофф)"
    PERFORMER "Анна Герман"
    INDEX 01 52:22:01
  TRACK 17 AUDIO
    TITLE "Вся жизнь впереди (А.Экимян - Р.Рождественский)"
    PERFORMER "ВИА «САМОЦВЕТЫ»"
    INDEX 01 56:17:23

2007 VA - Сделано в С.С.С.Р. / CD 9

-продолжительность: 01:00:42-01. Группа Стаса Намина «ЦВЕТЫ» - Скажи мне «Да» (С.Намин - В.Харитонов) (04:58)
02. Тынис Мяги - Мой дворик (В.Резников - Ю.Бодров, В.Резников) (04:14)
03. ВИА «САМОЦВЕТЫ» - Как живёте-можете, удальцы мужчины ? (А.Экимян - Р.Гамзатов,пер.Н.Гребнев) (02:26)
04. Рашид Бейбутов - По горным дорогам (С.Агабабов - Р.Гамзатов, пер.Я.Козловский) (02:29)
05. В.Трошин - Мы жили по соседству (М.Фрадкин - Е.Долматовский) (02:42)
06. Г.Великанова - Ландыши (О.Фельцман - О.Фадеев) (02:32)
07. Муслим Магомаев - Солнцем опьянённый (А.Бабаджанян - А.Горохов) (02:22)
08. Леонид Утёсов - Московские окна (Т.Хренников - М.Матусовский) (04:52)
09. Анна Герман - Мой бубен (А.Экимян - Р.Гамзатов, пер.Я.Козловский) (02:59)
10. Иосиф Кобзон - Любимая (О.Фельцман - Р.Гамзатов, пер. Е.Николаевская) (04:47)
11. Нани Брегвадзэ & М.Гонглиашвили - Калина (В.Зубков - Н.Кондаков) (03:27)
12. Аркадий Хоралов - Заброшенный лес (А.Хоралов - А.Дементьев) (03:33)
13. Иосиф Кобзон - Как молоды мы были (А.Пахмутова - Н.Добронравов) (04:55)
14. ВИА «ЦВЕТЫ» - Звёздочка моя ясная (В.Семёнов - О.Фокина) (05:14)
15. Иосиф Кобзон - Что так сердце растревожено (Т.Хренников - М.Матусовский) (04:27)
16. Нани Брегвадзэ & М.Гонглиашвили - Снегопад (А.Экимян - А.Рустайкис) (04:37)

лог создания рипа

Exact Audio Copy V0.99 prebeta 5 from 4. May 2009
Отчёт EAC об извлечении, выполненном 17. мая 2011, 12:26
Various / [09] - 2010 [Сделано в С.С.С.Р.]
Дисковод: Optiarc DVD RW AD-7190A   Adapter: 0  ID: 0
Режим чтения                 : Достоверность
Использование точного потока : Да
Отключение кэша аудио        : Да
Использование указателей C2  : Нет
Коррекция смещения при чтении                     : 6
Способность читать области Lead-in и Lead-out     : Нет
Заполнение пропущенных сэмплов тишиной            : Да
Удаление блоков с тишиной в начале и конце        : Нет
При вычислениях CRC использовались нулевые сэмплы : Да
Интерфейс                                         : Встроенный Win32-интерфейс для Win NT/2000
Выходной формат : Внутренние WAV-операции
Формат сэмплов  : 44.100 Гц; 16 бит; стерео
TOC извлечённого CD
     Трек |   Старт  | Длительность | Начальный сектор | Конечный сектор
    ---------------------------------------------------------------------
       1  |  0:00.00 |    4:58.37   |           0      |      22386
       2  |  4:58.37 |    4:14.33   |       22387      |      41469
       3  |  9:12.70 |    2:26.70   |       41470      |      52489
       4  | 11:39.65 |    2:29.63   |       52490      |      63727
       5  | 14:09.53 |    2:42.60   |       63728      |      75937
       6  | 16:52.38 |    2:32.14   |       75938      |      87351
       7  | 19:24.52 |    2:22.06   |       87352      |      98007
       8  | 21:46.58 |    4:52.39   |       98008      |     119946
       9  | 26:39.22 |    2:59.64   |      119947      |     133435
      10  | 29:39.11 |    4:47.16   |      133436      |     154976
      11  | 34:26.27 |    3:27.68   |      154977      |     170569
      12  | 37:54.20 |    3:33.16   |      170570      |     186560
      13  | 41:27.36 |    4:55.07   |      186561      |     208692
      14  | 46:22.43 |    5:14.46   |      208693      |     232288
      15  | 51:37.14 |    4:27.48   |      232289      |     252361
      16  | 56:04.62 |    4:37.16   |      252362      |     273152
Характеристики диапазона извлечения и сообщения об ошибках
Выбранный диапазон
     Имя файла C:\МУЗЫКА\RETRO SBORNIK [Сделано в С.С.С.Р.] (с) Мелодия\[09] - 2010 [Сделано в С.С.С.Р.]\Various - [09] - 2010 [Сделано в С.С.С.Р.].wav
     Пиковый уровень 100.0 %
     Качество диапазона 100.0 %
     CRC теста 91E66760
     CRC копии 91E66760
     Копирование... OK
Ошибок не произошло
AccurateRip: сводка
Трек  1  нет в базе данных
Трек  2  нет в базе данных
Трек  3  нет в базе данных
Трек  4  нет в базе данных
Трек  5  нет в базе данных
Трек  6  нет в базе данных
Трек  7  нет в базе данных
Трек  8  нет в базе данных
Трек  9  нет в базе данных
Трек 10  нет в базе данных
Трек 11  нет в базе данных
Трек 12  нет в базе данных
Трек 13  нет в базе данных
Трек 14  нет в базе данных
Трек 15  нет в базе данных
Трек 16  нет в базе данных
Ни одного трека нет в базе AccurateRip
Конец отчёта

содержание индексной карты *cue

REM GENRE Retro
REM DATE 2010
REM DISCID D60E3A10
REM COMMENT "ExactAudioCopy v0.99pb5"
PERFORMER "Various"
TITLE "[09] - 2010 [Сделано в С.С.С.Р.]"
FILE "Various - [09] - 2010 [Сделано в С.С.С.Р.].flac" WAVE
  TRACK 01 AUDIO
    TITLE "Скажи мне «Да» (С.Намин - В.Харитонов)"
    PERFORMER "Группа Стаса Намина «ЦВЕТЫ»"
    INDEX 01 00:00:00
  TRACK 02 AUDIO
    TITLE "Мой дворик (В.Резников - Ю.Бодров, В.Резников)"
    PERFORMER "Тынис Мяги"
    INDEX 01 04:58:37
  TRACK 03 AUDIO
    TITLE "Как живёте-можете, удальцы мужчины ? (А.Экимян - Р.Гамзатов,пер.Н.Гребнев)"
    PERFORMER "ВИА «САМОЦВЕТЫ»"
    INDEX 01 09:12:70
  TRACK 04 AUDIO
    TITLE "По горным дорогам (С.Агабабов - Р.Гамзатов, пер.Я.Козловский)"
    PERFORMER "Рашид Бейбутов"
    INDEX 01 11:39:65
  TRACK 05 AUDIO
    TITLE "Мы жили по соседству (М.Фрадкин - Е.Долматовский)"
    PERFORMER "В.Трошин"
    INDEX 01 14:09:53
  TRACK 06 AUDIO
    TITLE "Ландыши (О.Фельцман - О.Фадеев)"
    PERFORMER "Г.Великанова"
    INDEX 01 16:52:38
  TRACK 07 AUDIO
    TITLE "Солнцем опьянённый (А.Бабаджанян - А.Горохов)"
    PERFORMER "Муслим Магомаев"
    INDEX 01 19:24:52
  TRACK 08 AUDIO
    TITLE "Московские окна (Т.Хренников - М.Матусовский)"
    PERFORMER "Леонид Утёсов"
    INDEX 01 21:46:58
  TRACK 09 AUDIO
    TITLE "Мой бубен (А.Экимян - Р.Гамзатов, пер.Я.Козловский)"
    PERFORMER "Анна Герман"
    INDEX 01 26:39:22
  TRACK 10 AUDIO
    TITLE "Любимая (О.Фельцман - Р.Гамзатов, пер. Е.Николаевская)"
    PERFORMER "Иосиф Кобзон"
    INDEX 01 29:39:11
  TRACK 11 AUDIO
    TITLE "Калина (В.Зубков - Н.Кондаков)"
    PERFORMER "Нани Брегвадзэ & М.Гонглиашвили"
    INDEX 01 34:26:27
  TRACK 12 AUDIO
    TITLE "Заброшенный лес (А.Хоралов - А.Дементьев)"
    PERFORMER "Аркадий Хоралов"
    INDEX 01 37:54:20
  TRACK 13 AUDIO
    TITLE "Как молоды мы были (А.Пахмутова - Н.Добронравов)"
    PERFORMER "Иосиф Кобзон"
    INDEX 01 41:27:36
  TRACK 14 AUDIO
    TITLE "Звёздочка моя ясная (В.Семёнов - О.Фокина)"
    PERFORMER "ВИА «ЦВЕТЫ»"
    INDEX 01 46:22:43
  TRACK 15 AUDIO
    TITLE "Что так сердце растревожено (Т.Хренников - М.Матусовский)"
    PERFORMER "Иосиф Кобзон"
    INDEX 01 51:37:14
  TRACK 16 AUDIO
    TITLE "Снегопад (А.Экимян - А.Рустайкис)"
    PERFORMER "Нани Брегвадзэ & М.Гонглиашвили"
    INDEX 01 56:04:62

2007 VA - Сделано в С.С.С.Р. / CD 10

-продолжительность: 00:59:38-01. ВИА «АРИЭЛЬ» - Шире круг (Р.Паулс - И.Резник) (04:22)
02. Эдуард Хиль - Человек из дома вышел (С.Пожлаков - А.Ольгин) (02:30)
03. Иосиф Кобзон - Бирюсинка (Э.Колмановский - Л.Ошанин) (03:19)
04. Эмиль Горобец - Я шагаю по Москве (А.Петров - Г.Шпаликов) (02:50)
05. Анна Герман - Надежда (А.Пахмутова - Н.Добронравов) (03:45)
06. Эдуард Хиль - Опять плывут куда-то корабли (А.Колкер - И.Кашежева) (03:38)
07. Екатерина Шаврина - Гляжу в озёра синие (Л.Афанасьев - И.Шаферан) (03:40)
08. Иосиф Кобзон - Идёт девчонка (Л.Вербицкий - А.Вратарев) (02:16)
09. Муслим Магомаев - Чёртово колесо (А.Бабаджанян - Е.Евтушенко) (04:09)
10. Алла Пугачёва - Песня о Робинзоне (Ю.Чернавский - Л.Дербенёв) (04:48)
11. Иосиф Кобзон - Песня остаётся с человеком (А.Островский - С.Островой) (03:34)
12. Эдуард Хиль - Обнимая небо (А.Пахмутова - Н.Добронравов) (02:26)
13. ВИА «САМОЦВЕТЫ» - Не повторяется (С.Туликов - М.Пляцковский) (03:28)
14. Нина Бродская - Как тебя зовут (В.Гамалия - М.Танич) (02:47)
15. Иосиф Кобзон - Берегите друзей (А.Экимян - Р.Гамзатов, пер.Н.Гребнева) (04:31)
16. Анна Герман - Последняя встреча (В.Левашов - В.Крутецкий) (04:01)
17. Георг Отс - Я люблю тебя, жизнь (Э.Колмановский - К.Ваншенкин) (03:24)

лог создания рипа

Exact Audio Copy V0.99 prebeta 5 from 4. May 2009
Отчёт EAC об извлечении, выполненном 18. мая 2011, 17:20
Various / [10] - 2010 [Сделано в С.С.С.Р.]
Дисковод: Optiarc DVD RW AD-7190A   Adapter: 0  ID: 0
Режим чтения                 : Достоверность
Использование точного потока : Да
Отключение кэша аудио        : Да
Использование указателей C2  : Нет
Коррекция смещения при чтении                     : 6
Способность читать области Lead-in и Lead-out     : Нет
Заполнение пропущенных сэмплов тишиной            : Да
Удаление блоков с тишиной в начале и конце        : Нет
При вычислениях CRC использовались нулевые сэмплы : Да
Интерфейс                                         : Встроенный Win32-интерфейс для Win NT/2000
Выходной формат : Внутренние WAV-операции
Формат сэмплов  : 44.100 Гц; 16 бит; стерео
TOC извлечённого CD
     Трек |   Старт  | Длительность | Начальный сектор | Конечный сектор
    ---------------------------------------------------------------------
       1  |  0:00.00 |    4:22.63   |           0      |      19712
       2  |  4:22.63 |    2:30.56   |       19713      |      31018
       3  |  6:53.44 |    3:19.59   |       31019      |      46002
       4  | 10:13.28 |    2:50.49   |       46003      |      58801
       5  | 13:04.02 |    3:45.39   |       58802      |      75715
       6  | 16:49.41 |    3:38.50   |       75716      |      92115
       7  | 20:28.16 |    3:40.69   |       92116      |     108684
       8  | 24:09.10 |    2:16.46   |      108685      |     118930
       9  | 26:25.56 |    4:09.10   |      118931      |     137615
      10  | 30:34.66 |    4:48.36   |      137616      |     159251
      11  | 35:23.27 |    3:34.73   |      159252      |     175374
      12  | 38:58.25 |    2:26.54   |      175375      |     186378
      13  | 41:25.04 |    3:28.00   |      186379      |     201978
      14  | 44:53.04 |    2:47.32   |      201979      |     214535
      15  | 47:40.36 |    4:31.38   |      214536      |     234898
      16  | 52:11.74 |    4:01.44   |      234899      |     253017
      17  | 56:13.43 |    3:24.39   |      253018      |     268356
Характеристики диапазона извлечения и сообщения об ошибках
Выбранный диапазон
     Имя файла C:\МУЗЫКА\RETRO SBORNIK [Сделано в С.С.С.Р.] (с) Мелодия\[10] - 2010 [Сделано в С.С.С.Р.]\Various - [10] - 2010 [Сделано в С.С.С.Р.].wav
     Пиковый уровень 100.0 %
     Качество диапазона 100.0 %
     CRC теста 1A71F834
     CRC копии 1A71F834
     Копирование... OK
Ошибок не произошло
AccurateRip: сводка
Трек  1  нет в базе данных
Трек  2  нет в базе данных
Трек  3  нет в базе данных
Трек  4  нет в базе данных
Трек  5  нет в базе данных
Трек  6  нет в базе данных
Трек  7  нет в базе данных
Трек  8  нет в базе данных
Трек  9  нет в базе данных
Трек 10  нет в базе данных
Трек 11  нет в базе данных
Трек 12  нет в базе данных
Трек 13  нет в базе данных
Трек 14  нет в базе данных
Трек 15  нет в базе данных
Трек 16  нет в базе данных
Трек 17  нет в базе данных
Ни одного трека нет в базе AccurateRip
Конец отчёта

содержание индексной карты *cue

REM GENRE Retro
REM DATE 2010
REM DISCID E00DFA11
REM COMMENT "ExactAudioCopy v0.99pb5"
PERFORMER "Various"
TITLE "[10] - 2010 [Сделано в С.С.С.Р.]"
FILE "Various - [10] - 2010 [Сделано в С.С.С.Р.].flac" WAVE
  TRACK 01 AUDIO
    TITLE "Шире круг (Р.Паулс - И.Резник)"
    PERFORMER "ВИА «АРИЭЛЬ»"
    INDEX 01 00:00:00
  TRACK 02 AUDIO
    TITLE "Человек из дома вышел (С.Пожлаков - А.Ольгин)"
    PERFORMER "Эдуард Хиль"
    INDEX 01 04:22:63
  TRACK 03 AUDIO
    TITLE "Бирюсинка (Э.Колмановский - Л.Ошанин)"
    PERFORMER "Иосиф Кобзон"
    INDEX 01 06:53:44
  TRACK 04 AUDIO
    TITLE "Я шагаю по Москве (А.Петров - Г.Шпаликов)"
    PERFORMER "Эмиль Горобец"
    INDEX 01 10:13:28
  TRACK 05 AUDIO
    TITLE "Надежда (А.Пахмутова - Н.Добронравов)"
    PERFORMER "Анна Герман"
    INDEX 01 13:04:02
  TRACK 06 AUDIO
    TITLE "Опять плывут куда-то корабли (А.Колкер - И.Кашежева)"
    PERFORMER "Эдуард Хиль"
    INDEX 01 16:49:41
  TRACK 07 AUDIO
    TITLE "Гляжу в озёра синие (Л.Афанасьев - И.Шаферан)"
    PERFORMER "Екатерина Шаврина"
    INDEX 01 20:28:16
  TRACK 08 AUDIO
    TITLE "Идёт девчонка (Л.Вербицкий - А.Вратарев)"
    PERFORMER "Иосиф Кобзон"
    INDEX 01 24:09:10
  TRACK 09 AUDIO
    TITLE "Чёртово колесо (А.Бабаджанян - Е.Евтушенко)"
    PERFORMER "Муслим Магомаев"
    INDEX 01 26:25:56
  TRACK 10 AUDIO
    TITLE "Песня о Робинзоне (Ю.Чернавский - Л.Дербенёв)"
    PERFORMER "Алла Пугачёва"
    INDEX 01 30:34:66
  TRACK 11 AUDIO
    TITLE "Песня остаётся с человеком (А.Островский - С.Островой)"
    PERFORMER "Иосиф Кобзон"
    INDEX 01 35:23:27
  TRACK 12 AUDIO
    TITLE "Обнимая небо (А.Пахмутова - Н.Добронравов)"
    PERFORMER "Эдуард Хиль"
    INDEX 01 38:58:25
  TRACK 13 AUDIO
    TITLE "Не повторяется (С.Туликов - М.Пляцковский)"
    PERFORMER "ВИА «САМОЦВЕТЫ»"
    INDEX 01 41:25:04
  TRACK 14 AUDIO
    TITLE "Как тебя зовут (В.Гамалия - М.Танич)"
    PERFORMER "Нина Бродская"
    INDEX 01 44:53:04
  TRACK 15 AUDIO
    TITLE "Берегите друзей (А.Экимян - Р.Гамзатов, пер.Н.Гребнева)"
    PERFORMER "Иосиф Кобзон"
    INDEX 01 47:40:36
  TRACK 16 AUDIO
    TITLE "Последняя встреча (В.Левашов - В.Крутецкий)"
    PERFORMER "Анна Герман"
    INDEX 01 52:11:74
  TRACK 17 AUDIO
    TITLE "Я люблю тебя, жизнь (Э.Колмановский - К.Ваншенкин)"
    PERFORMER "Георг Отс"
    INDEX 01 56:13:43
-- --
[Профиль] [ЛС]

Создавать темы 13-Авг-2015 11:37 (спустя 1 год 2 месяца)

Топик был перенесен из форума Неофициальные и внежанровые сборники 70х-80х-90х (Ретро) в форум Other genres
sergej644
 
Показать сообщения:    

Текущее время: Сегодня 20:58

Часовой пояс: GMT



Вы не можете начинать темы
Вы не можете отвечать на сообщения
Вы не можете редактировать свои сообщения
Вы не можете удалять свои сообщения
Вы не можете голосовать в опросах
Вы не можете прикреплять файлы к сообщениям
Вы не можете скачивать файлы